#VERSION:0.83;
#TITLE:A Little Dream;
#SUBTITLE:;
#ARTIST:M2U;
#TITLETRANSLIT:;
#SUBTITLETRANSLIT:;
#ARTISTTRANSLIT:;
#GENRE:VARIETY;
#ORIGIN:;
#CREDIT:MUINELIM;
#BANNER:A Little Dream.png;
#BACKGROUND:A Little Dream-bg.png;
#PREVIEWVID:;
#JACKET:A Little Dream-jacket.png;
#CDIMAGE:;
#DISCIMAGE:;
#LYRICSPATH:;
#CDTITLE:;
#MUSIC:A Little Dream.ogg;
#OFFSET:0.000000;
#SAMPLESTART:60.007996;
#SAMPLELENGTH:15.000000;
#SELECTABLE:YES;
#BPMS:0.000=128.000;
#STOPS:;
#DELAYS:;
#WARPS:;
#TIMESIGNATURES:0.000=4=4;
#TICKCOUNTS:0.000=4;
#COMBOS:0.000=1;
#SPEEDS:0.000=1.000=0.000=0;
#SCROLLS:0.000=1.000;
#FAKES:;
#LABELS:0.000=Song Start;
#BGCHANGES:;
#KEYSOUNDS:;
#ATTACKS:
;

//---------------dance-single - ----------------
#NOTEDATA:;
#CHARTNAME:;
#STEPSTYPE:dance-single;
#DESCRIPTION:;
#CHARTSTYLE:;
#DIFFICULTY:Beginner;
#METER:3;
#RADARVALUES:0.113509,0.156307,0.006513,0.000000,0.000000,122.000000,121.000000,1.000000,0.000000,0.000000,0.000000,0.000000,0.000000,0.000000,0.113509,0.156307,0.006513,0.000000,0.000000,122.000000,121.000000,1.000000,0.000000,0.000000,0.000000,0.000000,0.000000,0.000000;
#CREDIT:MILEN;
#NOTES:
0000
0000
0000
0000
,
0000
0000
0000
0000
,
0000
0000
0000
0000
,
0000
0000
0000
0000
,
1000
0000
0000
0000
,
1000
0000
0000
0000
,
0001
0000
0000
0000
,
0001
0000
0000
0000
,
1000
0000
0000
0000
,
0100
0000
0000
0000
,
0010
0000
0000
0000
,
0001
0000
0000
0000
,
0001
0000
0000
0000
,
0010
0000
0000
0000
,
0100
0000
0000
0000
,
1000
0000
0000
0000
,
1000
0000
0001
0000
,
1000
0000
0001
0000
,
1000
0000
0000
0000
,
0000
0000
0000
0000
,
0010
0000
0100
0000
,
0010
0000
0100
0000
,
0010
0000
0000
0000
,
0000
0000
0000
0000
,
1000
0000
0100
0000
,
1000
0000
0000
0000
,
0001
0000
0010
0000
,
0001
0000
0000
0000
,
0100
0000
0010
0000
,
0100
0000
0000
0000
,
0001
0000
1000
0000
,
0001
0000
0000
0000
,
1000
0000
0100
0000
,
0010
0000
0001
0000
,
1000
0000
0100
0000
,
0010
0000
0010
0000
,
0001
0000
0100
0000
,
0010
0000
1000
0000
,
0001
0000
0100
0000
,
0010
0000
0010
0000
,
0010
0000
0000
0000
,
1000
0000
0000
0000
,
0001
0000
0000
0000
,
0100
0000
0100
0000
,
0001
0000
1000
0000
,
0010
0000
0100
0000
,
0001
0000
1000
0000
,
0010
0000
0100
0000
,
0010
0000
0000
0000
,
1000
0000
0000
0000
,
0001
0000
0000
0000
,
0100
0000
0100
0000
,
0001
0000
0010
0000
,
0001
0000
1000
0000
,
0100
0000
1000
0000
,
0010
0000
0010
0000
,
1000
0000
0100
0000
,
1000
0000
0000
0000
,
0001
0000
0010
0000
,
0001
0000
0000
0000
,
0100
0000
0010
0000
,
0100
0000
0000
0000
,
0001
0000
1000
0000
,
0001
0000
0000
0000
,
1000
0000
1000
0000
,
0100
0000
0100
0000
,
0010
0000
0010
0000
,
0001
0000
0001
0000
,
0100
0000
0100
0000
,
0010
0000
0010
0000
,
1000
0000
1000
0000
,
0001
0000
0001
0000
,
1001
0000
0000
0000
,
1000
0000
0001
0000
,
1000
0000
0001
0000
,
0010
0000
0100
0000
,
1000
0000
0010
0000
,
0100
0000
0001
0000
,
0010
0000
0100
0000
,
1000
0000
0010
0010
,
0010
0000
0000
0000
;

//---------------dance-single - ----------------
#NOTEDATA:;
#CHARTNAME:;
#STEPSTYPE:dance-single;
#DESCRIPTION:;
#CHARTSTYLE:;
#DIFFICULTY:Easy;
#METER:6;
#RADARVALUES:0.235391,0.312614,0.104205,0.052102,0.000000,253.000000,237.000000,16.000000,8.000000,0.000000,0.000000,0.000000,0.000000,0.000000,0.235391,0.312614,0.104205,0.052102,0.000000,253.000000,237.000000,16.000000,8.000000,0.000000,0.000000,0.000000,0.000000,0.000000;
#CREDIT:MILEN;
#NOTES:
0000
0000
0000
0000
,
0000
0000
0000
0000
,
0000
0000
0000
0000
,
0000
0000
0000
0000
,
1000
0000
0001
0000
,
0100
0000
0010
0000
,
1000
0000
0001
0000
,
0200
0000
0300
0010
,
0010
0000
1000
0001
,
0010
0000
0001
1000
,
0100
0000
1000
0001
,
0100
0000
0001
1000
,
0010
0100
0010
1000
,
0100
1000
0001
0010
,
0001
0100
0010
0100
,
0001
1000
0001
1000
,
1001
0000
0001
0000
,
0100
0000
0010
0000
,
1000
0000
0010
0100
,
0020
0000
0030
0100
,
0110
0000
0010
0000
,
1000
0000
0001
0000
,
0100
0000
0001
1000
,
0002
0000
0003
1000
,
1001
0000
0001
0100
,
0010
0010
0000
0000
,
1001
0000
1000
0010
,
0100
0100
0000
0000
,
1001
0000
0001
0010
,
0100
0100
1000
0000
,
0001
0000
1000
0000
,
0010
0000
0100
0000
0010
0010
0010
0000
,
1000
0100
0010
0000
,
0001
0010
0100
0000
,
1000
0010
0100
0000
,
0001
0100
0010
1000
,
1001
0000
0001
0010
,
0100
0000
1000
0100
,
0010
0000
0001
1000
,
0001
0100
0010
0100
,
0110
0000
0000
0002
,
0000
0000
0003
2000
,
0000
0000
3000
0010
,
0100
0001
1000
0010
,
0100
0001
1000
0100
,
0010
0001
1000
0100
,
0010
0001
1000
0010
,
0100
0010
0110
1001
,
0110
0010
1000
0000
,
0010
0100
0001
0000
,
0100
0010
1000
0001
,
0100
0100
0100
0100
,
0010
1000
0100
1100
,
0000
0010
0001
0101
,
0000
0010
1000
0100
,
0010
0010
0010
0001
,
1001
0000
1000
0010
,
0100
0100
0000
0000
,
1001
0000
0001
0100
,
0010
0010
0000
0000
,
1001
0000
1000
0100
,
0010
0010
0001
0000
,
1000
0000
0001
0000
,
0100
0000
0010
0000
0100
0100
0100
0000
,
0001
0010
0001
0010
,
0100
1000
0100
1000
,
0001
0010
0100
1000
,
0001
0100
0010
1000
,
0001
0001
1000
1000
,
0010
0010
0100
0100
,
0001
1000
0010
0100
,
0010
1000
0001
0100
,
0020
0000
0030
1000
,
0002
0000
0003
1000
,
0200
0000
0300
1000
,
0001
0001
1000
1000
,
0010
0001
0100
1000
,
0010
0001
0100
1000
,
0010
0001
0100
1000
,
0010
0100
0010
0010
,
1001
0000
0000
0000
;

//---------------dance-double - ----------------
#NOTEDATA:;
#CHARTNAME:;
#STEPSTYPE:dance-double;
#DESCRIPTION:;
#CHARTSTYLE:;
#DIFFICULTY:Easy;
#METER:6;
#RADARVALUES:0.224226,0.260512,0.110717,0.058615,0.000000,241.000000,224.000000,17.000000,9.000000,0.000000,0.000000,0.000000,0.000000,0.000000,0.224226,0.260512,0.110717,0.058615,0.000000,241.000000,224.000000,17.000000,9.000000,0.000000,0.000000,0.000000,0.000000,0.000000;
#CREDIT:MILEN;
#NOTES:
00000000
00000000
00000000
00000000
,
00000000
00000000
00000000
00000000
,
00000000
00000000
00000000
00000000
,
00000000
00000000
00000000
00000000
,
00001000
00000000
01000000
00000000
,
00001000
00000000
00010000
00000000
,
00000010
00000000
00010000
00000000
,
00022000
00000000
00033000
00000100
,
00000100
00000000
00001000
00000100
,
00010000
00000000
00000100
00010000
,
00001000
00000000
00010000
00001000
,
00100000
00000000
00100000
00010000
,
10000000
00100000
01000000
00010000
,
00100000
00001000
00010000
00000100
,
00001000
00000010
00000100
00000001
,
00001000
00000100
00010000
00001000
,
00011000
00000000
00010000
00000000
,
01000000
00000000
10000000
00000000
,
00100000
00000000
00010000
00001000
,
00020000
00000000
00030000
00001000
,
00011000
00000000
00010000
00000000
,
00001000
00000000
00000100
00000000
,
00000001
00000000
00000010
00000100
,
00000020
00000000
00000030
00000100
,
00000110
00000000
00000001
00000100
,
00001000
00010000
00000000
00000000
,
00011000
00000000
00001000
00010000
,
00100000
10000000
00000000
00000000
,
10010000
00000000
10000000
01000000
,
00010000
00001000
00010000
00000000
,
00001000
00000000
00000100
00000000
,
00000001
00000010
00000100
00000110
,
00000001
00000000
00000100
00000000
,
00001000
00000000
00010000
00000000
,
00100000
00000000
10000000
00000000
,
01000000
00000000
00010000
00000000
,
00011000
00000000
00001000
00000000
,
00100000
00000000
01000000
00000000
,
00010000
00000000
00001000
00000000
,
00000010
00000000
00000001
00000000
,
00001001
00000000
00000000
00000200
,
00000000
00000000
00000300
00000020
,
00000000
00000000
00000030
00000100
,
00001000
00010000
00100000
00010000
,
00001000
00010000
00100000
10000000
,
01000000
00010000
00001000
00010000
,
00001000
00000010
00000001
00000100
,
00001000
00010000
00001000
00010000
,
00011000
00100000
00010000
00000000
,
01000000
00001000
00010000
00000000
,
00001000
00010000
00000010
00000000
,
00001000
00000100
00010000
00001000
,
00100000
00010000
01000000
01100000
,
00000000
00100000
00010000
00011000
,
00000000
00001000
00000100
00000001
,
00000010
00001000
00010000
00100000
,
01100000
00000000
10000000
01000000
,
00010000
00001000
00000000
00000000
,
00011000
00000000
00010000
00001000
,
00000010
00000001
00000000
00000000
,
00001001
00000000
00000001
00000100
,
00001000
00010000
00001000
00000000
,
00010000
00000000
01000000
00000000
,
10000000
00100000
01000000
01100000
,
00010000
01000000
00010000
01000000
,
00001000
00010000
00001000
00010000
,
00000010
00001000
00000010
00001000
,
00000100
00010000
00001000
00100000
,
00010000
01000000
00100000
10000000
,
01000000
00010000
00001000
00000010
,
00000001
00000100
00000010
00010000
,
00001000
00100000
00010000
10000000
,
02000000
00000000
03000000
00010000
,
00002000
00000000
00003000
00000010
,
00000002
00000000
00000003
00001000
,
00000010
00010000
00001000
01000000
,
00010000
00100000
01000000
10000000
,
00100000
00010000
00001000
00000100
,
00000001
00000010
00000100
00010000
,
00001000
00100000
01000000
10000000
,
10010000
00000000
00000000
00000000
;

//---------------dance-single - ----------------
#NOTEDATA:;
#CHARTNAME:;
#STEPSTYPE:dance-single;
#DESCRIPTION:;
#CHARTSTYLE:;
#DIFFICULTY:Medium;
#METER:9;
#RADARVALUES:0.371229,0.416819,0.208409,0.078153,0.110717,399.000000,367.000000,32.000000,12.000000,0.000000,0.000000,0.000000,0.000000,0.000000,0.371229,0.416819,0.208409,0.078153,0.110717,399.000000,367.000000,32.000000,12.000000,0.000000,0.000000,0.000000,0.000000,0.000000;
#CREDIT:MILEN;
#NOTES:
0000
0000
0000
0000
,
0000
0000
0000
0000
,
0000
0000
0000
0000
,
0000
0000
0000
0000
,
1000
0010
1000
0010
,
0100
0001
0100
0001
,
1000
0010
0100
0001
,
1000
0000
0000
1000
0000
0000
0001
0000
0000
0001
0000
0000
0200
0000
0000
0000
,
0020
0000
0330
0000
0000
0000
0010
0000
0010
0000
0000
1000
0000
0000
0010
0000
,
0000
0100
0001
0000
0010
0000
0100
0000
,
1000
0000
0000
1000
0000
0000
0001
0000
0001
0000
0000
0000
1000
0000
0000
0000
,
0001
0000
0000
0001
0000
0000
1000
0000
1000
0000
0000
0000
1001
0000
0000
0000
,
0001
0100
0010
1000
,
0001
0010
0100
1000
,
0010
0100
0001
1000
,
0100
0000
0000
0100
0000
0000
0010
0000
0000
0010
0000
0000
0100
0000
0000
0000
,
0110
0000
0001
0010
0001
0000
0100
0000
,
0010
0000
0100
0000
0010
0000
1000
0100
,
1000
0000
0010
0000
0100
0000
0001
1000
,
0001
0000
0100
0000
0010
0000
1000
0001
,
1000
0000
0001
0100
0001
0000
0100
0000
,
0010
0000
0100
0000
0010
0000
1000
0010
,
1000
0000
0010
0000
0100
0000
0001
1000
,
0001
0000
0000
1000
0000
0000
0010
0000
1010
0000
0000
0000
0101
0000
0000
0000
,
0002
0000
0000
0000
0003
0000
0000
0000
0010
0000
0000
0001
0000
0000
0010
0000
,
0001
0100
0010
1010
,
2000
0000
0000
0000
3000
0000
0000
0000
0100
0000
0000
1000
0000
0000
0100
0000
,
0000
1100
0000
0010
0000
0001
0000
0100
,
0020
0000
0000
0000
0000
0000
1030
0000
0001
0000
0000
0100
0000
0000
0001
0000
,
0011
0000
1100
0000
1001
0000
0000
0010
,
0010
0000
0000
0000
0100
0000
0000
0000
0010
0000
0000
1000
0000
0000
0001
0000
,
0000
0000
0100
0000
0000
0100
0000
0000
0010
0000
0010
0000
0010
0000
0000
0000
,
1000
0000
0100
0000
0010
0001
0010
0000
,
0001
0000
0010
0000
0100
1000
0100
0000
,
1000
0000
0010
0000
0100
0001
0100
0000
,
0010
0000
1000
0000
0010
0000
0000
0000
0100
0000
0000
0001
0000
0000
1000
0000
,
1001
0000
0001
0000
0100
0000
0010
1000
,
0010
0000
1000
0000
0010
0000
0100
0001
,
0100
0001
0100
0010
,
1000
0000
0010
0000
0100
0000
0010
0000
1000
0000
0000
0001
0000
0000
1000
0000
,
1001
0001
0100
2000
,
3000
0100
0001
0010
,
0100
1000
0010
0100
,
0101
1010
1100
0011
,
0001
0001
0000
1000
0001
0010
0100
0000
,
0000
1000
1000
0000
0001
1000
0100
0010
,
0000
0001
0001
0000
1000
0010
0100
0000
,
0001
0000
0000
1000
0000
0000
0010
0000
0110
0000
0000
0000
0200
0000
0000
0000
,
0310
0010
1000
0100
,
0010
0001
1000
0010
,
0100
0001
0010
0100
,
1100
1010
0101
0011
,
0000
0000
0001
0000
0000
0001
0000
0000
0100
0000
0000
0100
0000
0000
1000
0000
,
0000
0000
1000
0000
0000
1000
0000
0000
0010
0000
0000
0010
0000
0000
0001
0000
,
0000
0000
0001
0000
0000
1000
0000
0000
1000
0000
0000
0010
0000
0000
0100
0000
,
0110
0000
0000
0010
0000
0000
1000
0000
0001
0000
0000
0000
0100
0000
0010
0000
,
2000
0000
0000
0000
3000
0000
0000
0000
0010
0000
0000
1000
0000
0000
0010
0000
,
1000
0100
0010
0011
,
0002
0000
0000
0000
0003
0000
0000
0000
0100
0000
0000
0001
0000
0000
0100
0000
,
0000
0101
0000
0010
0000
1000
0000
0100
,
0020
0000
0000
0000
0000
0000
0031
0000
1000
0000
0000
0100
0000
0000
1000
0000
,
1010
0000
0101
0000
1001
0000
0000
0010
,
0010
0000
0000
0000
0100
0000
0000
0000
0010
0000
0000
0001
0000
0000
1000
0000
,
0000
0000
0100
0000
0000
0100
0000
0000
0010
0000
0010
0000
0010
0000
0000
0000
,
0001
0000
0100
0000
0010
1000
0100
0000
,
1000
0000
0010
0000
0100
0001
0010
0000
,
0001
0000
0010
0000
0100
1000
0010
0000
,
0100
0000
0001
0000
0010
0000
0000
0000
0100
0000
0000
1000
0000
0000
0001
0000
,
1001
0000
1000
0000
0100
0000
0010
0001
,
0100
0000
0001
0000
0010
0000
0100
1000
,
0010
1000
0100
0010
,
0001
0000
0010
0000
0100
0000
0010
0000
0001
0000
0000
1000
0000
0000
0001
0000
,
2002
0000
0003
0000
0000
0000
3010
0000
0010
0000
0000
0001
0000
0000
0100
0000
,
0000
1000
0100
0010
0100
0010
0001
1000
,
0100
0000
0000
0010
0000
0000
0100
0000
0110
0000
0000
0000
0001
0000
0100
0000
,
1000
1010
0001
0011
,
1000
0100
0010
0000
0010
0001
0100
0000
,
0010
1000
0100
0000
0100
0010
0001
0000
,
1000
0010
0100
0000
0100
0001
0010
0000
,
1000
0000
0000
0010
0000
0000
0001
0000
0000
0100
0000
0000
1000
0000
0000
0000
,
0110
0000
0000
0000
;

//---------------dance-single - ----------------
#NOTEDATA:;
#CHARTNAME:;
#STEPSTYPE:dance-single;
#DESCRIPTION:;
#CHARTSTYLE:;
#DIFFICULTY:Hard;
#METER:12;
#RADARVALUES:0.546144,0.547074,0.612202,0.143281,0.338665,587.000000,493.000000,94.000000,22.000000,0.000000,0.000000,0.000000,0.000000,0.000000,0.546144,0.547074,0.612202,0.143281,0.338665,587.000000,493.000000,94.000000,22.000000,0.000000,0.000000,0.000000,0.000000,0.000000;
#CREDIT:MILEN;
#NOTES:
0000
0000
0000
0000
,
0000
0000
0000
0000
,
0000
0000
0000
0000
,
0000
0000
0000
0000
,
1001
0000
0001
0000
0000
0100
0000
0000
0010
0000
0000
1000
0000
0000
0001
0000
,
0000
0000
1000
0000
0000
0010
0000
0000
0100
0000
0000
0001
0000
0000
1000
0000
,
0000
0000
0001
0000
0000
0010
0000
0000
0100
0000
0000
1000
0000
0000
0010
0000
,
0100
0000
0000
0010
0000
0000
1000
0000
0000
0001
0000
0000
0101
0000
0000
0000
,
2020
0000
0030
0000
0000
0000
0100
0000
3100
0000
0000
0010
0000
0000
0011
0000
,
0000
0000
0001
0000
0100
0000
0000
0110
0000
0000
0010
0000
1000
0000
0001
0000
,
0100
0000
0000
0010
0000
0100
0010
0000
1010
0000
0000
0000
0101
0000
0001
0000
,
0010
0000
0000
0100
0000
0010
0100
0000
1100
0000
0000
0000
0011
0000
0000
0000
,
0202
0000
0003
0000
0000
0000
0010
0000
0310
0000
0000
1010
0000
0000
1100
0000
,
0000
0000
1000
0000
0001
0000
0000
0010
0000
0000
0100
0000
1000
0000
0010
0000
,
0100
0000
0000
0010
0000
1000
0100
0000
0010
0000
0001
0000
0010
0000
0100
0000
,
0110
0000
0000
0001
0000
0000
0011
0000
0000
1000
0000
0000
1100
0000
0000
0000
,
1001
0000
0000
0000
0001
0000
0100
0000
0010
0000
0000
1000
0000
0000
0001
0000
,
0000
0000
0010
0000
0100
0000
1000
0000
1010
0000
0000
0000
0010
0000
0100
0001
,
0000
0000
0010
0000
0001
0000
0100
0010
0000
0000
1000
0000
0100
0000
0010
0100
,
0010
0000
0000
0000
0011
0000
0000
0000
1100
0000
0000
0000
1000
0010
1000
0000
,
0002
0000
0000
0000
0103
0000
0010
0000
1000
0000
0000
1100
0000
0000
0011
0000
,
0000
0001
0100
0000
0001
0010
0100
1000
,
0010
0000
0100
0000
0001
0000
1000
0100
0000
0000
0010
0000
0001
0000
0100
0010
,
0100
0000
0000
0101
0000
0000
1010
0000
1001
0000
0000
0000
0001
0000
0010
0000
,
0200
0000
0000
0000
1000
0000
0000
0000
0310
0000
0000
0011
0000
0000
0101
0000
,
0100
0000
0000
0010
0000
0000
1000
0000
0001
0000
0000
0010
0000
0000
0100
0000
,
1100
0000
0000
0000
1000
0000
0010
0000
0001
0000
0000
0010
0000
0000
2000
0000
,
0000
0000
3100
0000
0000
0001
0000
0000
0100
0000
0000
1000
0000
0000
0010
0000
,
0210
0000
0000
0000
0000
0000
0301
0000
0001
0000
0010
0001
0000
0000
0100
0000
,
0110
0000
1010
0000
0202
0300
0000
0013
,
0011
0000
0000
0000
1100
0000
0000
0000
1010
0000
0000
0110
0000
0000
1001
0000
,
0000
0000
0001
0000
0100
0010
0000
0000
1010
0000
1010
0000
0101
0000
0000
0000
,
0001
0010
0100
1000
0001
0010
0100
0110
,
0000
1000
0100
0010
0001
1000
0100
0110
,
0000
0000
0001
0000
0100
0000
0010
0000
1000
0100
0000
1000
0000
0000
0001
0000
,
0100
0000
1000
0000
0100
0000
0001
0000
0010
0000
0000
0100
0000
0000
0010
0000
,
0110
0000
1000
0010
0100
0001
1000
1001
,
0000
0100
0001
1000
0010
0100
0001
1001
,
0000
0000
0010
0000
1000
0000
0001
0000
0100
0010
0000
0100
0000
0000
1000
0000
,
0100
0000
0001
0000
0010
0000
0100
0000
1000
0000
0000
1010
0000
0000
0001
0000
,
0011
0000
0010
0000
0000
0001
0000
0000
1000
0000
0000
0200
0000
0000
0000
0000
,
0000
0000
1300
0010
1000
0010
0000
0100
0000
0001
0000
0000
1000
0000
0100
0000
,
0010
0000
1000
0000
0010
0000
0001
0100
0000
0000
0220
0000
0330
0000
1000
0000
,
1100
0101
1010
0011
,
0001
0000
0100
0000
0010
0000
1000
0000
0001
0000
0100
0000
0010
0100
0010
0000
,
1000
0000
0010
0000
0100
0000
0001
0000
1000
0000
0010
0000
0100
0010
0100
0000
,
0001
0000
0010
0000
0100
0000
1000
0000
0001
0000
0010
0000
0100
0010
0100
0000
,
1000
0000
0000
1010
0000
0000
0001
0000
0000
0011
0000
0000
0110
0000
0000
0000
,
1100
0000
1000
0000
0000
0010
0000
0000
0001
0000
0000
0100
0000
0000
1000
0000
,
0000
0000
0001
0000
0000
0010
0000
0000
1000
0000
0000
0100
0000
0000
0001
0010
,
0001
0000
1000
0010
0000
1000
0000
0000
0100
0000
0000
0001
0000
0000
0010
0100
,
0010
0000
0000
0100
1000
0000
0000
1000
0001
0000
0000
0011
0000
0000
0110
0000
,
0100
0000
1000
0000
0000
0010
0000
0000
0001
0000
0000
0100
0000
0000
1000
0000
,
0000
0000
0001
0000
0000
0010
0000
0000
1000
0000
0000
0100
0000
0000
0001
0000
,
0000
0000
1000
0000
0000
0010
0000
0000
0001
0000
0000
0100
0000
0000
1000
0000
,
1010
0000
0000
0001
0000
0000
0011
0000
0000
0100
0000
0000
0110
0000
0010
0000
,
0200
0000
0000
0000
0001
0000
0000
0000
0310
0000
0000
1010
0000
0000
1100
0000
,
0100
0000
0000
0010
0000
0000
0001
0000
1000
0000
0000
0010
0000
0000
0100
0000
,
0101
0000
0000
0000
0001
0000
0010
0000
1000
0000
0000
0010
0000
0000
0002
0000
,
0000
0000
0103
0000
0000
1000
0000
0000
0100
0000
0000
0001
0000
0000
0010
0000
,
0210
0000
0000
0000
0000
0000
1300
0000
1000
0000
0010
1000
0000
0000
0100
0000
,
0110
0000
0011
0000
2200
0300
0000
3010
,
1010
0000
0000
0000
0101
0000
0000
0000
0011
0000
0000
0110
0000
0000
1001
0000
,
0000
0000
1000
0000
0100
0010
0000
0000
0011
0000
0011
0000
1100
0000
0000
0000
,
1000
0000
0010
0000
0001
0000
0010
0000
1000
0000
0100
0000
0010
0000
0001
0010
,
0001
0000
0100
0000
1000
0000
0100
0000
0001
0000
0010
0000
0100
0000
1000
0100
,
1000
0000
0010
0000
0001
0000
0010
0000
1000
0100
0000
0110
0000
0000
0010
0000
,
0001
0000
0100
0000
1000
0000
0100
0000
0001
0000
0000
0010
0000
0000
0100
0000
,
1100
0000
1000
0000
0010
0000
0001
0000
0010
0000
1000
0000
0100
0000
0010
0100
,
0010
0000
0001
0000
0100
0000
1000
0000
0100
0000
0001
0000
0010
0000
0100
0010
,
0100
0000
1000
0000
0010
0000
0001
0000
0010
1000
0000
1001
0000
0000
0001
0000
,
0100
0000
1000
0000
0100
0000
0001
0000
0011
0000
0000
1010
0000
0000
1100
0000
,
0202
0000
0300
0000
0000
0000
1003
0000
1000
0000
0010
0100
0000
0000
0101
0000
,
0000
0000
0001
0010
0001
0010
0000
0100
0000
1000
0010
0000
0100
0000
0001
0000
,
1001
0000
0000
1000
0000
0010
0100
0000
0001
0000
0010
0000
0000
0000
0100
0000
,
1100
0101
1010
0011
,
0001
0001
0100
0100
1000
1000
0010
0010
,
0001
0100
0010
1000
0001
0010
0100
0001
,
0100
1000
0001
0010
1000
0010
0100
1000
,
1010
0000
0000
0011
0000
0000
1100
0000
0000
0101
0000
0000
2002
0000
3003
0000
,
0110
0000
0000
0000
;

//---------------dance-double - ----------------
#NOTEDATA:;
#CHARTNAME:;
#STEPSTYPE:dance-double;
#DESCRIPTION:;
#CHARTSTYLE:;
#DIFFICULTY:Hard;
#METER:13;
#RADARVALUES:0.536840,0.547074,0.547074,0.143281,0.338665,577.000000,493.000000,84.000000,22.000000,0.000000,0.000000,0.000000,0.000000,0.000000,0.536840,0.547074,0.547074,0.143281,0.338665,577.000000,493.000000,84.000000,22.000000,0.000000,0.000000,0.000000,0.000000,0.000000;
#CREDIT:MILEN;
#NOTES:
00000000
00000000
00000000
00000000
,
00000000
00000000
00000000
00000000
,
00000000
00000000
00000000
00000000
,
00000000
00000000
00000000
00000000
,
00011000
00000000
00010000
00000000
00000000
01000000
00000000
00000000
10000000
00000000
00000000
00100000
00000000
00000000
00010000
00000000
,
00000000
00000000
00001000
00000000
00000000
00000100
00000000
00000000
00000001
00000000
00000000
00000010
00000000
00000000
00001000
00000000
,
00000000
00000000
00010000
00000000
00000000
01000000
00000000
00000000
10000000
00000000
00000000
00100000
00000000
00000000
00010000
00000000
,
00001000
00000000
00000000
00000100
00000000
00000000
00000001
00000000
00000000
00000010
00000000
00000000
00001000
00000000
00000000
00000000
,
00022000
00000000
00030000
00000000
00000000
00000000
01000000
00000000
01003000
00000000
00000000
00010000
00000000
00000000
10010000
00000000
,
00000000
00000000
10000000
00000000
00100000
00000000
00000000
01100000
00000000
00000000
01000000
00000000
00010000
00000000
00100000
00000000
,
01000000
00000000
00000000
00010000
00000000
00001000
00010000
00000000
00010100
00000000
00000000
00000000
01001000
00000000
00001000
00000000
,
00010000
00000000
00000000
00001000
00000000
00000100
00000010
00000000
00000110
00000000
00000000
00000000
00001010
00000000
00000000
00000000
,
00000202
00000000
00000300
00000000
00000000
00000000
00000010
00000000
00000013
00000000
00000000
00001000
00000000
00000000
00011000
00000000
,
00000000
00000000
00010000
00000000
01000000
00000000
00000000
10000000
00000000
00000000
00100000
00000000
01000000
00000000
00100000
00000000
,
00010000
00000000
00000000
00001000
00000000
00010000
00000100
00000000
00001000
00000000
00000100
00000000
00000010
00000000
00000001
00000000
,
00000101
00000000
00000000
00001000
00000000
00000000
00001010
00000000
00000000
00000100
00000000
00000000
00010100
00000000
00000000
00000000
,
00011000
00000000
00000000
00000000
00001000
00000000
00100000
00000000
00010000
00000000
00000000
01000000
00000000
00000000
10000000
00000000
,
00000000
00000000
01000000
00000000
00100000
00000000
00010000
00000000
00011000
00000000
00000000
00000000
00001000
00000000
00100000
01000000
,
00000000
00000000
00010000
00000000
00001000
00000000
00000010
00000100
00000000
00000000
00000010
00000000
00000001
00000000
00000100
00001000
,
00010000
00000000
00000000
00000000
00010010
00000000
00000000
00000000
01001000
00000000
00000000
00000000
00001000
00010000
00100000
00000000
,
02000000
00000000
00000000
00000000
03100000
00000000
10000000
00000000
01000000
00000000
00000000
01010000
00000000
00000000
00011000
00000000
,
00000000
00001000
00100000
00000000
01000000
00010000
00001000
00000010
,
00000100
00000000
00001000
00000000
00000010
00000000
00000001
00000010
00000000
00000000
00001000
00000000
00000100
00000000
00000010
00000100
,
00000010
00000000
00000000
00000011
00000000
00000000
00001100
00000000
00001001
00000000
00000000
00000000
00000001
00000000
00000100
00000000
,
00000020
00000000
00000000
00000000
00000001
00000000
00000000
00000000
00001030
00000000
00000000
00001100
00000000
00000000
00010100
00000000
,
00010000
00000000
00000000
00001000
00000000
00000000
00100000
00000000
01000000
00000000
00000000
00010000
00000000
00000000
00001000
00000000
,
01001000
00000000
00000000
00000000
01000000
00000000
00100000
00000000
00010000
00000000
00000000
00100000
00000000
00000000
20000000
00000000
,
00000000
00000000
31000000
00000000
00000000
00010000
00000000
00000000
00001000
00000000
00000000
00000010
00000000
00000000
00000001
00000000
,
00000201
00000000
00000000
00000000
00000000
00000000
00001000
00000000
00001300
00000000
00010000
00001000
00000000
00000000
00100000
00000000
,
00110000
00000000
01010000
00000000
20200000
00300000
00000000
31000000
,
01010000
00000000
00000000
00000000
00011000
00000000
00000000
00000000
00101000
00000000
00000000
00001000
00000000
00000000
00010010
00000000
,
00000000
00000000
00000010
00000000
00001000
00000100
00000000
00000000
00001100
00000000
00000001
00000000
00000011
00000000
00000000
00000000
,
00000010
00001000
00010000
00100000
01000000
00100000
10000000
10000000
,
00000000
01000000
00010000
00001000
00000100
00000010
00000100
00000001
,
00000000
00000000
00000010
00000000
00001000
00000000
00010000
00000000
00001000
00100000
00000000
01000000
00000000
00000000
00010000
00000000
,
01000000
00000000
10000000
00000000
00100000
00000000
00010000
00000000
00001000
00000000
00000000
00000100
00000000
00000000
00000001
00000000
,
00000011
00000000
00000010
00000100
00001000
00010000
01000000
00100000
,
00000000
10000000
00100000
01000000
00010000
00001000
00000100
00000010
,
00000000
00000000
00000001
00000000
00000100
00000000
00000010
00000000
00001000
00000100
00000000
00000001
00000000
00000000
00000100
00000000
,
00010000
00000000
00001000
00000000
00100000
00000000
01000000
00000000
10000000
00000000
00000000
10100000
00000000
00000000
00010000
00000000
,
00011000
00000000
00100000
00000000
00000000
01000000
00000000
00000000
00010000
00000000
00000000
00002000
00000000
00000000
00000000
00000000
,
00000000
00000000
00003010
00000100
00000010
00000100
00000000
00000010
00000000
00000001
00000000
00000000
00000100
00000000
00001000
00000000
,
00010000
00000000
01000000
00000000
00010000
00000000
00001000
00000010
00000000
00000000
00000220
00000000
00000330
00000000
00000001
00000000
,
00000101
00001100
00110000
10100000
,
10000000
00000000
01000000
00000000
00100000
00000000
00010000
00000000
00001000
00000000
00000010
00000000
00000100
00000010
00000100
00000000
,
00000001
00000000
00000010
00000000
00000100
00000000
00001000
00000000
00010000
00000000
01000000
00000000
00100000
01000000
00100000
00000000
,
10000000
00000000
01000000
00000000
00100000
00000000
00010000
00000000
00001000
00000000
00000010
00000000
00000100
00000010
00000100
00000000
,
00000001
00000000
00000000
00000011
00000000
00000000
00001000
00000000
00000000
00010100
00000000
00000000
01001000
00000000
00000000
00000000
,
01010000
00000000
00010000
00000000
00000000
00100000
00000000
00000000
10000000
00000000
00000000
01000000
00000000
00000000
00010000
00000000
,
00000000
00000000
00001000
00000000
00000000
00000100
00000000
00000000
00000001
00000000
00000000
00000010
00000000
00000000
00001000
00010000
,
00001000
00000000
00010000
00000010
00000000
00010000
00000000
00000000
00001000
00000000
00000000
00100000
00000000
00000000
00001000
00010000
,
00001000
00000000
00000000
00010000
01000000
00000000
00000000
01000000
10000000
00000000
00000000
10100000
00000000
00000000
01010000
00000000
,
00010000
00000000
00001000
00000000
00000000
00000100
00000000
00000000
00000010
00000000
00000000
00000001
00000000
00000000
00001000
00000000
,
00000000
00000000
00010000
00000000
00000000
00100000
00000000
00000000
01000000
00000000
00000000
10000000
00000000
00000000
00010000
00000000
,
00000000
00000000
00001000
00000000
00000000
00000010
00000000
00000000
00000100
00000000
00000000
00000001
00000000
00000000
00001000
00000000
,
00001100
00000000
00000000
00010000
00000000
00000000
00011000
00000000
00000000
01010000
00000000
00000000
10000000
00000000
01000000
00000000
,
00200000
00000000
00000000
00000000
10000000
00000000
00000000
00000000
00310000
00000000
00000000
01010000
00000000
00000000
01001000
00000000
,
00001000
00000000
00000000
00010000
00000000
00000000
00000010
00000000
00000100
00000000
00000000
00001000
00000000
00000000
00010000
00000000
,
00010100
00000000
00000000
00000000
00000100
00000000
00000010
00000000
00001000
00000000
00000000
00000010
00000000
00000000
00000002
00000000
,
00000000
00000000
00000103
00000000
00000000
00001000
00000000
00000000
00010000
00000000
00000000
00100000
00000000
00000000
10000000
00000000
,
12000000
00000000
00000000
00000000
00000000
00000000
00010000
00000000
03010000
00000000
00001000
00010000
00000000
00000000
00000010
00000000
,
00001010
00000000
00001100
00000000
00000022
00000030
00000000
00000103
,
00001100
00000000
00000000
00000000
00011000
00000000
00000000
00000000
00010010
00000000
00000000
00010000
00000000
00000000
00101000
00000000
,
00000000
00000000
00100000
00000000
00010000
01000000
00000000
00000000
01010000
00000000
10000000
00000000
10100000
00000000
00000000
00000000
,
10000000
00000000
01000000
00000000
00100000
00000000
00010000
00000000
00001000
00000000
00000100
00000000
00000010
00000000
00000001
00000100
,
00000001
00000000
00000010
00000000
00000100
00000000
00001000
00000000
00010000
00000000
00100000
00000000
01000000
00000000
10000000
00100000
,
10000000
00000000
01000000
00000000
00100000
00000000
00010000
00000000
01000000
00001000
00000000
00011000
00000000
00000000
00010000
00000000
,
00000100
00000000
00001000
00000000
00000001
00000000
00000100
00000000
00000010
00000000
00000000
00001000
00000000
00000000
00000100
00000000
,
00001100
00000000
00000001
00000000
00000100
00000000
00000010
00000000
00001000
00000000
00010000
00000000
01000000
00000000
00100000
01000000
,
00100000
00000000
10000000
00000000
00100000
00000000
01000000
00000000
00010000
00000000
00001000
00000000
00000010
00000000
00000100
00000010
,
00000100
00000000
00000001
00000000
00000100
00000000
00000010
00000000
00001000
00010000
00000000
00011000
00000000
00000000
00001000
00000000
,
00010000
00000000
01000000
00000000
00100000
00000000
10000000
00000000
11000000
00000000
00000000
01010000
00000000
00000000
00011000
00000000
,
00020200
00000000
00000300
00000000
00000000
00000000
00030010
00000000
00000010
00000000
00000100
00000001
00000000
00000000
00000011
00000000
,
00000000
00000000
00001000
00000100
00001000
00000100
00000000
00010000
00000000
00001000
00100000
00000000
01000000
00000000
10000000
00000000
,
10100000
00000000
00000000
00010000
00000000
00100000
00001000
00000000
00010000
00000000
00100000
00000000
00000000
00000000
00001000
00000000
,
00001010
00010100
01001000
00110000
,
00100000
00100000
00001000
00001000
00000010
00000010
00010000
00010000
,
01000000
01000000
00001000
00001000
00000100
00000100
00000001
00000010
,
00000100
00001000
00010000
00100000
01000000
10000000
00100000
00010000
,
00011000
00000000
00000000
01001000
00000000
00000000
00010100
00000000
00000000
00101000
00000000
00000000
00020020
00000000
00030030
00000000
,
00011000
00000000
00000000
00000000
;

//---------------dance-double - ----------------
#NOTEDATA:;
#CHARTNAME:;
#STEPSTYPE:dance-double;
#DESCRIPTION:;
#CHARTSTYLE:;
#DIFFICULTY:Medium;
#METER:9;
#RADARVALUES:0.344248,0.390767,0.149794,0.071641,0.097692,370.000000,347.000000,23.000000,11.000000,0.000000,0.000000,0.000000,0.000000,0.000000,0.344248,0.390767,0.149794,0.071641,0.097692,370.000000,347.000000,23.000000,11.000000,0.000000,0.000000,0.000000,0.000000,0.000000;
#CREDIT:MILEN;
#NOTES:
// measure 0
00000000
00000000
00000000
00000000
,  // measure 1
00000000
00000000
00000000
00000000
,  // measure 2
00000000
00000000
00000000
00000000
,  // measure 3
00000000
00000000
00000000
00000000
,  // measure 4
01000000
00001000
01000000
00001000
,  // measure 5
00010000
00000100
00010000
00000100
,  // measure 6
00001000
00000010
00010000
00001000
,  // measure 7
00100000
00010000
01000000
00002000
,  // measure 8
00020000
00000000
00033000
00000000
00000000
00000000
00010000
00000000
00010000
00000000
00000000
00000100
00000000
00000000
00001000
00000000
,  // measure 9
00000000
00000001
00001000
00000000
00000100
00000000
00000010
00000000
,  // measure 10
00000001
00000000
00000000
00000100
00000000
00000000
00001000
00000000
00001000
00000000
00000000
00000000
00010000
00000000
00000000
00000000
,  // measure 11
00100000
00000000
00000000
10000000
00000000
00000000
01000000
00000000
01000000
00000000
00000000
00000000
01100000
00000000
00000000
00000000
,  // measure 12
00100000
00010000
01000000
00001000
,  // measure 13
00010000
00100000
00010000
00001000
,  // measure 14
00000100
00001000
00010000
00000010
,  // measure 15
00001000
00000100
00000010
00000001
,  // measure 16
00001001
00000000
00001000
00000100
00001000
00000000
00000010
00000000
,  // measure 17
00010000
00000000
00001000
00000000
01000000
00000000
00010000
00100000
,  // measure 18
00010000
00000000
01000000
00000000
00001000
00000000
00010000
00001000
,  // measure 19
00010000
00000000
00000010
00000000
00010000
00000000
00001000
00010000
,  // measure 20
00001000
00000000
00000100
00000010
00000100
00000000
00001000
00000000
,  // measure 21
00010000
00000000
00100000
00000000
10000000
00000000
00100000
01000000
,  // measure 22
00100000
00000000
00010000
00000000
00001000
00000000
00000100
00000001
,  // measure 23
00000100
00000000
00000000
00000010
00000000
00000000
00010000
00000000
00010100
00000000
00000000
00000000
01001000
00000000
00000000
00000000
,  // measure 24
00002000
00000000
00000000
00000000
00003000
00000000
00000000
00000000
00010000
00000000
00000000
00100000
00000000
00000000
00100000
00000000
,  // measure 25
10000000
01000000
00100000
01000000
,  // measure 26
00020000
00000000
00000000
00000000
00030000
00000000
00000000
00000000
00001000
00000000
00000000
00000010
00000000
00000000
00000001
00000000
,  // measure 27
00000000
00000100
00000000
00000010
00000000
00000100
00000000
00001000
,  // measure 28
00020000
00000000
00000000
00000000
00000000
00000000
00031000
00000000
00100000
00000000
00000000
00010000
00000000
00000000
01000000
00000000
,  // measure 29
01100000
00000000
00100000
00000000
10010000
00000000
00000000
10000000
,  // measure 30
10000000
00000000
00000000
00000000
01000000
00000000
00000000
00000000
00010000
00000000
00000000
00001000
00000000
00000000
00010000
00000000
,  // measure 31
00000000
00000000
00000010
00000000
00000000
00000010
00000000
00000000
00000100
00000000
00000100
00000000
00000100
00000000
00000000
00000000
,  // measure 32
00000001
00000010
00001000
00010000
,  // measure 33
00001000
00000100
00000001
00000010
,  // measure 34
00001000
00010000
00001000
00000100
,  // measure 35
00000001
00000000
00000000
00000000
00000010
00000000
00000000
00000000
00001000
00000000
00000000
00010000
00000000
00000000
00001000
00000000
,  // measure 36
00011000
00010000
00100000
10000000
,  // measure 37
01000000
00010000
00001000
00010000
,  // measure 38
00100000
10000000
01000000
00010000
,  // measure 39
00001000
00000000
00100000
00000000
00010000
00000000
00100000
00000000
00001000
00000000
00000000
00010000
00000000
00000000
00001000
00000000
,  // measure 40
00011000
00010000
00001000
00000200
,  // measure 41
00000300
00000001
00000010
00001000
,  // measure 42
00000010
00000001
00000100
00001000
,  // measure 43
00010000
00010010
00001000
01001000
,  // measure 44
00010000
00010000
00000000
00000100
00001000
00000010
00010000
00000000
,  // measure 45
00000000
00001000
00001000
00000000
00100000
00010000
01000000
00001000
,  // measure 46
00000000
00010000
00010000
00000000
00001000
00010000
00100000
00000000
,  // measure 47
10000000
00000000
00000000
01000000
00000000
00000000
00100000
00000000
01100000
00000000
00000000
00000000
01000000
00000000
00000000
00000000
,  // measure 48
00010000
00001000
00000010
00000001
,  // measure 49
00000100
00001000
00010000
00100000
,  // measure 50
10000000
01000000
00100000
00001000
,  // measure 51
00010000
00010100
00001000
00101000
,  // measure 52
00000000
00000000
00100000
00000000
00000000
01000000
00000000
00000000
00100000
00000000
00000000
01000000
00000000
00000000
00100000
00000000
,  // measure 53
00000000
00000000
00001000
00000000
00000000
00010000
00000000
00000000
00001000
00000000
00000000
00010000
00000000
00000000
00001000
00000000
,  // measure 54
00000000
00000000
00000100
00000000
00000000
00000010
00000000
00000000
00000100
00000000
00000000
00000010
00000000
00000000
00000100
00000000
,  // measure 55
00000101
00000000
00000000
00000001
00000000
00000000
00000010
00000000
00001000
00000000
00000000
00000000
00010000
00000000
01000000
00000000
,  // measure 56
00020000
00000000
00000000
00000000
00030000
00000000
00000000
00000000
00001000
00000000
00000000
00000010
00000000
00000000
00000010
00000000
,  // measure 57
00000001
00000100
00000010
00000100
,  // measure 58
00002000
00000000
00000000
00000000
00003000
00000000
00000000
00000000
00010000
00000000
00000000
00100000
00000000
00000000
10000000
00000000
,  // measure 59
00000000
01000000
00000000
00100000
00000000
01000000
00000000
00010000
,  // measure 60
00002000
00000000
00000000
00000000
00000000
00000000
00013000
00000000
00000010
00000000
00000000
00001000
00000000
00000000
00000100
00000000
,  // measure 61
00000110
00000000
00000010
00000000
00001001
00000000
00000000
00000001
,  // measure 62
00000001
00000000
00000000
00000000
00000100
00000000
00000000
00000000
00001000
00000000
00000000
00010000
00000000
00000000
00001000
00000000
,  // measure 63
00000000
00000000
00100000
00000000
00000000
00100000
00000000
00000000
01000000
00000000
01000000
00000000
01000000
00000000
00000000
00000000
,  // measure 64
10000000
00100000
00010000
00001000
,  // measure 65
00010000
01000000
10000000
00100000
,  // measure 66
00010000
00001000
00010000
01000000
,  // measure 67
10000000
00000000
00000000
00000000
00100000
00000000
00000000
00000000
00010000
00000000
00000000
00001000
00000000
00000000
00010000
00000000
,  // measure 68
00011000
00001000
00000010
00000001
,  // measure 69
00000100
00001000
00010000
00001000
,  // measure 70
00000010
00000001
00000100
00001000
,  // measure 71
00010000
00000000
00000010
00000000
00001000
00000000
00000010
00000000
00010000
00000000
00000000
00001000
00000000
00000000
00010000
00000000
,  // measure 72
00022000
00000000
00030000
00000000
00000000
00000000
01003000
00000000
01000000
00000000
00000000
00010000
00000000
00000000
00100000
00000000
,  // measure 73
00000000
10000000
00100000
00000000
00001000
00000000
00010000
00000000
,  // measure 74
00000100
00000000
00000000
00000010
00000000
00000000
00000100
00000000
00001100
00000000
00000000
00000000
00000001
00000000
00000010
00000000
,  // measure 75
00001000
00101000
00011000
00010010
,  // measure 76
00010000
00100000
10000000
00000000
01000000
00000000
00010000
00000000
,  // measure 77
00001000
00000010
00000001
00000000
00000100
00000000
00001000
00000000
,  // measure 78
00010000
01000000
10000000
00000000
00100000
00000000
00010000
00000000
,  // measure 79
00001000
00000000
00000000
00000100
00000000
00000000
00000001
00000000
00000000
00000010
00000000
00000000
00001000
00000000
00000000
00000000
,  // measure 80
00011000
00000000
00000000
00000000
;
