#TITLE:A Bella! (feat. Lucy);
#SUBTITLE:;
#ARTIST:M2U;
#TITLETRANSLIT:;
#SUBTITLETRANSLIT:;
#ARTISTTRANSLIT:;
#GENRE:WORLD MUSIC;
#CREDIT:MUINELIM;
#BANNER:A Bella! (feat. Lucy).png;
#BACKGROUND:A Bella! (feat. Lucy)-bg.png;
#LYRICSPATH:;
#CDTITLE:;
#MUSIC:A Bella! (feat. Lucy).mp3;
#OFFSET:-0.120000;
#SAMPLESTART:35.752998;
#SAMPLELENGTH:15.000000;
#SELECTABLE:YES;
#BPMS:0.000000=160.000000
;
#STOPS:
;
#BGCHANGES:;
#KEYSOUNDS:;
#ATTACKS:;

//---------------dance-single - ----------------
#NOTES:
     dance-single:
     :
     Beginner:
     4:
     0.168389,0.225750,0.016486,0.016486,0.000000,143.000000,141.000000,2.000000,2.000000,0.000000,0.000000,0.168389,0.225750,0.016486,0.016486,0.000000,143.000000,141.000000,2.000000,2.000000,0.000000,0.000000:
0000
0000
0000
0000
,
0000
0000
0000
0000
,
0000
0000
0000
0000
,
0000
0000
0000
0000
,
0000
0000
0000
1000
,
0000
0000
0000
1000
,
0000
0000
0000
0001
,
0000
0000
0000
0001
,
0000
0000
0000
1000
,
0000
0001
0000
1000
,
0000
0001
0000
1000
,
0000
0001
0000
0100
,
0000
0100
0000
0001
,
0000
1000
0000
0001
,
0000
1000
0000
0010
,
0000
0010
0000
1000
,
0000
0001
0000
0100
,
0000
0010
0000
1000
,
0000
0001
0000
0100
,
0100
0100
0000
0001
,
0000
1000
0000
0010
,
0000
0100
0000
0001
,
0000
1000
0000
0010
,
0010
0010
0000
0100
,
0000
0010
0000
0100
,
0000
0100
0000
0010
,
0000
0100
0000
0010
,
0000
0010
0000
1000
,
0000
0001
0000
1000
,
0000
1000
0000
0001
,
0000
1000
0000
0001
,
0001
0001
0000
0100
,
0000
0010
0000
1000
,
0000
0001
0000
0010
,
0000
0100
0000
1000
,
0000
1000
0000
0100
,
0000
0010
0000
0001
,
0000
0100
0000
0010
,
0000
1000
0000
0001
,
0001
0001
0000
1001
,
0000
0000
0000
0000
,
0000
0000
0000
0000
,
0000
0000
0000
0200
,
0300
0000
0100
0100
,
0000
0001
0000
0010
,
0000
0100
0000
1000
,
0000
0010
0010
0010
,
0000
1000
0000
0010
,
0000
1000
0000
0010
,
0000
1000
0000
0001
,
0000
0001
0000
0100
,
0000
0001
0000
0100
,
0000
0001
0000
0100
,
0000
0001
0000
1000
,
0000
1000
0000
0001
,
0000
0010
0000
0100
,
0000
1000
0000
0001
,
0000
0010
0000
0200
,
0000
0300
0000
0010
,
0000
0010
0000
0100
,
0000
0100
0000
1000
,
0000
0001
0000
0010
,
0010
0010
0000
0001
,
0000
0100
0000
0010
,
0000
1000
0000
0100
,
0000
0010
0000
0001
,
0001
0001
0000
1000
,
0000
0001
0000
0010
,
0000
0100
0000
1000
,
0000
0001
0000
1000
,
1000
1000
0000
1001
,
0000
0000
0000
1000
,
0000
0000
0000
0010
,
0000
0000
0000
0001
,
0000
0000
0000
0100
,
0000
0000
0000
1000
,
0000
0000
0000
0001
,
0000
0100
0000
0010
,
0010
0010
0000
0000
;

//---------------dance-single - ----------------
#NOTES:
     dance-single:
     :
     Easy:
     7:
     0.260237,0.322500,0.049457,0.032971,0.000000,221.000000,215.000000,6.000000,4.000000,0.000000,0.000000,0.260237,0.322500,0.049457,0.032971,0.000000,221.000000,215.000000,6.000000,4.000000,0.000000,0.000000:
0000
0000
0000
0000
,
0000
0000
0000
0000
,
0000
0000
0000
0000
,
0000
0000
0000
0000
,
0000
0000
0000
1000
,
0000
0001
0000
0100
,
0000
0010
0000
1000
,
0000
0001
0000
0100
,
0010
0200
0300
0010
,
1000
0100
0000
1000
,
0010
0100
0000
0010
,
1000
0100
0000
1000
,
0010
0100
0100
0100
,
0001
0010
0000
0001
,
0100
0010
0000
0100
,
0001
0010
0000
0001
,
0100
0001
0100
0010
,
1000
0010
1000
0001
,
0100
0010
1000
0001
,
0001
0000
1001
1000
,
0100
1000
0100
0010
,
0001
0010
0001
1000
,
0100
0010
0001
1000
,
1000
1000
0000
0010
,
0000
0100
0000
0010
,
0010
0100
0100
0001
,
0000
1000
0000
0001
,
1000
0001
1001
0100
,
0000
0010
0000
1000
,
0000
0001
0000
0010
,
0000
0100
0000
1000
,
0001
1001
0000
0100
,
0000
0010
0000
0100
,
0100
0010
0010
0001
,
0000
1000
0000
0001
,
1000
0001
1001
0010
,
0000
0100
0000
1000
,
0000
0001
0000
0100
,
0000
0010
0000
1000
,
0001
1000
0020
0130
,
0000
0000
0000
0000
,
0000
0000
0000
0000
,
0000
0000
0000
0200
,
0000
0300
0010
1000
,
0100
1000
0000
0001
,
0010
0001
0000
1000
,
0001
0100
0100
0010
,
1000
0010
1000
0100
,
0001
0100
0001
0010
,
1000
0100
0001
0010
,
0010
0100
0000
0010
,
0001
0010
0001
0100
,
1000
0100
1000
0010
,
0001
0100
1000
0010
,
0010
0100
0000
1000
,
0000
0001
0000
1000
,
1000
0001
0001
0100
,
0000
0010
0000
1000
,
0001
0200
0300
0001
,
0000
0010
0000
1000
,
0000
0100
0000
0001
,
0000
1000
0000
1001
,
0010
0100
0100
0010
,
0010
1000
1000
0001
,
0001
0100
0100
0010
,
1000
0001
0100
0010
,
0010
0010
0000
1000
,
0100
1000
0000
0001
,
0010
0001
0000
1000
,
0100
0010
0001
0100
,
0010
0100
0110
1000
,
0000
0010
0000
0001
,
0000
0010
0000
1000
,
0000
0010
0000
0001
,
0000
0010
0010
1000
,
0000
0100
0000
0001
,
0000
0100
0000
1000
,
0000
0100
0000
0001
,
0001
0001
0000
0000
;

//---------------dance-single - ----------------
#NOTES:
     dance-single:
     :
     Medium:
     9:
     0.401542,0.451499,0.131885,0.098914,0.000000,341.000000,325.000000,16.000000,12.000000,0.000000,0.000000,0.401542,0.451499,0.131885,0.098914,0.000000,341.000000,325.000000,16.000000,12.000000,0.000000,0.000000:
0000
0000
0000
0000
,
0000
0000
0000
0000
,
0000
0000
0000
0000
,
0000
0000
0000
0000
,
0000
0000
0000
1000
,
0001
0100
0100
0001
,
1000
0010
0010
1000
,
0001
0010
0001
1000
,
0100
1000
1001
0001
,
0100
0010
0000
0100
0010
0000
1000
0000
,
0010
0100
0000
0010
0100
0000
0001
0000
,
0100
0010
0000
1000
0001
0000
0100
0010
,
0100
0010
1000
0001
1000
0000
1001
0000
,
0001
1000
0000
0001
1000
0000
0010
0000
,
1000
0001
0000
1000
0001
0000
0100
0000
,
0010
1000
0001
0010
,
0010
0100
0100
0010
,
0100
0010
0100
1000
,
0010
0000
0100
0000
0001
0000
1000
0010
,
0100
0001
0000
0000
1001
0000
0010
0000
,
0010
0100
0100
0010
,
0100
0010
0100
0001
,
0010
0000
0100
0000
1000
0000
0001
0100
,
0010
1000
0000
2002
3003
0000
0001
0000
,
0100
0010
0000
0010
0100
0000
0001
0000
,
0010
1000
0010
0001
,
0100
0010
0000
0010
0100
0000
0001
0000
,
1000
0100
0000
0100
1000
0000
0010
0000
,
0100
0001
0000
0001
0100
0000
0010
0000
,
1000
0001
0000
0001
1000
0000
0010
0000
,
0100
0001
0000
0001
0100
0000
0010
1000
,
0010
0220
0330
1000
,
0100
0010
0000
0010
0100
0000
1000
0000
,
0010
0001
0010
1000
,
0100
0010
0000
0010
0100
0000
1000
0000
,
0001
0100
0000
0100
0001
0000
0010
0000
,
0100
1000
0000
1000
0100
0000
0010
0000
,
0001
1000
0000
1000
0001
0000
0010
0000
,
0100
1000
0000
1000
0100
0000
0010
0001
,
0010
0110
2002
3003
,
0000
0000
0000
0000
,
0000
0000
0000
0000
,
0000
0000
0000
0020
,
0000
0230
0000
0000
0310
0000
0010
0000
,
1000
0100
0001
1000
,
0010
0000
0001
0000
0100
0000
0100
0001
,
1000
0010
0100
0000
0110
0000
0001
0000
,
1000
0010
0000
1000
0100
0000
1000
0000
,
0001
0100
0000
0001
0010
0000
0001
0000
,
1000
0100
0000
1000
0010
0000
0100
0001
,
0100
0001
0000
0010
0110
0000
1000
0000
,
0001
0010
0000
0001
0100
0000
0001
0000
,
1000
0100
0000
1000
0010
0000
1000
0000
,
0001
0100
0000
0001
0010
0000
0100
1000
,
0100
1000
0000
0022
0033
0000
0001
0000
,
0100
0000
1000
0000
0100
0000
0001
0010
,
0001
0000
1000
0100
1000
0000
0010
0000
,
0001
0000
0010
0000
1000
0000
0100
0010
,
0001
1000
0100
0000
0110
0000
0001
0000
,
0001
0010
0010
1000
,
1000
0100
0100
0001
,
1000
0000
0010
0000
0100
0000
0001
1000
,
0010
0100
0220
0000
0330
0000
0010
0000
,
1000
0000
0001
0000
0100
0000
0010
1000
,
0010
1000
0001
0100
0001
0000
1000
0000
,
0100
0000
0010
0000
0001
0000
1000
0010
,
0100
0001
0000
0010
0100
0000
0010
0000
,
0001
0100
1000
0001
,
0010
1000
0100
0010
,
0001
0000
0100
0000
0110
0000
0001
0010
,
0100
1000
0001
0000
1001
0000
1000
0000
,
0000
0010
0000
0001
,
0100
0010
0100
0000
0000
0000
0001
0000
,
0000
0010
0000
1000
,
0100
0010
0100
0000
0110
0000
1000
0000
,
0000
0001
0000
0010
,
1000
0001
1000
0000
0000
0000
0001
0000
,
1000
0000
0010
0000
0001
0000
1000
0010
,
0100
0001
1001
0000
0000
0000
0000
0000
;

//---------------dance-single - ----------------
#NOTES:
     dance-single:
     :
     Hard:
     12:
     0.548735,0.580499,0.247284,0.296741,0.070064,466.000000,436.000000,30.000000,36.000000,0.000000,0.000000,0.548735,0.580499,0.247284,0.296741,0.070064,466.000000,436.000000,30.000000,36.000000,0.000000,0.000000:
0000
0000
0000
0000
,
0000
0000
0000
0000
,
0000
0000
0000
0000
,
0000
0000
0000
0000
,
0000
0000
0000
0000
0000
0000
1000
0100
,
0010
0001
0000
0001
0100
0010
1000
0100
,
0010
0001
0000
0001
0100
0010
1000
0100
,
0010
0001
0000
0001
0100
0010
1000
0100
,
0010
0001
0200
0000
0310
0000
0110
0000
,
0100
0001
0000
0001
0010
0001
1000
0100
,
1000
0010
0000
0220
0330
0000
0100
0001
,
1000
0000
0010
0000
0000
0000
0010
0000
1000
0000
0001
0000
0100
0000
0000
0010
,
0100
0000
0001
0000
0000
0100
0010
0000
2000
0000
0000
0000
3001
0000
0000
0000
,
0001
0100
0000
0100
0001
0100
0010
1000
,
0010
0100
0000
0000
0100
0001
0010
0100
,
0000
1100
0000
1000
0010
0000
0200
0000
,
0001
0001
0301
0020
,
1000
1000
1030
0200
,
0301
0000
0020
0000
1030
0000
1000
0100
,
0010
1001
0000
0001
0001
0000
0020
0000
,
0001
0001
0031
0200
,
1000
1000
1300
0020
,
0031
0000
0200
0000
1300
0000
0001
0100
,
0010
1010
0000
0202
0303
0000
1001
0000
,
1000
0020
0000
1030
0010
0100
0001
0010
,
0100
0010
0000
0000
0100
0010
0000
0100
0010
0000
0000
0000
1001
0000
0000
0000
,
0001
0200
0000
0301
0100
0010
1000
0100
,
0010
0100
0000
0010
0110
0000
0001
0100
,
0010
1000
0000
1000
0010
0100
0001
0000
,
0010
0100
0000
0100
0010
0001
1000
0000
,
0100
0010
0000
0010
0100
1000
0001
0010
,
0100
0000
1001
0010
0010
0010
0200
0000
,
0301
0020
0000
0031
0010
0100
1000
0010
,
0100
0010
0000
0000
0100
0010
0000
0100
0010
0000
0000
0000
1001
0000
0000
0000
,
1000
0200
0000
1300
0100
0010
0001
0100
,
0010
0100
0000
0010
0110
0000
0100
0001
,
0010
0100
0000
0100
1000
0010
0100
0000
,
0001
0010
0000
0010
0100
1000
0010
0000
,
0100
0001
0000
0001
1000
0100
0010
0001
,
1000
0000
1010
0100
0202
0000
0303
0000
,
0000
0000
0000
0000
,
0000
0000
0000
0000
,
0000
0000
0000
0010
0010
0010
2000
0000
,
0000
3002
0000
0103
0110
0000
0010
1000
,
0100
0000
0010
0100
0010
0000
0001
0000
0100
0000
0010
0000
1000
0000
0001
0000
,
0100
1000
0000
0001
0010
1000
0100
0010
,
0001
0100
1100
0000
0011
0000
0200
0000
,
0010
1000
0301
0020
,
0100
0001
1030
0200
,
0301
0000
0020
0000
1030
0000
1000
0100
,
0001
0011
0000
0100
0100
0000
0020
0000
,
0100
1000
0031
0200
,
0010
0001
1300
0020
,
0031
0000
0200
0000
1300
0000
1000
0010
,
0001
0101
0000
1010
0000
0000
1001
0000
,
0001
0200
0000
0301
0010
0100
1000
0001
,
0100
0010
0000
0000
0100
0010
0000
0100
0010
0000
0000
0000
1001
0000
0000
0000
,
1000
0020
0000
1030
0100
0010
0001
0100
,
1000
0100
0001
0000
0110
0000
1001
0010
,
0010
0200
0000
0301
0010
0100
1000
0000
,
0010
0001
0000
1000
0100
0010
0001
0000
,
0100
1000
0000
0001
0100
0010
1000
0100
,
0010
0000
0011
1000
1000
1000
0010
0100
,
0001
0010
1000
0010
0001
0100
1000
0100
,
0001
0010
0000
0000
0100
1000
0000
0100
1000
0000
0000
0000
1001
0000
0010
0000
,
0100
0001
1000
0100
0001
0100
1000
0010
,
0001
0020
0000
0100
0130
0000
0001
0010
,
0100
1000
0100
0100
0100
1000
0001
0100
,
0010
1000
0001
0001
0001
0010
0100
0010
,
0001
0100
1000
0100
0001
0010
1000
0010
,
0002
0000
0103
0010
0110
0000
1001
0000
,
1000
0001
0100
1000
0100
0001
0010
1000
,
0010
0001
0100
0000
0100
0001
0010
0000
,
0010
0001
0100
1000
0100
0001
0010
0000
,
0100
1000
0010
0000
0110
0000
1001
0000
,
1000
0010
0001
0010
1000
0100
0010
0000
,
0010
0001
0100
0000
0100
1000
0010
0000
,
0001
0000
0100
0000
1000
0000
0100
0000
0001
0000
0010
0000
0100
0000
1000
0010
,
1000
0000
0001
0100
0001
0000
0000
0000
0000
0000
0000
0000
0000
0000
0000
0000
;

//---------------dance-double - ----------------
#NOTES:
     dance-double:
     :
     Hard:
     12:
     0.554623,0.580499,0.255527,0.148370,0.012364,471.000000,440.000000,31.000000,18.000000,0.000000,0.000000,0.554623,0.580499,0.255527,0.148370,0.012364,471.000000,440.000000,31.000000,18.000000,0.000000,0.000000:
00000000
00000000
00000000
00000000
,
00000000
00000000
00000000
00000000
,
00000000
00000000
00000000
00000000
,
00000000
00000000
00000000
00000000
,
00000000
00000000
00000000
00000000
00000000
00000000
01000000
00001000
,
00010000
00000010
00000000
00000010
00010000
00001000
01000000
00010000
,
00100000
00100000
00000000
00100000
00001000
00010000
00000100
00001000
,
00000010
00000010
00000000
00000010
00010000
00001000
01000000
00010000
,
00100000
01000000
20000000
00000000
30010000
00000000
01100000
00000000
,
01000000
00010000
00000000
00010000
00100000
00010000
01000000
00100000
,
01000000
00001000
00000000
00022000
00033000
00000000
00010000
00000100
,
00001000
00000100
00000000
00000100
00010000
00001000
00010000
00001000
,
00000100
00000001
00000010
00000100
00002000
00000000
00003001
00000000
,
00000001
00000100
00000000
00000100
00000010
00000100
00000001
00000010
,
00000001
00001000
00000000
00000000
00001000
00000010
00010000
00001000
,
00000000
00011000
00000000
00010000
01000000
00000000
10000000
00000000
,
00100000
00010000
00001000
00100000
,
01000000
10000000
00100000
00010000
,
00001000
00000000
00100000
00000000
01000000
00000000
10000000
00100000
,
00010000
00011000
00000000
00001000
00000010
00000000
00000001
00000000
,
00000100
00001000
00010000
00000100
,
00000010
00000001
00000100
00001000
,
00010000
00000000
00000100
00000000
00000010
00000000
00000001
00000100
,
00001000
00011000
00000000
00020020
00030030
00000000
01001000
00000000
,
01000000
00020000
00000000
00130000
01000000
10000000
00100000
00010000
,
00001000
00010000
00100000
00010000
00001000
00000000
00011000
00000000
,
00010000
00000200
00000000
00000310
00000001
00000100
00000010
00001000
,
00000100
00000010
00000000
00000100
00000110
00000000
00000001
00000100
,
00001000
00010000
00000000
00001000
00010000
00100000
10000000
00000000
,
01000000
00100000
00000000
01000000
10000000
00100000
00010000
00000000
,
00001000
00010000
00000000
00001000
00000100
00000001
00000010
00000100
,
00001000
00000000
00001001
00000100
00000100
00000100
00000010
00000000
,
00000100
00002000
00000000
00003010
00000100
00000001
00000010
00001000
,
00010000
00001000
00000010
00001000
00010000
00000000
00011000
00000000
,
00001000
02000000
00000000
03100000
10000000
01000000
00100000
00010000
,
01000000
00100000
00000000
01000000
01100000
00000000
10000000
01000000
,
00010000
00001000
00000000
00010000
00001000
00000010
00000001
00000000
,
00000100
00000010
00000000
00000100
00000001
00000010
00001000
00000000
,
00010000
00001000
00000000
00010000
01000000
10000000
00100000
01000000
,
00010000
00000000
10010000
01000000
01100000
00000000
00100000
01000000
,
00010000
00001000
00010000
00001000
00000010
00000100
00001000
00000010
,
00000010
00000010
00000000
00000100
00000101
00000000
00000001
00000010
,
00001000
00010000
00000000
00001000
00001000
00001000
00200000
00000000
,
00000000
00320000
00000000
10030000
10100000
00000000
00100000
00010000
,
00001000
00100000
00100000
01000000
00010000
00001000
00000010
00000001
,
00000100
00001000
00000000
00001000
00000100
00000001
00000010
00000100
,
00001000
00000010
00010010
00000000
01001000
00000000
01000000
00000000
,
00010000
00100000
00001000
00010000
,
00100000
10000000
01000000
00100000
,
00001000
00000000
00010000
00000000
00100000
00000000
10000000
01000000
,
00010000
00011000
00000000
00000100
00000010
00000000
00000100
00000000
,
00010000
00001000
00000100
00000001
,
00000010
00000100
00010000
00001000
,
00000100
00000000
00000001
00000000
00000010
00000000
00000100
00010000
,
00001000
00101000
00000000
00010100
00000000
00000000
00011000
00000000
,
00001000
00020000
00000000
00030100
00001000
00000100
00000010
00000001
,
00000100
00001000
00010000
00100000
10000000
00000000
10010000
00000000
,
00010000
00200000
00000000
01300000
10000000
00100000
00010000
00001000
,
00100000
01000000
00010000
00000000
00011000
00000000
00000100
00000010
,
00000010
00000002
00000000
00000103
00001000
00010000
00100000
00000000
,
10000000
01000000
00000000
00100000
00010000
00001000
00000100
00000000
,
00000001
00000010
00000000
00000100
00001000
00010000
00100000
10000000
,
10010000
00000000
01100000
01000000
01000000
01000000
00100000
00010000
,
00001000
00020000
00000000
00030010
00001000
00000010
00000100
00000001
,
00000010
00001000
00010000
01000000
10000000
00000000
10010000
00000000
,
00010000
02000000
00000000
03100000
10000000
01000000
00010000
00001000
,
01000000
00100000
00010000
00000000
00011000
00000000
00000010
00000100
,
00000100
00000002
00000000
00000013
00001000
00010000
01000000
00000000
,
10000000
00100000
00000000
01000000
00010000
00001000
00000010
00000000
,
00000001
00000100
00000000
00000010
00001000
00010000
01000000
10000000
,
00100000
00010000
00001000
00010000
00011000
00000000
00001000
00000000
,
00010000
00001000
00000010
00000000
00001000
00010000
00100000
00000000
,
00010000
00001000
00000100
00000000
00001000
00010000
01000000
00000000
,
10000000
00100000
00010000
00000000
00001000
00000100
00000001
00000000
,
00000010
00001000
00010000
00000000
00010100
00000000
00101000
00000000
,
00100000
01000000
10000000
00100000
00010000
00001000
00000010
00000000
,
00000100
00000010
00000001
00000000
00001000
00000100
00000010
00000000
,
00001000
00000000
00010000
00000000
00010000
00000000
01000000
00000000
10000000
00000000
00100000
00000000
00010000
00000000
00001000
00010000
,
00001000
00010000
00001000
00010000
00001000
00000000
00000000
00000000
00000000
00000000
00000000
00000000
00000000
00000000
00000000
00000000
;

//---------------dance-double - ----------------
#NOTES:
     dance-double:
     :
     Easy:
     7:
     0.251994,0.322500,0.041214,0.032971,0.000000,214.000000,209.000000,5.000000,4.000000,0.000000,0.000000,0.251994,0.322500,0.041214,0.032971,0.000000,214.000000,209.000000,5.000000,4.000000,0.000000,0.000000:
00000000
00000000
00000000
00000000
,
00000000
00000000
00000000
00000000
,
00000000
00000000
00000000
00000000
,
00000000
00000000
00000000
00000000
,
00000000
00000000
00000000
00001000
,
00000000
00010000
00000000
00100000
,
00000000
00010000
00000000
00001000
,
00000000
00000010
00000000
00001000
,
00010000
00002000
00003000
00100000
,
00000000
00010000
00000000
01000000
,
00000000
00001000
00000000
00010000
,
00000000
00000100
00000000
00001000
,
00000000
00000010
00000000
00010000
,
00000000
00100000
00000000
00001000
,
00000000
00000100
00000000
00010000
,
00000000
01000000
00000000
10000000
,
00010000
10000000
00010000
01000000
,
00100000
01000000
00100000
00010000
,
00001000
00010000
00001000
00000010
,
00000010
00000000
00001001
00000001
,
00001000
00000001
00001000
00000010
,
00000100
00000010
00000100
00001000
,
00010000
00001000
00010000
00100000
,
00100000
00100000
00000000
10000000
,
00000000
00010000
00000000
10000000
,
01000000
00100000
00010000
10000000
,
00000000
00010000
00000000
10000000
,
00100000
01000000
00010000
10000000
,
00000000
00100000
00000000
00010000
,
00000000
00001000
00000000
00000100
,
00000000
00000001
00000000
00000010
,
00000100
00000110
00000000
00000001
,
00000000
00001000
00000000
00000001
,
00000100
00000010
00001000
00000001
,
00000000
00001000
00000000
00000001
,
00000010
00000100
00001000
00000001
,
00000000
00000010
00000000
00001000
,
00000000
00010000
00000000
01000000
,
00000000
10000000
00000000
00100000
,
01000000
00100000
20000000
30010000
,
00000000
00000000
00000000
00001000
,
00000000
00000000
00000000
00000001
,
00000000
00000000
00000000
00000200
,
00000000
00000300
00000010
00001000
,
00000100
00010000
00000000
00001000
,
00100000
00010000
00000000
01000000
,
00010000
00100000
00100000
01000000
,
10000000
01000000
10000000
00010000
,
00100000
00010000
00100000
00001000
,
00010000
00001000
00010000
00000010
,
00000010
00000010
00000000
00000100
,
00000001
00000100
00000001
00001000
,
00000010
00001000
00000010
00010000
,
00001000
00010000
00001000
00100000
,
00100000
00100000
00000000
01000000
,
00000000
10000000
00000000
00100000
,
00010000
00001000
00010000
01000000
,
00000000
10000000
00000000
00100000
,
00010000
00002000
00003000
00000100
,
00000000
00000001
00000000
00000010
,
00000000
00001000
00000000
00010000
,
00000000
00001000
00000000
00011000
,
00000100
00000010
00000010
00000001
,
00000100
00001000
00010000
00001000
,
00010000
01000000
10000000
00100000
,
00010000
00001000
00010000
00001000
,
00000010
00000010
00000000
00000001
,
00001000
00000100
00000000
00001000
,
00000001
00000010
00000000
00001000
,
00010000
01000000
10000000
00100000
,
01000000
00100000
01100000
10000000
,
00000000
01000000
00000000
00100000
,
00000000
00010000
00000000
00001000
,
00000000
00000100
00000000
00000010
,
00000000
00000001
00000001
00000001
,
00000000
00000100
00000000
00000010
,
00000000
00001000
00000000
00010000
,
00000000
01000000
00000000
00100000
,
00100000
10010000
00000000
00000000
;

//---------------dance-double - ----------------
#NOTES:
     dance-double:
     :
     Medium:
     9:
     0.388589,0.419249,0.098914,0.098914,0.000000,330.000000,318.000000,12.000000,12.000000,0.000000,0.000000,0.388589,0.419249,0.098914,0.098914,0.000000,330.000000,318.000000,12.000000,12.000000,0.000000,0.000000:
// measure 0
00000000
00000000
00000000
00000000
,  // measure 1
00000000
00000000
00000000
00000000
,  // measure 2
00000000
00000000
00000000
00000000
,  // measure 3
00000000
00000000
00000000
00000000
,  // measure 4
00000000
00000000
00000000
00001000
,  // measure 5
00010000
00000100
00000100
00010000
,  // measure 6
00001000
00100000
00100000
00001000
,  // measure 7
00010000
00000010
00010000
00001000
,  // measure 8
01000000
00001000
00011000
00010000
,  // measure 9
01000000
10000000
00000000
00000000
01000000
00000000
00010000
00000000
,  // measure 10
00001000
00010000
00000000
00000000
01000000
00000000
10000000
00000000
,  // measure 11
00100000
00010000
00000000
00000000
00001000
00000000
00010000
00000100
,  // measure 12
00010000
00000000
00001000
00100000
00001000
00000000
00011000
00000000
,  // measure 13
00010000
00001000
00000000
00000000
00000100
00000000
00000001
00000000
,  // measure 14
00000010
00001000
00000000
00000000
00000010
00000000
00000001
00000000
,  // measure 15
00000100
00001000
00010000
00100000
,  // measure 16
10000000
01000000
10000000
00100000
,  // measure 17
10000000
01000000
10000000
00100000
,  // measure 18
00010000
00000000
00001000
00000000
00000100
00000000
00000001
00001000
,  // measure 19
00000001
00001000
00000000
00000000
00001001
00000000
00000010
00000000
,  // measure 20
00000001
00000100
00000001
00000010
,  // measure 21
00000001
00000100
00000001
00000010
,  // measure 22
00001000
00000000
00010000
00000000
01000000
00000000
10000000
00010000
,  // measure 23
10000000
00010000
00000000
20020000
30030000
00000000
10000000
00000000
,  // measure 24
00100000
01000000
00000000
01000000
00100000
00000000
00010000
00000000
,  // measure 25
00001000
00000100
00000001
00001000
,  // measure 26
00000010
00000100
00000000
00000100
00000010
00000000
00001000
00000000
,  // measure 27
00000001
00000100
00000000
00000100
00000001
00000000
00000010
00000000
,  // measure 28
00001000
00010000
00000000
00010000
00001000
00000000
00100000
00000000
,  // measure 29
00010000
01000000
00000000
01000000
00010000
00000000
00100000
00000000
,  // measure 30
01000000
10000000
00000000
10000000
01000000
00000000
00010000
00001000
,  // measure 31
00000010
00000220
00000330
00000001
,  // measure 32
00000010
00000100
00000000
00000100
00000010
00000000
00001000
00000000
,  // measure 33
00010000
01000000
10000000
00010000
,  // measure 34
00100000
01000000
00000000
01000000
00100000
00000000
00010000
00000000
,  // measure 35
10000000
01000000
00000000
01000000
10000000
00000000
00100000
00000000
,  // measure 36
00010000
00001000
00000000
00001000
00010000
00000000
00000010
00000000
,  // measure 37
00001000
00000100
00000000
00000100
00001000
00000000
00000010
00000000
,  // measure 38
00000100
00000001
00000000
00000001
00000100
00000000
00001000
00010000
,  // measure 39
00001000
00020000
00032000
00013000
,  // measure 40
00000000
01000000
00000000
10000000
,  // measure 41
00000000
00100000
00000000
00010000
,  // measure 42
00000000
00001000
00000000
00000200
,  // measure 43
00000000
00000302
00000000
00000000
00001003
00000000
00001000
00000000
,  // measure 44
00000010
00010000
00001000
01000000
,  // measure 45
00010000
00000000
00100000
00000000
01000000
00000000
10000000
00100000
,  // measure 46
10000000
00100000
10000000
00000000
10010000
00000000
00010000
00000000
,  // measure 47
01000000
00001000
00010000
00100000
,  // measure 48
01000000
00001000
00100000
00010000
,  // measure 49
01000000
00000000
00001000
00000000
00010000
00000000
00000100
00001000
,  // measure 50
00000100
00001000
00000000
00000001
00001000
00000000
00000010
00000000
,  // measure 51
00010000
00001000
00000100
00000010
,  // measure 52
00001000
00000100
00010000
00000010
,  // measure 53
00000100
00000000
00001000
00000000
00010000
00000000
00100000
01000000
,  // measure 54
00100000
01000000
00000000
20020000
30030000
00000000
10000000
00000000
,  // measure 55
00100000
00000000
00010000
00000000
00001000
00000000
00010000
00000100
,  // measure 56
00010000
00000000
00001000
00100000
00001000
00000000
00010000
00000000
,  // measure 57
00001000
00000000
00000100
00000000
00000001
00000000
00000010
00000100
,  // measure 58
00000010
00000100
00000010
00000000
00001001
00000000
00000001
00000000
,  // measure 59
00000100
00001000
00010000
00001000
,  // measure 60
00010000
00100000
10000000
01000000
,  // measure 61
00010000
00000000
00001000
00000000
00000010
00000000
00000001
00001000
,  // measure 62
00000001
00001000
00002002
00000000
00003003
00000000
00000010
00000000
,  // measure 63
00000100
00000000
00001000
00000000
00010000
00000000
00100000
01000000
,  // measure 64
00100000
00000000
10000000
00010000
10000000
00000000
01000000
00000000
,  // measure 65
00010000
00000000
00001000
00000000
00000010
00000000
00000001
00001000
,  // measure 66
00000010
00000100
00000000
00000100
00000010
00000000
00001000
00000000
,  // measure 67
00000100
00000010
00001000
00010000
,  // measure 68
01000000
00100000
00010000
01000000
,  // measure 69
00100000
00000000
10000000
00000000
10010000
00000000
01000000
00100000
,  // measure 70
01000000
00100000
01000000
00000000
01100000
00000000
00010000
00000000
,  // measure 71
00000000
00001000
00000000
00000100
,  // measure 72
00000010
00000100
00000010
00000000
00000000
00000000
00000100
00000000
,  // measure 73
00000000
00001000
00000000
00010000
,  // measure 74
00100000
01000000
00100000
00000000
01100000
00000000
00010000
00000000
,  // measure 75
00000000
00001000
00000000
00000100
,  // measure 76
00000001
00001000
00000001
00000000
00000000
00000000
00000010
00000000
,  // measure 77
00001000
00000000
00010000
00000000
01000000
00000000
10000000
00100000
,  // measure 78
10000000
00100000
10000000
00000000
00000000
00000000
00000000
00000000
;
