#VERSION:0.83;
#TITLE:200%;
#SUBTITLE:;
#ARTIST:AKMU;
#TITLETRANSLIT:;
#SUBTITLETRANSLIT:;
#ARTISTTRANSLIT:;
#GENRE:K-POP;
#ORIGIN:;
#CREDIT:MUINELIM;
#BANNER:200%.png;
#BACKGROUND:200%-bg.png;
#PREVIEWVID:;
#JACKET:200%-jacket.png;
#CDIMAGE:;
#DISCIMAGE:;
#LYRICSPATH:;
#CDTITLE:;
#MUSIC:200%.ogg;
#OFFSET:0.000000;
#SAMPLESTART:47.058823;
#SAMPLELENGTH:15.882351;
#SELECTABLE:YES;
#DISPLAYBPM:102.000000;
#BPMS:0.000=102.000;
#STOPS:12.000=1.176;
#DELAYS:;
#WARPS:;
#TIMESIGNATURES:0.000=4=4;
#TICKCOUNTS:0.000=4;
#COMBOS:0.000=1;
#SPEEDS:0.000=1.000=0.000=0;
#SCROLLS:0.000=1.000;
#FAKES:;
#LABELS:0.000=Song Start;
#BGCHANGES:0.000=200%.avi=1.000=1=0=0=StretchNoLoop==CrossFade==,
99999=-nosongbg-=1.000=0=0=0 // don't automatically add -songbackground-
;
#KEYSOUNDS:;
#ATTACKS:
;

//---------------dance-single - ----------------
#NOTEDATA:;
#CHARTNAME:;
#STEPSTYPE:dance-single;
#DESCRIPTION:;
#CHARTSTYLE:;
#DIFFICULTY:Beginner;
#METER:2;
#RADARVALUES:0.071623,0.102461,0.007958,0.000000,0.000000,63.000000,62.000000,1.000000,0.000000,0.000000,0.000000,0.000000,0.000000,0.000000,0.071623,0.102461,0.007958,0.000000,0.000000,63.000000,62.000000,1.000000,0.000000,0.000000,0.000000,0.000000,0.000000,0.000000;
#CREDIT:;
#DISPLAYBPM:102.000000;
#NOTES:
0000
0000
0000
0000
,
0000
0000
0000
0000
,
0000
0000
0000
0000
,
0000
0000
1000
0000
,
0000
0000
1000
0000
,
0000
0000
0001
0000
,
0000
0000
0001
0000
,
0000
0000
1000
0000
,
0000
0000
0001
0000
,
0000
0000
1000
0000
,
1000
0000
0001
0000
,
0001
0000
0100
0000
,
0000
0000
0100
0000
,
0000
0000
0010
0000
,
0000
0000
0010
0000
,
0000
0000
0100
0000
,
0000
0000
0010
0000
,
0000
0000
0100
0000
,
0000
0000
0010
0000
,
0000
0000
1000
0000
,
1000
0000
1000
0000
,
1000
0000
1000
0000
,
0000
0000
0010
0000
,
0000
0000
0001
0000
,
0001
0000
0001
0000
,
0001
0000
0001
0000
,
0000
0000
0100
0000
,
0000
0000
1000
0000
,
0000
0000
0001
0000
,
0001
0000
1000
0000
,
0000
0000
0001
0000
,
0001
0000
1000
0000
,
0000
0000
0100
0000
,
0000
0000
0010
0000
,
0000
0000
0001
0000
,
0000
0000
0100
0000
,
0000
0000
0100
0000
,
0000
0000
0010
0000
,
0000
0000
0010
0000
,
0000
0000
0100
0000
,
0000
0000
0010
0000
,
0000
0000
0100
0000
,
0000
0000
0010
0000
,
0100
0000
0001
0000
,
0001
0000
0001
0000
,
0001
0000
0001
0000
,
0000
0000
0010
0000
,
0000
0000
1000
0000
,
1000
0000
1000
0000
,
1000
0000
1000
0000
,
0000
0000
0100
0000
,
0000
0000
1001
0000
;

//---------------dance-single - ----------------
#NOTEDATA:;
#CHARTNAME:;
#STEPSTYPE:dance-single;
#DESCRIPTION:;
#CHARTSTYLE:;
#DIFFICULTY:Easy;
#METER:5;
#RADARVALUES:0.161436,0.208900,0.095497,0.079581,0.000000,142.000000,130.000000,12.000000,10.000000,0.000000,0.000000,0.000000,0.000000,0.000000,0.161436,0.208900,0.095497,0.079581,0.000000,142.000000,130.000000,12.000000,10.000000,0.000000,0.000000,0.000000,0.000000,0.000000;
#CREDIT:;
#DISPLAYBPM:102.000000;
#NOTES:
0000
0000
0000
0000
,
0000
0000
0000
0000
,
0000
0000
0000
0000
,
0000
0000
1000
0100
,
1000
0000
0001
0010
,
0001
0000
0100
0010
,
0100
0000
1001
0000
,
0000
0000
0010
0100
,
0001
0000
0100
0010
,
1000
0000
0001
1000
,
0001
0001
0100
0010
,
0100
0100
0001
0000
,
0010
0000
0100
0000
,
1000
0000
0001
0000
,
0100
0000
0010
0000
,
1000
0000
0100
0100
,
0010
0000
0100
0100
,
1000
0000
0100
0100
,
0001
0000
0100
0100
,
0010
0110
1000
0100
,
0010
0010
0001
0010
,
0100
0100
1100
0000
,
0011
0000
0001
1000
,
0010
0100
0020
0030
,
1000
0100
0020
0030
,
0001
0010
0200
0300
,
1000
0100
0010
0001
,
1000
1001
0010
0000
,
0000
0000
0001
0000
,
0001
0000
0100
0000
,
0000
0000
1000
0000
,
1000
0000
0010
0000
,
0001
0000
1000
0000
,
0010
0000
0100
0000
,
0020
0000
0030
1000
,
0001
1000
1001
0000
,
0000
0000
0001
0000
,
1000
0000
1001
0000
,
0000
0000
1000
0000
,
0001
0000
1001
0000
,
0010
0000
0100
0000
,
0001
0000
1000
0000
,
0010
0000
0100
0100
,
0200
0300
0001
0010
,
0100
0100
1000
0010
,
0100
0100
0101
0000
,
1010
0000
1000
0001
,
0100
0010
0200
0300
,
0001
0010
0200
0300
,
1000
0100
0020
0030
,
0001
0100
0010
1000
,
0001
1001
0220
0000
,
0000
0000
0330
0000
;

//---------------dance-single - ----------------
#NOTEDATA:;
#CHARTNAME:;
#STEPSTYPE:dance-single;
#DESCRIPTION:;
#CHARTSTYLE:;
#DIFFICULTY:Medium;
#METER:7;
#RADARVALUES:0.256933,0.292461,0.119372,0.190995,0.003979,226.000000,211.000000,15.000000,24.000000,0.000000,0.000000,0.000000,0.000000,0.000000,0.256933,0.292461,0.119372,0.190995,0.003979,226.000000,211.000000,15.000000,24.000000,0.000000,0.000000,0.000000,0.000000,0.000000;
#CREDIT:;
#DISPLAYBPM:102.000000;
#NOTES:
0000
0000
0000
0000
,
0000
0000
0000
0000
,
0000
0000
0000
0000
,
0000
0020
0130
0010
,
1000
0010
0200
0310
,
0100
0001
0200
0310
,
0100
0000
0010
0000
2002
0000
0000
3003
,
0000
0000
0001
0000
0000
1000
0000
0000
0001
0000
0000
0000
0100
0000
0000
0000
,
0010
1010
1000
0010
,
0100
0000
0101
0000
0001
1000
0001
0000
,
0100
0010
0100
0000
0001
1000
0001
0000
,
0100
0010
0200
0000
0301
0000
0100
0000
,
0001
0010
0001
0000
1000
0000
0010
0000
,
1000
0100
1000
0000
0001
0000
0100
0000
,
0010
0100
0010
0000
1000
0000
0010
0000
,
0100
0010
0100
0000
0220
0000
0330
0000
,
0001
0010
0100
1000
,
0010
0100
0010
0000
1000
0000
0100
0000
,
0010
0001
0101
1010
,
1100
0011
0001
0100
,
0010
1000
0010
0000
1000
0000
0100
0000
,
0010
0001
0010
0000
0002
0000
0103
0000
,
2000
0000
3010
0000
0010
0100
0001
1000
,
0010
0010
0010
0000
0200
0000
0301
0010
,
0001
0000
0100
0000
0010
0000
1000
0100
,
1000
0000
0010
0000
0100
0000
0001
1000
,
0100
0000
1000
0001
0010
0000
0100
0000
,
1000
0001
2002
3003
,
1000
0000
0010
0000
0100
0000
0001
0001
,
0001
0000
1001
1000
,
0001
0000
0100
0000
0010
0000
1000
1000
,
1000
0000
0001
0100
,
1000
0100
0001
0010
,
1000
0010
0002
0103
,
0020
1030
0200
0010
,
0010
0310
0110
0000
,
0100
0000
1000
0000
,
0010
0100
0010
0000
,
0100
0000
0001
0010
,
0100
0010
0002
0003
,
0100
0010
2000
3000
,
0010
0100
0002
0003
,
0100
0010
1010
0101
,
0001
1000
0001
0000
1000
0000
0100
0000
,
0010
0001
0010
0000
0001
0000
0100
0000
,
0010
1000
0010
0000
2000
0000
3100
0000
,
0002
0000
0013
0000
0010
0100
1000
0001
,
0010
0010
0010
0000
0200
0000
1300
0010
,
0100
0000
0001
0000
1000
0000
0001
0100
,
0010
0000
1000
0000
0001
0000
0010
0100
,
1000
0000
0001
0010
0100
0000
1000
0000
,
0010
0110
2002
0000
,
0000
0000
3003
0000
;

//---------------dance-single - ----------------
#NOTEDATA:;
#CHARTNAME:;
#STEPSTYPE:dance-single;
#DESCRIPTION:;
#CHARTSTYLE:;
#DIFFICULTY:Hard;
#METER:11;
#RADARVALUES:0.374031,0.417801,0.183037,0.286492,0.103455,329.000000,306.000000,23.000000,36.000000,0.000000,0.000000,0.000000,0.000000,0.000000,0.374031,0.417801,0.183037,0.286492,0.103455,329.000000,306.000000,23.000000,36.000000,0.000000,0.000000,0.000000,0.000000,0.000000;
#CREDIT:;
#DISPLAYBPM:102.000000;
#NOTES:
0000
0000
0000
0000
,
0000
0000
0000
0000
,
0000
0000
0000
0000
,
0000
0000
0010
0100
0010
0010
1000
0001
,
1000
0000
0110
0000
0100
0100
0001
1000
,
0001
0000
0110
0000
0010
0010
1000
0001
,
1000
0010
0100
0000
0220
0000
0000
0330
,
0000
0000
1010
0000
0000
0101
0000
0000
0001
0000
0001
0000
1000
0000
0100
0000
,
0010
0000
0011
0000
1000
1000
0001
0010
,
0100
0000
1100
0000
0001
0001
0100
0100
,
0010
0010
1000
1000
0100
0100
0010
0010
,
0001
0000
1000
0000
0010
0100
0000
0000
0010
0000
1000
0000
0100
0000
0010
0000
,
0001
0000
0000
0100
0000
0000
0010
0000
0100
0000
0001
0000
0010
0000
0100
0000
,
1000
0000
0000
0010
0000
0000
0100
0000
0001
0000
1000
0000
0100
0000
0010
0000
,
0001
1000
1010
0000
1000
0001
0010
0100
,
1000
0001
0101
0000
0001
0010
0200
0000
,
1300
0010
0200
0000
0301
0010
0100
0001
,
0100
1000
0001
0000
1000
0100
0020
0000
,
0031
0000
0100
0000
0020
0000
0000
0000
1030
0000
0100
0000
0100
0000
0010
0001
,
0010
0000
0100
1000
0100
0000
0000
0000
1000
0000
0010
0000
0100
0000
0001
0000
,
0010
0100
2000
0000
3001
0100
0010
1000
,
0100
0000
0010
0000
0002
0000
0000
0000
1003
0000
0010
0100
0000
0000
0010
1000
,
0010
0000
1000
0100
0000
0020
0000
0000
0031
0100
0001
0000
1000
0000
0010
0100
,
0000
0001
0000
1000
0000
0100
0000
0000
0110
0000
0000
0000
0001
0000
0010
0000
,
0100
1000
0020
0000
0100
0000
1030
0100
,
0010
0000
0001
0000
0100
0010
0100
0000
0010
0000
0000
0000
1000
0000
0100
0000
,
0001
0100
0010
0001
1000
0100
0010
1000
,
0010
0001
1000
0000
1020
0000
0230
0000
,
0001
0010
0302
0000
2003
0000
0010
0100
,
3020
0100
0130
0000
0201
0000
0320
0000
,
1000
0100
2030
0000
3002
0000
0100
0010
,
0203
0010
0310
0000
0110
0000
1000
0000
,
0110
0001
0100
0000
0110
0000
0001
0000
,
0110
1000
0100
0000
0110
0000
1001
0000
,
0110
0001
1001
0000
1000
0010
0001
1000
,
0100
0001
0020
0000
0230
0000
1000
0000
,
0000
0010
0000
0001
,
0000
1300
0020
0001
,
0000
0100
0000
1000
,
0000
0031
0200
1000
,
0000
0301
0020
1000
,
0000
0031
0200
0301
,
0020
0000
1030
0000
1000
0100
0001
1000
,
0010
0001
2002
3003
1000
0010
0100
1000
,
0100
0010
2000
0000
3001
0100
0010
0001
,
0010
0000
0100
0000
0002
0000
0000
0000
1003
0000
0100
0010
0000
0000
0001
0010
,
0001
0000
0100
0010
0000
2000
0000
0000
3100
0010
0100
0000
1000
0000
0010
0100
,
0000
0001
0000
1000
0000
0100
0000
0000
0110
0000
0000
0000
0001
0000
0100
0000
,
1000
0100
0002
0000
0010
0000
1003
0010
,
0001
0000
0010
0000
1000
0001
1000
0000
0100
0000
0000
0000
0010
0000
0001
0000
,
0100
1000
0100
0010
0001
0010
1000
0100
,
0010
0001
2000
0000
3010
0100
0001
1000
,
0100
0010
0220
0000
0330
0000
0000
0000
;

//---------------dance-double - ----------------
#NOTEDATA:;
#CHARTNAME:;
#STEPSTYPE:dance-double;
#DESCRIPTION:;
#CHARTSTYLE:;
#DIFFICULTY:Hard;
#METER:10;
#RADARVALUES:0.320598,0.355131,0.135288,0.230785,0.023874,282.000000,265.000000,17.000000,29.000000,0.000000,0.000000,0.000000,0.000000,0.000000,0.320598,0.355131,0.135288,0.230785,0.023874,282.000000,265.000000,17.000000,29.000000,0.000000,0.000000,0.000000,0.000000,0.000000;
#CREDIT:;
#DISPLAYBPM:102.000000;
#NOTES:
00000000
00000000
00000000
00000000
,
00000000
00000000
00000000
00000000
,
00000000
00000000
00000000
00000000
,
00000000
00000000
00001000
00010000
00001000
00000000
00100000
00000000
,
00010000
01000000
00100000
00000000
01000000
00000000
00010000
00000000
,
00100000
00010000
01000000
00000000
00001000
00000000
00010000
00000000
,
00000100
00001000
00000010
00000000
00000220
00000000
00000000
00000030
,
00000000
00000000
00000010
00000000
00000000
00000310
00000000
00000000
00000010
00000000
00000100
00000000
00000001
00000000
00000000
00000000
,
00001000
00000000
00000010
00000000
00010000
00001000
00100000
00000000
,
00010000
00000000
01000000
00000000
00100000
10000000
00100000
10000000
,
01000000
00100000
01000000
00010000
00001000
00000010
00000100
00000010
,
00000001
00000100
00000110
00000000
00000010
00001000
00000100
00010000
,
00001000
00100000
00010000
00000000
01000000
00010000
00100000
00001000
,
00010000
00000100
00001000
00000000
00000010
00010000
00001000
00100000
,
00010000
10000000
00100000
00000000
01000000
00001000
00010000
00000100
,
00001000
00000001
00000100
00000000
00000020
00000000
00000230
00000000
,
00000310
00001000
00000001
00000000
00000100
00001000
00010000
00100000
,
10000000
01000000
00100000
00000000
02000000
00000000
03200000
00000000
,
01300000
00000000
10000000
00000000
00010000
00000000
00000000
00000000
01010000
00000000
00000000
01000000
00001000
00000000
00000000
00001000
,
00010000
00000000
00000000
00010000
00000200
00000000
00000000
00000000
00001300
00000000
00000010
00000000
00000100
00000000
00000001
00000000
,
00000010
00000100
00001000
00000000
00000100
00010000
00001000
00100000
,
00001000
00000000
00010000
00000000
00000100
00000000
00000000
00000000
00001100
00000000
00000000
00000011
00000000
00000000
00000001
00000000
,
00000100
00001000
00010000
00000000
00100000
00100000
10000000
10000000
,
01000000
00100000
00010000
00100000
00002000
00000000
00023000
00000000
,
00130000
01000000
00100000
00000000
00020000
00000000
00032000
00000000
,
00103000
01000000
00100000
00000000
00020000
00000000
20030000
00000000
,
32000000
00000000
03020000
00000000
00031000
00000010
00000001
00000100
,
00001000
00010000
00011000
00000000
00002000
00000000
00100000
00000000
,
00010000
00000000
01000000
00000000
00100000
00000000
00010000
00010000
,
00013000
00001000
00011000
00000000
00020000
00000000
00000010
00000000
,
00001000
00000000
00000100
00000000
00000010
00000000
00001000
00001000
,
00031000
00010000
00011000
00000000
00001000
00000000
00100000
00000000
,
01000000
00010000
00001000
00000010
,
00000100
00010000
00002000
00003200
,
00000302
00000000
00000023
00000000
00001030
00010000
01000000
10000000
,
00100000
01000000
00001000
00000000
00011000
00000000
00100000
00000000
,
00000000
01000000
00000000
10000000
,
00000000
00100000
00011000
00000010
,
00000000
00000100
00000000
00000001
,
00000000
00000010
00011000
00100000
,
01000000
00020000
00030000
00001000
,
00000010
00000200
00000300
00010000
,
00001000
00100000
00101000
00010010
,
00011000
00001000
02000000
00000000
03010000
00100000
01000000
10000000
,
00100000
01000000
00010000
00000000
01000000
00001000
00010000
00000010
,
00010000
00000000
00001000
00000000
01000000
00000000
00000000
00000000
01010000
00000000
00000000
10100000
00000000
00000000
10000000
00000000
,
01000000
00010000
00001000
00000000
00000010
00000010
00000001
00000001
,
00000100
00000010
00001000
00000010
00020000
00000000
00031000
00000100
,
00000001
00000010
00002000
00000000
00013000
00000000
00010000
01000000
,
10000000
00100000
00020000
00000000
00031000
00000000
00001000
00000100
,
00000001
00000010
00000100
00001000
00000010
00010000
00001000
01000000
,
00010000
00100000
01000000
00000000
20020000
00000000
00000000
00000000
,
00000000
00000000
30030000
00000000
;

//---------------dance-double - ----------------
#NOTEDATA:;
#CHARTNAME:;
#STEPSTYPE:dance-double;
#DESCRIPTION:;
#CHARTSTYLE:;
#DIFFICULTY:Easy;
#METER:5;
#RADARVALUES:0.150067,0.208900,0.071623,0.079581,0.000000,132.000000,123.000000,9.000000,10.000000,0.000000,0.000000,0.000000,0.000000,0.000000,0.150067,0.208900,0.071623,0.079581,0.000000,132.000000,123.000000,9.000000,10.000000,0.000000,0.000000,0.000000,0.000000,0.000000;
#CREDIT:;
#DISPLAYBPM:102.000000;
#NOTES:
00000000
00000000
00000000
00000000
,
00000000
00000000
00000000
00000000
,
00000000
00000000
00000000
00000000
,
00000000
00000000
00001000
00000000
,
01000000
00000000
00001000
00000000
,
00010000
00000000
00000010
00000000
,
00010000
00000000
00011000
00000000
,
00000000
00000000
00001000
00000000
,
00010000
00000000
00001000
00000000
,
00000010
00000000
00000001
00000001
,
00001000
00001000
00000100
00010000
,
00001000
01000000
00010000
00000000
,
10000000
00000000
00100000
00000000
,
00010000
00000000
00001000
00000000
,
00000100
00000000
00000001
00000000
,
00000010
00000000
00001000
00010000
,
00001000
00000000
00010000
00001000
,
00010000
00000000
00000010
00010000
,
00001000
00000000
01000000
00001000
,
00010000
00011000
00000100
00001000
,
00000100
00000100
00000010
00000001
,
00000010
00000010
00000100
00000000
,
00001001
00000000
00000001
00000100
,
00001000
00010000
00200000
00300000
,
10000000
01000000
00200000
00300000
,
01000000
00010000
00002000
00003000
,
00010000
00001000
00000010
00000001
,
00001000
00001001
00000010
00000000
,
00000000
00000000
00010000
00000000
,
00000000
00000000
00100000
00000000
,
00000000
00000000
00001000
00000000
,
00000000
00000000
00000100
00000000
,
00010000
00000000
00001000
00000000
,
00100000
00000000
00010000
00000000
,
20000000
00000000
30000000
01000000
,
00010000
00001000
00011000
00000000
,
00000000
00000000
00010000
00000000
,
00001000
00000000
00011000
00000000
,
00000000
00000000
00001000
00000000
,
00010000
00000000
00011000
00000000
,
00000010
00000000
00001000
00000000
,
00000100
00000000
00010000
00000000
,
00001000
00000000
00100000
00100000
,
00200000
00300000
10000000
00100000
,
00010000
00001000
00010000
00001000
,
00000100
00000001
00001000
00000000
,
00001001
00000000
00000010
00000100
,
00001000
00010000
00200000
00300000
,
10000000
01000000
00020000
00030000
,
00001000
00000010
00000002
00000003
,
00000100
00001000
00010000
01000000
,
10000000
00010000
20020000
00000000
,
00000000
00000000
30030000
00000000
;

//---------------dance-double - ----------------
#NOTEDATA:;
#CHARTNAME:;
#STEPSTYPE:dance-double;
#DESCRIPTION:;
#CHARTSTYLE:;
#DIFFICULTY:Medium;
#METER:7;
#RADARVALUES:0.247838,0.292461,0.127330,0.167120,0.003979,218.000000,202.000000,16.000000,21.000000,0.000000,0.000000,0.000000,0.000000,0.000000,0.247838,0.292461,0.127330,0.167120,0.003979,218.000000,202.000000,16.000000,21.000000,0.000000,0.000000,0.000000,0.000000,0.000000;
#CREDIT:;
#DISPLAYBPM:102.000000;
#NOTES:
// measure 0
00000000
00000000
00000000
00000000
,  // measure 1
00000000
00000000
00000000
00000000
,  // measure 2
00000000
00000000
00000000
00000000
,  // measure 3
00000000
00002000
00013000
00001000
,  // measure 4
01000000
00001000
00020000
00031000
,  // measure 5
00010000
00000010
00020000
00031000
,  // measure 6
00010000
00000000
00001000
00000000
00022000
00000000
00000000
00033000
,  // measure 7
00000000
00000000
00010000
00000000
00000000
00001000
00000000
00000000
00010000
00000000
00000000
00000000
00000100
00000000
00000000
00000000
,  // measure 8
00010000
00011000
00001000
00100000
,  // measure 9
00001000
00000000
00011000
00000000
00010000
00001000
01000000
00000000
,  // measure 10
00001000
00010000
00000010
00000000
00010000
00001000
00100000
00000000
,  // measure 11
00001000
00010000
00000100
00000000
00001000
00000000
00000100
00000000
,  // measure 12
00000010
00000011
00000001
00000100
,  // measure 13
00000010
00001010
00001000
00000100
,  // measure 14
00010000
00011000
00001000
01000000
,  // measure 15
00100000
01100000
20020000
30030000
,  // measure 16
10000000
01000000
00100000
00010000
,  // measure 17
00100000
00001000
00010000
00000000
00001000
00000000
00000100
00000000
,  // measure 18
00000010
00000100
00000001
00000010
,  // measure 19
00001000
00011000
00010000
01000000
,  // measure 20
10000000
00100000
01000000
00000000
00100000
00000000
00010000
00000000
,  // measure 21
00001000
00010000
00000100
00000000
00002000
00000000
00003010
00000000
,  // measure 22
00000200
00000000
00000301
00000000
00000001
00001000
00000100
00000000
,  // measure 23
00000010
00001000
00010000
00000000
00011000
00000000
00001000
00100000
,  // measure 24
01000000
00000000
00010000
00000000
00001000
00000000
00010000
00000100
,  // measure 25
00000010
00000000
00001000
00000000
00010000
00000000
00001000
00010000
,  // measure 26
00100000
00000000
00010000
00001000
00000100
00000000
00001000
00000000
,  // measure 27
00010000
00001000
00022000
00033000
,  // measure 28
00100000
00000000
00010000
00000000
01000000
00000000
00001000
00001000
,  // measure 29
00001000
00000000
00011000
00010000
,  // measure 30
00000100
00000000
00001000
00000000
00000010
00000000
00010000
00010000
,  // measure 31
00010000
00000000
00001000
00010000
,  // measure 32
00100000
00010000
00001000
00000010
,  // measure 33
00001000
00010000
00200000
10300000
,  // measure 34
02000000
03010000
00002000
00010000
,  // measure 35
00010000
00013000
00011000
00000000
,  // measure 36
00001000
00000000
00000100
00000000
,  // measure 37
00000001
00000000
00000010
00000000
,  // measure 38
00001000
00000000
00010000
00000000
,  // measure 39
01000000
00000000
20000000
30000000
,  // measure 40
00100000
00010000
00002000
00003000
,  // measure 41
00000010
00001000
00020000
00030000
,  // measure 42
00100000
00010000
00001000
00011000
,  // measure 43
00010000
00001000
00010000
00000000
00001000
00000000
00000100
00000000
,  // measure 44
00000001
00000010
00000100
00000000
00000010
00000000
00001000
00000000
,  // measure 45
00010000
00001000
01000000
00000000
00020000
00000000
00130000
00000000
,  // measure 46
02000000
00000000
13000000
00000000
10000000
00010000
01000000
00000000
,  // measure 47
00100000
00010000
00001000
00000000
00011000
00000000
00010000
00000010
,  // measure 48
00000100
00000000
00001000
00000000
00010000
00000000
00001000
01000000
,  // measure 49
00100000
00000000
00010000
00000000
00001000
00000000
00000100
00000001
,  // measure 50
00000010
00000000
00001000
00010000
01000000
00000000
10000000
00000000
,  // measure 51
00100000
00010000
00022000
00000000
,  // measure 52
00000000
00000000
00033000
00000000
;
