#TITLE:nyan;
#SUBTITLE:;
#ARTIST:Poptart Cat;
#TITLETRANSLIT:;
#SUBTITLETRANSLIT:;
#ARTISTTRANSLIT:;
#GENRE:;
#CREDIT:;
#BANNER:nyan.png;
#BACKGROUND:nyanbg.png;
#LYRICSPATH:;
#CDTITLE:;
#MUSIC:nyan.ogg;
#OFFSET:-0.496;
#SAMPLESTART:8.958;
#SAMPLELENGTH:12.000;
#SELECTABLE:YES;
#BPMS:0.000=142.000;
#STOPS:;
#BGCHANGES:;
#KEYSOUNDS:;

//---------------dance-single - NIQ9----------------
#NOTES:
     dance-single:
     NIQ9:
     Challenge:
     10:
     1.000,0.854,0.084,0.000,1.000:
0000
0000
0000
00M0
0000
0000
0000
0000
0000
00M0
00M0
0000
,
0000
0000
0000
0000
0000
0000
0000
0000
0000
0000
0000
0000
0000
0000
0000
0000
0000
0000
0000
0000
0000
0000
0000
0000
0000
0000
0000
0000
0000
0000
0000
0000
0000
0000
0000
0000
0000
0000
0000
0000
0000
0000
0000
0000
0000
0000
0000
0000
0000
0000
0000
0000
0000
0000
0000
0000
0000
0000
0000
0000
0000
0000
0000
0000
0000
0000
0000
0000
0000
0000
0000
0000
0000
0000
0000
0000
0000
0000
0000
0000
0000
0000
0000
0000
0000
0000
0000
0000
0000
0000
0000
0000
0000
0000
0000
0000
M000
0000
0000
0000
0000
0000
0000
0000
0000
0000
0000
0000
0000
0000
0000
0000
0000
0000
0000
0000
0000
0000
0000
0000
0000
0000
0000
0000
0000
0000
0000
0000
0000
0000
0000
0000
0000
0000
0000
0000
0000
0000
0000
0000
0000
0000
0000
0000
M000
0M00
00M0
000M
0000
0000
0000
0000
0000
0000
0000
0000
0000
0000
0000
0000
0000
0000
0000
0000
0000
0000
0000
0000
0000
0000
0000
0000
0000
0000
0000
0000
0000
0000
0000
0000
0000
0000
0000
0000
0000
0000
0000
0000
0000
0000
0000
0000
,
0M00
0000
0000
0000
0000
0000
0000
0000
0000
0000
0000
0000
0000
0000
0000
0000
00M0
0000
0000
0000
0000
0000
0000
0000
0000
0000
0000
0000
0000
0000
0000
0000
M000
00M0
000M
0000
0000
0000
0000
0000
0000
0000
0000
0000
0000
0000
0000
0000
000M
0M00
M000
0000
0000
0000
0000
0000
0000
0000
0000
0000
0000
0000
0000
0000
,
1000
0001
0010
0000
0100
0000
0010
0001
1000
0010
0100
0001
0010
0100
1000
0001
,
0100
0010
0100
0001
1000
0000
0001
1000
0100
0010
0001
1000
1001
0000
0101
0001
,
1000
0000
0100
0000
1000
0001
0000
0001
0100
0001
1000
0000
0100
0000
0010
0000
,
0100
0000
0100
0010
0100
1000
0100
0010
0001
1000
0010
0100
0010
0100
0001
1000
,
0100
0000
0010
0000
0100
0010
0001
1000
0010
1000
0001
0100
0010
0100
0001
1000
,
0010
0000
0100
0010
0100
0001
0100
0010
1000
0001
1000
0000
0100
0000
1000
0000
,
0001
0000
0010
0000
0100
1000
0000
1000
0001
0100
0010
0000
0100
0000
0010
0000
,
1000
0000
1000
0001
0100
0010
0100
0001
1000
0001
0010
0100
1000
0100
0010
0001
,
1000
0000
0001
0000
0100
0010
0100
0001
0100
0010
1000
0001
0010
0100
1000
0001
,
1000
0000
1000
0001
1000
0010
0100
0001
0100
0010
1000
0000
0001
0000
0001
0000
,
1001
0000
1000
0100
0010
0000
10M0
0100
0010
0001
1000
0001
1000
0001
0100
0010
,
0100
0000
0100
0000
0010
0100
0010
1000
0001
0010
0100
1000
0001
0010
0001
1000
,
0100
0000
1000
0001
0100
0000
1M00
0001
0100
0010
0100
0001
1000
0001
0010
0100
,
1000
0000
1000
0100
0010
0001
1000
0010
1000
0001
0100
0010
0100
0000
1000
0000
,
0100
0000
0010
0100
0001
0000
001M
0100
0001
1000
0001
0010
0100
1000
0001
0010
,
0001
0000
0001
0000
0010
0100
1000
0001
0010
0001
0100
0010
1000
0100
0010
0100
,
1000
0000
0001
1000
0010
0000
00M1
1000
0010
0100
0001
1000
0001
0010
0100
1000
,
0001
0000
1000
0100
0010
0001
0100
0010
1000
0010
0100
0001
0010
0000
0100
0000
,
1100
0000
1000
0000
0001
0010
0000
0010
0001
1000
0010
0000
0100
0000
0001
0000
,
0010
0000
0010
0001
0010
0100
1000
0001
0010
0001
0100
0010
1000
0010
0100
0001
,
0010
0000
0100
0000
1000
0100
0010
0100
1000
0001
0100
0010
1000
0001
0010
0001
,
1000
0000
1000
0001
0100
0010
0100
0001
1000
0001
0010
0000
0001
0000
0100
0000
,
0010
0000
1000
0000
0010
1000
0000
1000
0010
0100
0001
0000
1000
0000
0100
0000
,
1000
0000
1000
0001
0100
0010
0100
1000
0100
0010
1000
0001
0010
0100
0010
0001
,
1000
0000
0010
0000
0100
0001
1000
0001
0010
0100
1000
0100
0010
0001
1000
0001
,
0100
0000
0100
0010
0100
0001
1000
0001
0010
0100
1000
0000
0001
0000
0001
0000
,
0101
0000
0100
0010
1000
0000
M100
0010
1000
0001
0010
0100
1000
0001
0100
0010
,
0100
0000
0100
0000
0010
0100
1000
0100
0010
0001
0010
0100
0010
1000
0001
1000
,
0001
0000
1000
0001
0010
0000
10M0
0001
0010
0100
1000
0001
1000
0010
0100
0001
,
0100
0000
0100
1000
0100
0001
0100
0010
1000
0010
0001
0010
0100
0000
0001
0000
,
1000
0000
0001
0010
0100
0000
0M01
0010
0100
1000
0001
1000
0010
0100
0001
1000
,
0001
0000
0001
0000
1000
0100
0010
0001
1000
0001
0100
0010
0100
0001
1000
0001
,
0010
0000
0001
1000
0100
0000
0M01
1000
0100
0010
0001
1000
0010
0100
0001
1000
,
0001
0000
1000
0100
0010
0100
0001
0100
0010
0001
0010
1000
0010
0000
0100
0000
,
1100
0000
1000
0000
0001
1000
0000
1000
0010
1000
0001
0000
0010
0000
0100
0000
,
0010
0000
0010
0100
0010
0001
0010
0100
1000
0001
0100
0010
0100
0010
1000
0001
,
0010
0000
0100
0000
0010
0100
1000
0001
0100
0001
1000
0010
0100
0010
1000
0001
,
0100
0000
0010
0100
0010
1000
0010
0100
0001
1000
0001
0000
0010
0000
0001
0000
,
1000
0000
0100
0000
0010
0001
0000
0001
1000
0010
0100
0000
0010
0000
0100
0000
,
0001
0000
0001
1000
0010
0100
0010
1000
0001
1000
0100
0010
0001
0010
0100
1000
,
0001
0000
1000
0000
0010
0100
0010
1000
0010
0100
0001
1000
0100
0010
0001
1000
,
0001
0000
0001
1000
0001
0100
0010
1000
0010
0100
0001
0000
1000
0000
1000
0000
,
1001
0000
0001
0010
0100
0000
0M01
0010
0100
1000
0001
1000
0001
1000
0010
0100
,
0010
0000
0010
0000
0100
0010
0100
0001
1000
0100
0010
0001
1000
0100
1000
0001
,
0010
0000
0001
1000
0010
0000
00M1
1000
0010
0100
0010
1000
0001
1000
0100
0010
,
0001
0000
0001
0010
0100
1000
0001
0100
0001
1000
0010
0100
0010
0000
0001
0000
,
0010
0000
0100
0010
1000
0000
M100
0010
1000
0001
1000
0100
0010
0001
1000
0100
,
1000
0000
1000
0000
0100
0010
0001
1000
0100
1000
0010
0100
0001
0010
0100
0010
,
0001
0000
1000
0001
0100
0000
1M00
0001
0100
0010
1000
0001
1000
0100
0010
0001
,
1000
0000
0001
0010
0100
1000
0010
0100
0001
0100
0010
1000
0100
0000
0010
0000
,
0011
0000
0001
0000
1000
0100
0000
0100
1000
0001
0100
0000
0010
0000
1000
0000
,
0100
0000
0100
1000
0100
0010
0001
1000
0100
1000
0010
0100
0001
0100
0010
1000
,
0100
0000
0010
0000
0001
0010
0100
0010
0001
1000
0010
0100
0001
1000
0100
1000
,
0001
0000
0001
1000
0010
0100
0010
1000
0001
1000
0100
0000
1000
0000
0010
0000
,
0100
0000
0001
0000
0100
0001
0000
0001
0100
0010
1000
0000
0001
0000
0010
0000
,
0001
0000
0001
1000
0010
0100
0010
0001
0010
0100
0001
1000
0100
0010
0100
1000
,
0001
0000
0100
0000
0010
1000
0001
1000
0100
0010
0001
0010
0100
1000
0001
1000
,
0010
0000
0010
0100
0010
1000
0001
1000
0100
0010
0001
0000
1000
0000
1000
0000
,
1010
0000
0010
0100
0001
0000
001M
0100
0001
1000
0100
0010
0001
1000
0010
0100
,
0010
0000
0010
0000
0100
0010
0001
0010
0100
1000
0100
0010
0100
0001
1000
0001
,
1000
0000
0001
1000
0100
0000
0M01
1000
0100
0010
0001
1000
0001
0100
0010
1000
,
0010
0000
0010
0001
0010
1000
0010
0100
0001
0100
1000
0100
0010
0000
1000
0000
,
0001
0000
1000
0100
0010
0000
10M0
0100
0010
0001
1000
0001
0100
0010
1000
0001
,
1000
0000
1000
0000
0001
0010
0100
1000
0001
1000
0010
0100
0010
1000
0001
1000
,
0100
0000
1000
0001
0010
0000
10M0
0001
0010
0100
1000
0001
0100
0010
1000
0001
,
1000
0000
0001
0010
0100
0010
1000
0010
0100
1000
0100
0001
0100
0000
0010
0000
,
0011
0000
0001
0000
1000
0001
0000
0001
0100
0001
1000
0000
0100
0000
0010
0000
,
0100
0000
0100
0010
0100
1000
0100
0010
0001
1000
0010
0100
0010
0100
0001
1000
,
0100
0000
0010
0000
0100
0010
0001
1000
0010
1000
0001
0100
0010
0100
0001
1000
,
0010
0000
0100
0010
0100
0001
0100
0010
1000
0001
1000
0000
0100
0000
1000
0000
,
0001
0000
0010
0000
0100
1000
0000
1000
0001
0100
0010
0000
0100
0000
0010
0000
,
1000
0000
1000
0001
0100
0010
0100
0001
1000
0001
0010
0100
1000
0100
0010
0001
,
1000
0000
0001
0000
0100
0010
0100
0001
0100
0010
1000
0001
0010
0100
1000
0001
,
1000
0000
1000
0001
1000
0010
0100
0001
0100
0010
1000
0000
0001
0000
0001
0000
,
1001
0000
0000
0000
;
