#VERSION:0.83;
#TITLE:We Can Win The Fight;
#SUBTITLE:;
#ARTIST:D-crew feat.Matt Tucker;
#TITLETRANSLIT:;
#SUBTITLETRANSLIT:;
#ARTISTTRANSLIT:;
#GENRE:;
#ORIGIN:;
#CREDIT:;
#BANNER:We Can Win The Fight.png;
#BACKGROUND:We Can Win The Fight-bg.png;
#PREVIEWVID:;
#JACKET:We Can Win The Fight-jacket.png;
#CDIMAGE:;
#DISCIMAGE:;
#LYRICSPATH:;
#CDTITLE:;
#MUSIC:We Can Win The Fight.ogg;
#OFFSET:-0.001000;
#SAMPLESTART:14.118000;
#SAMPLELENGTH:15.000000;
#SELECTABLE:YES;
#BPMS:0.000=119.000;
#STOPS:;
#DELAYS:;
#WARPS:;
#TIMESIGNATURES:0.000=4=4;
#TICKCOUNTS:0.000=4;
#COMBOS:0.000=1;
#SPEEDS:0.000=1.000=0.000=0;
#SCROLLS:0.000=1.000;
#FAKES:;
#LABELS:0.000=Song Start;
#BGCHANGES:;
#KEYSOUNDS:;
#ATTACKS:
;

//---------------dance-single - ----------------
#NOTEDATA:;
#CHARTNAME:;
#STEPSTYPE:dance-single;
#DESCRIPTION:;
#CHARTSTYLE:;
#DIFFICULTY:Challenge;
#METER:14;
#RADARVALUES:0.662673,0.694903,0.117550,0.542540,0.940402,513.000000,500.000000,13.000000,60.000000,0.000000,0.000000,0.000000,0.000000,0.000000,0.662673,0.694903,0.117550,0.542540,0.940402,513.000000,500.000000,13.000000,60.000000,0.000000,0.000000,0.000000,0.000000,0.000000;
#CREDIT:NickNine;
#NOTES:
// measure 0
0000
0000
0000
0000
,  // measure 1
0000
0000
0000
0000
,  // measure 2
0000
0000
0000
0000
0000
0000
0001
0001
,  // measure 3
1000
0000
0100
0000
1000
0000
0001
1000
0001
1000
0100
0000
1000
0000
0020
0030
,  // measure 4
0100
0000
0001
0000
0010
0000
0100
0000
0000
0000
0001
0000
0000
0000
0200
2300
,  // measure 5
3000
0000
0001
0000
0100
0000
0010
1000
0010
1000
0100
0000
0010
0000
0000
0000
,  // measure 6
0001
0000
0100
0000
0010
0000
0100
0000
0000
0000
0010
0100
1000
0100
0101
0000
,  // measure 7
0000
1000
0100
0010
0100
0010
0001
1000
0010
0000
0100
0001
1000
0100
1000
0000
,  // measure 8
0000
0001
0010
0001
0100
0000
0010
1000
0100
0000
0100
1000
0010
0000
0010
0000
,  // measure 9
0000
0100
0001
1000
0001
0010
0100
0000
0010
0000
0001
0100
0000
0100
0000
0001
,  // measure 10
0100
0010
1000
0100
0010
0100
0000
0010
0100
0000
0010
0001
1000
0000
0001
1000
,  // measure 11
0100
0010
0001
0000
1000
0001
0000
0000
0000
0100
0010
0100
1000
0100
0001
0000
,  // measure 12
1000
0100
0001
0000
0001
0100
1000
0000
0000
0001
1000
0100
0010
0001
0010
0000
,  // measure 13
0000
0001
1000
0001
0100
0100
0010
1000
0001
0010
0000
0001
0000
1000
0000
0100
,  // measure 14
1000
0001
1000
0000
0010
0100
0010
0100
0001
0000
1000
0100
0000
0100
0000
0000
,  // measure 15
0000
1000
0001
0010
0001
0000
0010
0100
0001
0100
1000
0000
0100
0000
0000
0000
,  // measure 16
0000
1000
0001
0100
0010
0000
1000
0010
0000
0001
0000
0010
0100
0000
0000
0001
,  // measure 17
1000
0000
1000
0000
0000
1000
0100
0010
0000
0001
0010
0100
1000
0000
0000
0000
,  // measure 18
0000
0001
0000
0100
0010
1000
0100
0100
0010
0001
1001
0000
1001
0000
0000
1000
,  // measure 19
0001
0100
0010
0000
0000
1000
0001
0010
0000
0100
0000
0010
0001
0000
0000
0001
,  // measure 20
1000
0010
0100
0000
0000
0001
0010
0001
0001
1000
0000
1000
0010
0000
0000
1000
,  // measure 21
0010
0100
0001
0000
0000
1000
0100
0010
0000
0001
0010
0001
0100
0000
0000
0001
,  // measure 22
1000
0100
0010
0100
0001
0000
0001
0100
0010
0100
1000
0001
0100
0000
0000
0001
,  // measure 23
0100
0010
0000
1000
0100
0000
0000
0000
1000
0001
1000
0001
0000
0100
0001
0010
,  // measure 24
0000
1000
0010
0001
1000
0001
0100
0100
0001
1000
0010
2000
0000
3001
0010
0001
,  // measure 25
0100
1000
0100
0001
0020
0000
0230
0000
1300
0100
0010
0001
0000
1000
0001
0100
,  // measure 26
0010
0000
1000
0000
0010
0000
0000
0000
0000
0000
0000
0000
2000
3000
0000
0000
0000
0000
0000
0000
0001
0000
0100
0000
0001
0000
1000
0000
0020
0000
0000
0000
,  // measure 27
0030
0000
0000
0000
2000
0000
3001
0100
0001
1000
0020
0000
0230
0000
2300
0000
,  // measure 28
3200
0000
0302
0000
2003
0000
3200
0010
0300
0000
0020
0000
2030
0000
3020
0000
,  // measure 29
0230
0000
0302
0000
0203
0000
1300
0100
0010
0001
0200
0000
0320
0000
0230
0000
,  // measure 30
2300
0000
3200
0000
0302
0000
2003
0010
3000
0000
1001
0000
1001
0000
0000
0000
,  // measure 31
0000
0000
0000
0000
2000
0000
3001
0010
0100
1000
0002
0000
0023
0000
2030
0000
,  // measure 32
3020
0000
0100
0000
0032
0000
1003
0001
0000
0000
0002
0000
0203
0000
0320
0000
,  // measure 33
0032
0000
2003
0000
3200
0000
0310
0100
0001
1000
0200
0000
0302
0000
0203
0000
,  // measure 34
2300
0000
3000
0000
2000
0000
3001
0100
0020
0000
1000
0000
0230
0000
0001
0000
,  // measure 35
0020
0000
0000
0000
0030
1000
0000
0301
,  // measure 36
1000
0000
0000
0000
0001
0000
0000
0000
1000
0000
0000
0000
0001
0000
0000
0000
0020
0000
0000
0000
0030
0000
0000
0000
0000
0000
0000
0000
0000
0000
0000
0000
0000
0000
0000
0000
0000
0000
0000
0000
0000
0000
0000
0000
0000
0000
0000
0000
0000
0000
0001
0000
0000
0000
0000
0100
0000
0000
0000
0000
0010
0000
0000
0000
,  // measure 37
1000
0000
0000
0000
0000
0000
0000
0000
0001
0000
0000
0000
0000
0000
0000
0000
1000
0000
0000
0000
0000
0000
0100
0000
0000
0000
0000
0000
0000
1001
0000
0000
0000
0000
0000
0000
0101
0000
0000
0000
0000
0000
0000
0000
0000
0000
0000
0000
0000
0000
0000
0000
0100
0000
0000
0000
0001
0000
0000
0000
0010
0000
0000
0000
,  // measure 38
0000
0000
1000
0000
0010
0000
0001
0000
1000
0000
0000
0000
0000
0000
1010
0000
0000
0000
1001
0000
0000
0000
0001
0000
0100
0000
0001
0000
0000
1000
0000
0000
,  // measure 39
0000
0000
0001
0010
0100
0010
0001
0100
0000
0010
0100
1000
0100
0001
0000
1000
,  // measure 40
0100
0010
0001
0000
0010
0000
0100
1000
0020
0000
0130
0100
0001
0000
1000
0000
,  // measure 41
0000
0000
0001
0010
0100
0000
0010
0001
1000
1010
0000
0010
0100
0000
0101
0000
,  // measure 42
0000
0000
1001
0000
1000
0100
0010
0001
0100
0010
0000
0001
0010
0100
0001
0000
,  // measure 43
0000
1000
0100
0010
0002
0000
2003
0000
3020
0000
2030
0000
3002
0000
0003
1000
,  // measure 44
0001
0100
1000
0100
0010
0000
1000
0100
0010
0000
1000
0000
0020
0000
0030
0000
,  // measure 45
0000
1000
0010
0001
0010
0100
1000
0001
1000
0000
0001
0010
0000
0000
1001
0000
,  // measure 46
0000
1000
0100
1000
0010
0000
0100
0001
0010
0000
0010
0001
0000
0000
0000
0000
,  // measure 47
0000
1000
0100
1000
0001
0000
0100
0001
1000
0000
0100
0010
0000
0001
0000
0000
,  // measure 48
0000
0010
0001
0010
0100
0000
1000
0001
1000
0000
0010
0100
0000
0001
0000
0000
,  // measure 49
0000
0100
0010
0100
0001
0000
1000
0000
0100
0000
1000
0001
0000
0000
1000
0100
,  // measure 50
0010
0000
0001
0010
0100
0010
1000
0000
0010
0000
0001
2000
0000
3000
0000
0000
,  // measure 51
0000
0000
0100
0000
0010
0000
0001
0000
1000
0000
0000
0001
0000
0000
1000
0000
0010
0000
0000
0000
1000
0000
0010
0000
0000
0000
0000
0000
0000
0000
0100
0000
,  // measure 52
0001
0000
1000
0100
0000
0000
1000
0000
0001
0000
0100
0010
0000
0000
2000
0002
,  // measure 53
3003
0000
0000
0000
;
