#TITLE:Marie Antoinette;
#SUBTITLE:;
#ARTIST:Marguerite du Pre;
#TITLETRANSLIT:;
#SUBTITLETRANSLIT:;
#ARTISTTRANSLIT:;
#GENRE:;
#CREDIT:;
#BANNER:;
#BACKGROUND:;
#LYRICSPATH:;
#CDTITLE:;
#MUSIC:Marie Antoinette.ogg;
#OFFSET:-0.535;
#SAMPLESTART:99.940;
#SAMPLELENGTH:12.000;
#SELECTABLE:YES;
#BPMS:0.000=215.001,109.000=213.000,112.000=205.001,289.000=68.333,297.000=205.000,322.000=102.500,323.500=205.000,327.000=45.997,329.000=68.327,341.000=248.000;
#STOPS:297.000=0.585
,323.500=0.732
;
#BGCHANGES:;
#KEYSOUNDS:;

//---------------dance-single - NIQ9----------------
#NOTES:
     dance-single:
     NIQ9:
     Challenge:
     10:
     0.842,0.608,0.612,0.597,0.192: // measure 1
0000
0000
0000
0000
,  // measure 2
0100
1000
0001
0100
0001
1000
0010
0100
,  // measure 3
0001
1000
0100
0010
0001
1000
0001
0100
,  // measure 4
0010
1000
0200
0000
2300
0000
3001
0100
,  // measure 5
0010
0100
0001
1000
0100
1000
0001
1000
,  // measure 6
0100
0000
0000
0010
0000
0000
0100
0000
0000
0010
0000
0000
0001
0000
1000
0000
0001
0000
1000
0000
0000
0010
0000
0000
,  // measure 7
0100
0001
0010
0100
0010
0001
0100
0010
,  // measure 8
1000
0010
0100
0001
1000
0100
0001
0100
,  // measure 9
0010
0001
1000
0010
0100
0010
1000
0010
,  // measure 10
0100
0001
0010
0100
0001
0100
1000
0100
,  // measure 11
0010
0022
0003
0130
,  // measure 12
1100
0001
0100
1000
0100
0001
1000
0100
,  // measure 13
0010
0100
1000
0000
2200
3300
2002
3003
,  // measure 14
0001
0100
1000
0100
0010
1000
0001
0010
,  // measure 15
0100
1000
0100
0001
0100
0010
0001
1000
,  // measure 16
0001
0100
0210
0010
0000
0310
4000
0000
,  // measure 17
3000
0000
M001
0000
100M
0000
1200
1000
,  // measure 18
0000
0310
0004
0000
0003
0000
100M
0000
,  // measure 19
M001
0000
0102
0100
0000
1003
0004
0000
,  // measure 20
0003
0000
010M
0000
0010
0000
1020
1000
,  // measure 21
0000
0130
0040
0000
0030
0000
10M0
0000
,  // measure 22
M001
0000
0021
0001
0000
0130
0040
0000
,  // measure 23
0030
0000
00M1
0000
100M
0000
1000
0100
,  // measure 24
0001
0100
0010
0001
1000
0010
0100
0001
,  // measure 25
0100
0010
1000
0100
0010
0001
0010
0100
,  // measure 26
0001
0100
0010
0001
1000
0100
0010
0100
,  // measure 27
1000
0000
0010
0000
0100
0000
0001
0000
0100
0000
0000
0000
0001
0100
0001
0100
,  // measure 28
0001
1000
0001
1000
0010
0000
0000
0000
0000
0000
MMMM
0000
0000
0000
0000
0000
,  // measure 29
0100
0100
0100
0100
,  // measure 30
0100
0000
0000
0000
0100
0000
0000
0000
1002
0000
0000
0000
0013
0000
0001
1000
,  // measure 31
0001
0100
0002
0000
0203
0000
0310
0000
,  // measure 32
2010
0000
0000
0000
3001
0000
0010
0001
0010
0000
0001
0000
2000
0000
0000
0000
,  // measure 33
3020
0000
0000
0000
0130
0000
0000
0000
0102
0000
0000
0000
1003
0000
0001
1000
,  // measure 34
0001
0000
1000
0000
0010
0000
0000
0000
0200
0000
0000
0300
0200
0000
0000
0300
,  // measure 35
1001
0000
0001
0000
0100
0000
0010
0000
1000
0010
0100
0001
0100
0000
0000
0000
,  // measure 36
0202
0000
0000
0000
0000
0000
0303
0000
2002
0000
0000
3003
0101
0000
0100
0000
,  // measure 37
1000
0100
0110
0000
0202
0000
0303
MMMM
,  // measure 38
2002
0000
0000
3003
1100
0000
1000
0000
0100
0000
0001
0000
0101
0000
0000
0000
,  // measure 39
0220
0000
0000
0000
0330
0000
MMMM
0000
2200
0000
0000
3300
1001
0000
1000
0000
,  // measure 40
0010
0001
0011
0000
0220
0000
0330
MMMM
,  // measure 41
0110
0100
0001
0010
0100
1000
2001
0000
,  // measure 42
0010
0000
3010
0000
1000
0001
0100
0010
,  // measure 43
0100
0000
0001
0000
0010
0200
0000
0000
1300
0000
0010
0000
0100
0000
0001
0000
,  // measure 44
0100
1000
0100
0010
1000
0100
0001
0100
,  // measure 45
1000
0100
0010
0001
1000
0010
0001
0010
,  // measure 46
0100
0001
1000
0100
0010
0001
1000
0010
,  // measure 47
0200
0000
0301
0100
0010
0100
0001
0000
,  // measure 48
1000
0001
0000
0000
0000
0000
0010
0000
0000
0000
0000
0000
0110
0000
0000
0000
0000
0000
0100
0000
0000
0010
0000
0000
,  // measure 49
0001
0000
0000
1000
0000
0000
0010
0000
0000
0000
0000
0000
0100
0010
0000
0000
0000
0000
1000
0000
0000
0000
0000
0000
,  // measure 50
1001
0000
0001
1000
0100
0010
0001
0000
,  // measure 51
1000
0010
0000
0000
0000
0000
0100
0000
0000
0000
0000
0000
0101
0000
0000
0000
0000
0000
0101
0000
0000
0000
0000
0000
,  // measure 52
0001
1000
0000
0000
0000
0000
1100
0000
0000
0000
0000
0000
1100
0000
0000
0000
0000
0000
0100
0010
0000
0000
0000
0000
,  // measure 53
0011
0000
0000
0000
0000
0000
0011
0000
0000
0000
0000
0000
0001
1000
0000
0000
0000
0000
1010
0000
0000
0000
0000
0000
,  // measure 54
1010
0000
0000
0000
0000
0000
0010
0100
0000
0000
0000
0000
0200
0000
0000
0000
0000
0000
1000
0000
0000
0000
0000
0000
,  // measure 55
0310
0100
0000
0000
0000
0000
0002
0000
0000
0000
0000
0000
1000
0000
0000
0000
0000
0000
0013
0001
0000
0000
0000
0000
,  // measure 56
2000
0000
0000
0000
0000
0000
3010
1000
0001
1000
0001
0010
0100
0000
0000
0000
,  // measure 57
MMMM
0000
0000
0000
0000
0000
4000
0000
0000
0000
0000
0000
3001
0000
0100
0000
0001
0000
0100
0000
0000
0010
0000
0000
,  // measure 58
0010
0000
0000
1000
0000
0000
0002
0000
0000
0000
0000
0000
1000
0000
0000
0000
0000
0000
0203
0000
0000
0000
0300
0000
,  // measure 59
0120
1000
0230
0302
,  // measure 60
0010
0000
1003
0000
1001
0001
1000
0100
,  // measure 61
0020
0000
0000
0000
0000
0000
0000
0000
0230
0000
0000
0000
0000
0000
0000
0300
1100
0000
0000
0000
0000
0000
0000
0000
1100
0000
0000
0000
0000
0000
0000
0000
,  // measure 62
1001
0000
0000
0000
0001
0000
0000
0000
0010
0000
0000
0000
0100
0000
0000
0000
2000
0000
0000
0000
0000
0000
0000
0000
3200
0000
0000
0000
0000
0000
0000
0300
,  // measure 63
0110
0000
0110
0000
0011
1000
0001
0100
,  // measure 64
0020
0000
0000
0000
0000
0000
0000
0000
0230
0000
0000
0000
0000
0000
0000
0300
0101
0000
0000
0000
0000
0000
0000
0000
0101
0000
0000
0000
0000
0000
0000
0000
,  // measure 65
1001
0001
1000
0100
0040
0001
0130
1000
,  // measure 66
0010
0100
0004
0010
1003
0100
0010
0001
,  // measure 67
4000
0001
3010
0100
0001
1000
0040
1000
,  // measure 68
0130
0001
1000
1000
0400
1000
0310
0001
,  // measure 69
0100
0010
4000
0010
3001
0001
1000
0100
,  // measure 70
0040
0000
0100
0000
0031
0000
0001
0000
0100
0000
0010
0000
4000
0000
0000
3000
,  // measure 71
1001
0000
0000
0000
0001
0000
0100
0000
0040
0000
0000
0030
1001
0000
0000
0000
,  // measure 72
1000
0000
0100
0000
0040
0000
0000
0030
1100
0000
0000
0000
1000
0000
0010
0000
,  // measure 73
0400
0000
0000
0000
0000
0000
0000
0000
0000
0300
0000
0000
2002
0000
0000
0000
0000
0000
0000
0000
3003
0000
0000
0000
2000
0000
0000
0000
3010
0000
0100
0000
0010
0000
1000
0000
0002
0000
0000
0000
0000
0000
0000
0000
0000
0000
0000
0000
,  // measure 74
1003
0001
0010
0100
0010
0001
0200
0000
0000
0000
0000
0000
0310
1000
0100
0010
0001
1000
0020
0000
0000
0000
0000
0000
,  // measure 75
0130
0000
0001
0000
0100
0000
0010
0000
1000
0000
0010
0000
0440
0000
0000
0000
0000
0000
0000
0000
0000
0330
0000
0000
0202
0000
0000
0000
0000
0000
0000
0000
0303
0000
0000
0000
1001
0000
0000
0000
0000
0000
1000
0000
0000
0000
0000
0000
,  // measure 76
0100
0010
0011
0000
M1MM
0000
0010
0000
,  // measure 77
0011
0001
0100
1000
0100
0001
0101
0000
,  // measure 78
MM1M
0000
1000
0000
1010
0010
0100
1000
,  // measure 79
0100
0001
0101
0000
1MMM
0000
0010
0000
,  // measure 80
0101
0000
0000
0001
0000
0000
1000
0000
0000
0100
0000
0000
1000
0000
0001
0000
1000
0000
0010
0000
0000
0000
0000
0000
,  // measure 81
M2M2
0000
0000
0303
1000
M010
01M0
0M01
,  // measure 82
0110
1001
0011
2100
,  // measure 83
0000
0000
0000
0000
0000
0000
3004
0400
0000
0000
0000
0003
0040
0000
0000
0000
0000
0300
0000
4000
0000
0000
0000
0030
,  // measure 84
0004
0000
0000
0000
0000
0000
3000
0040
0000
0000
0000
0003
0400
0000
0000
0000
0000
0000
0030
4000
0000
0000
0000
0300
,  // measure 85
0004
0000
0000
0000
0000
0000
3000
0400
0000
0000
0000
0003
0040
0000
0000
0000
0000
0000
0300
4000
0000
0000
0000
0030
,  // measure 86
3002
0000
0000
0000
0000
0003
1001
0000
0000
0000
0000
0000
1000
0000
0000
1000
0000
0000
0100
0000
0000
0100
0000
0000
,  // measure 87
0010
0010
0001
0001
1000
0000
1020
0000
,  // measure 88
0130
0001
1000
0010
1001
0000
2002
0000
,  // measure 89
3003
0000
0002
0000
0013
0010
0100
0100
,  // measure 90
1000
1000
0001
0001
0200
0000
0310
1000
,  // measure 91
0010
0100
0001
1000
0101
0000
0202
0000
,  // measure 92
0303
0000
2000
0000
3010
0010
0100
0100
,  // measure 93
0010
0010
1000
1000
0001
0000
0011
0000
,  // measure 94
0010
0001
0010
0100
1100
0000
2200
0000
,  // measure 95
3300
0000
2000
0000
3001
0001
1000
1000
,  // measure 96
0010
0010
0100
0100
0001
0000
1000
0100
,  // measure 97
1000
0100
1000
0100
1001
0000
1001
0000
;
