#TITLE:naughty girl@Queen's Palace;
#SUBTITLE:;
#ARTIST:DJ Mass MAD Izm*;
#TITLETRANSLIT:;
#SUBTITLETRANSLIT:;
#ARTISTTRANSLIT:;
#CREDIT:;
#BANNER:naughty girl@Queen's Palace-bn.png;
#BACKGROUND:Title Card-bg.png;
#LYRICSPATH:;
#CDTITLE:NEMESetupLOGO.png;
#MUSIC:1-07. naughty girl@Queen's Palace.mp3;
#OFFSET:-3.700;
#SAMPLESTART:10.280;
#SAMPLELENGTH:12.000;
#SELECTABLE:YES;
#BPMS:0.000=145.000;
#STOPS:;
#BGCHANGES:4.000=black-bg.png=1.000=1=0=1,
8.000=Pink naughty girl-bg.png=1.000=0=0=1,
8.500=-random-=1.000=0=0=1,
9.500=Pink naughty girl-bg.png=1.000=0=0=1,
10.000=-random-=1.000=0=0=1,
10.500=Pink naughty girl-bg.png=1.000=0=0=1,
11.500=-random-=1.000=0=0=1,
12.000=Blue naughty girl-bg.png=1.000=0=0=1,
12.500=-random-=1.000=0=0=1,
13.500=Blue naughty girl-bg.png=1.000=0=0=1,
14.000=-random-=1.000=0=0=1,
14.500=Blue naughty girl-bg.png=1.000=0=0=1,
15.500=-random-=1.000=0=0=1,
16.000=Green naughty girl-bg.png=1.000=0=0=1,
17.000=Green naughty girl-bg.png=1.000=1=0=1,
18.000=Green naughty girl-bg.png=1.000=1=0=1,
19.000=Green naughty girl-bg.png=1.000=0=0=1,
20.000=-random-=1.000=0=0=1,
23.000=naughty girl@Queen's Palace-bg.png=1.000=0=0=1,
24.000=-random-=1.000=0=0=1,
37.500=Blue naughty girl-bg.png=1.000=0=0=1,
37.750=Blue naughty girl-bg.png=1.000=1=0=1,
40.250=-random-=1.000=0=0=1,
52.000=naughty girl@Queen's Palace-bg.png=1.000=0=0=1,
52.500=-random-=1.000=0=0=1,
53.000=naughty girl@Queen's Palace-bg.png=1.000=0=0=1,
53.250=-random-=1.000=0=0=1,
53.500=naughty girl@Queen's Palace-bg.png=1.000=0=0=1,
53.750=-random-=1.000=0=0=1,
54.000=naughty girl@Queen's Palace-bg.png=1.000=1=0=1,
55.000=naughty girl@Queen's Palace-bg.png=1.000=1=0=1,
56.000=-random-=1.000=0=0=1,
69.500=Pink naughty girl-bg.png=1.000=0=0=1,
69.750=Pink naughty girl-bg.png=1.000=1=0=1,
72.250=-random-=1.000=0=0=1,
88.000=Blue naughty girl-bg.png=1.000=0=0=1,
89.000=-random-=1.000=0=0=1,
92.000=Pink naughty girl-bg.png=1.000=0=0=1,
93.000=-random-=1.000=0=0=1,
96.000=Green naughty girl-bg.png=1.000=0=0=1,
97.000=-random-=1.000=0=0=1,
100.000=Blue naughty girl-bg.png=1.000=0=0=1,
101.000=-random-=1.000=0=0=1,
103.000=Pink naughty girl-bg.png=1.000=0=0=1,
103.250=-random-=1.000=0=0=1,
103.500=Blue naughty girl-bg.png=1.000=0=0=1,
103.750=-random-=1.000=0=0=1,
104.000=Green naughty girl-bg.png=1.000=0=0=1,
105.000=-random-=1.000=0=0=1,
108.000=Blue naughty girl-bg.png=1.000=0=0=1,
109.000=-random-=1.000=0=0=1,
112.000=Pink naughty girl-bg.png=1.000=0=0=1,
113.000=-random-=1.000=0=0=1,
116.000=naughty girl@Queen's Palace-bg.png=1.000=0=0=1,
117.000=naughty girl@Queen's Palace-bg.png=1.000=1=0=1,
118.000=naughty girl@Queen's Palace-bg.png=1.000=1=0=1,
119.000=naughty girl@Queen's Palace-bg.png=1.000=1=0=1,
120.000=-random-=1.000=0=0=1,
129.000=Pink naughty girl-bg.png=1.000=0=0=1,
129.500=-random-=1.000=0=0=1,
131.500=Pink naughty girl-bg.png=1.000=0=0=1,
132.000=-random-=1.000=0=0=1,
134.500=Green naughty girl-bg.png=1.000=0=0=1,
135.000=Pink naughty girl-bg.png=1.000=0=0=1,
135.250=Blue naughty girl-bg.png=1.000=0=0=1,
135.500=Pink naughty girl-bg.png=1.000=0=0=1,
135.750=Green naughty girl-bg.png=1.000=0=0=1,
136.000=-random-=1.000=0=0=1,
137.500=Pink naughty girl-bg.png=1.000=0=0=1,
138.000=-random-=1.000=0=0=1,
138.500=Pink naughty girl-bg.png=1.000=0=0=1,
139.000=-random-=1.000=0=0=1,
139.500=Pink naughty girl-bg.png=1.000=0=0=1,
140.000=-random-=1.000=0=0=1,
141.500=Blue naughty girl-bg.png=1.000=0=0=1,
142.000=-random-=1.000=0=0=1,
142.500=Blue naughty girl-bg.png=1.000=0=0=1,
143.000=-random-=1.000=0=0=1,
143.500=Blue naughty girl-bg.png=1.000=0=0=1,
144.000=-random-=1.000=0=0=1,
145.500=Green naughty girl-bg.png=1.000=0=0=1,
146.000=-random-=1.000=0=0=1,
146.500=Green naughty girl-bg.png=1.000=0=0=1,
147.000=-random-=1.000=0=0=1,
147.500=Green naughty girl-bg.png=1.000=0=0=1,
148.000=naughty girl@Queen's Palace-bg.png=1.000=0=0=1,
148.500=-random-=1.000=0=0=1,
149.000=naughty girl@Queen's Palace-bg.png=1.000=0=0=1,
149.500=-random-=1.000=0=0=1,
150.000=naughty girl@Queen's Palace-bg.png=1.000=0=0=1,
150.500=-random-=1.000=0=0=1,
151.000=naughty girl@Queen's Palace-bg.png=1.000=0=0=1,
152.000=-random-=1.000=0=0=1,
157.500=Green naughty girl-bg.png=1.000=0=0=1,
157.750=Green naughty girl-bg.png=1.000=1=0=1,
160.250=-random-=1.000=0=0=1,
165.500=Blue naughty girl-bg.png=1.000=0=0=1,
165.750=Blue naughty girl-bg.png=1.000=1=0=1,
168.250=-random-=1.000=0=0=1,
173.500=Pink naughty girl-bg.png=1.000=0=0=1,
173.750=Pink naughty girl-bg.png=1.000=1=0=1,
176.250=-random-=1.000=0=0=1,
180.000=naughty girl@Queen's Palace-bg.png=1.000=0=0=1,
180.500=-random-=1.000=0=0=1,
181.000=naughty girl@Queen's Palace-bg.png=1.000=0=0=1,
181.500=-random-=1.000=0=0=1,
182.000=naughty girl@Queen's Palace-bg.png=1.000=0=0=1,
182.500=-random-=1.000=0=0=1,
183.000=naughty girl@Queen's Palace-bg.png=1.000=0=0=1,
184.000=Green naughty girl-bg.png=1.000=1=0=1,
185.500=Green naughty girl-bg.png=1.000=1=0=1,
186.500=Green naughty girl-bg.png=1.000=1=0=1,
187.500=Green naughty girl-bg.png=1.000=1=0=1,
188.000=Green naughty girl-bg.png=1.000=1=0=1,
189.500=Green naughty girl-bg.png=1.000=1=0=1,
190.500=Green naughty girl-bg.png=1.000=1=0=1,
191.500=Green naughty girl-bg.png=1.000=1=0=1,
191.563=Blue naughty girl-bg.png=1.000=1=0=1,
192.000=Blue naughty girl-bg.png=1.000=1=0=1,
193.500=Blue naughty girl-bg.png=1.000=1=0=1,
194.500=Blue naughty girl-bg.png=1.000=1=0=1,
195.500=Blue naughty girl-bg.png=1.000=1=0=1,
196.000=Blue naughty girl-bg.png=1.000=1=0=1,
197.500=Blue naughty girl-bg.png=1.000=1=0=1,
198.500=Blue naughty girl-bg.png=1.000=1=0=1,
199.500=Blue naughty girl-bg.png=1.000=1=0=1,
199.563=Pink naughty girl-bg.png=1.000=1=0=1,
200.000=Pink naughty girl-bg.png=1.000=1=0=1,
201.500=Pink naughty girl-bg.png=1.000=1=0=1,
202.500=Pink naughty girl-bg.png=1.000=1=0=1,
203.500=Pink naughty girl-bg.png=1.000=1=0=1,
204.000=Pink naughty girl-bg.png=1.000=1=0=1,
205.500=Pink naughty girl-bg.png=1.000=1=0=1,
206.500=Pink naughty girl-bg.png=1.000=1=0=1,
207.500=Pink naughty girl-bg.png=1.000=1=0=1,
207.563=naughty girl@Queen's Palace-bg.png=1.000=1=0=1,
208.000=naughty girl@Queen's Palace-bg.png=1.000=1=0=1,
209.000=naughty girl@Queen's Palace-bg.png=1.000=1=0=1,
210.000=naughty girl@Queen's Palace-bg.png=1.000=1=0=1,
211.000=naughty girl@Queen's Palace-bg.png=1.000=1=0=1,
212.000=naughty girl@Queen's Palace-bg.png=1.000=0=0=1,
212.500=-random-=1.000=0=0=1,
213.000=naughty girl@Queen's Palace-bg.png=1.000=0=0=1,
213.500=-random-=1.000=0=0=1,
214.000=naughty girl@Queen's Palace-bg.png=1.000=0=0=1,
214.500=-random-=1.000=0=0=1,
215.000=naughty girl@Queen's Palace-bg.png=1.000=0=0=1,
215.250=-random-=1.000=0=0=1,
215.500=naughty girl@Queen's Palace-bg.png=1.000=0=0=1,
215.750=-random-=1.000=0=0=1,
216.000=naughty girl@Queen's Palace-bg.png=1.000=0=0=1,
216.500=-random-=1.000=0=0=1,
217.000=Blue naughty girl-bg.png=1.000=0=0=1,
217.250=-random-=1.000=0=0=1,
219.500=Blue naughty girl-bg.png=1.000=0=0=1,
219.750=-random-=1.000=0=0=1,
220.750=Pink naughty girl-bg.png=1.000=0=0=1,
221.000=Pink naughty girl-bg.png=1.000=1=0=1,
223.750=-random-=1.000=0=0=1,
225.000=Green naughty girl-bg.png=1.000=0=0=1,
225.250=-random-=1.000=0=0=1,
227.500=Green naughty girl-bg.png=1.000=0=0=1,
227.750=-random-=1.000=0=0=1,
229.000=Blue naughty girl-bg.png=1.000=0=0=1,
229.250=Blue naughty girl-bg.png=1.000=1=0=1,
231.750=-random-=1.000=0=0=1,
233.000=Pink naughty girl-bg.png=1.000=0=0=1,
233.250=-random-=1.000=0=0=1,
235.500=Pink naughty girl-bg.png=1.000=0=0=1,
235.750=-random-=1.000=0=0=1,
237.000=Green naughty girl-bg.png=1.000=0=0=1,
237.250=Green naughty girl-bg.png=1.000=1=0=1,
239.750=-random-=1.000=0=0=1,
241.000=Pink naughty girl-bg.png=1.000=0=0=1,
241.250=-random-=1.000=0=0=1,
243.500=Green naughty girl-bg.png=1.000=0=0=1,
244.000=Blue naughty girl-bg.png=1.000=0=0=1,
244.500=Pink naughty girl-bg.png=1.000=0=0=1,
244.750=Blue naughty girl-bg.png=1.000=0=0=1,
245.000=Pink naughty girl-bg.png=1.000=0=0=1,
245.500=Green naughty girl-bg.png=1.000=0=0=1,
246.000=Pink naughty girl-bg.png=1.000=0=0=1,
246.250=Green naughty girl-bg.png=1.000=0=0=1,
246.500=Blue naughty girl-bg.png=1.000=0=0=1,
247.000=Green naughty girl-bg.png=1.000=0=0=1,
247.063=Green naughty girl-bg.png=1.000=1=0=1,
247.500=naughty girl@Queen's Palace-bg.png=1.000=1=0=1,
248.000=naughty girl@Queen's Palace-bg.png=1.000=1=0=1,
249.500=naughty girl@Queen's Palace-bg.png=1.000=1=0=1,
250.500=naughty girl@Queen's Palace-bg.png=1.000=1=0=1,
251.500=naughty girl@Queen's Palace-bg.png=1.000=1=0=1,
252.000=naughty girl@Queen's Palace-bg.png=1.000=1=0=1,
253.500=naughty girl@Queen's Palace-bg.png=1.000=1=0=1,
254.500=naughty girl@Queen's Palace-bg.png=1.000=1=0=1,
255.500=naughty girl@Queen's Palace-bg.png=1.000=1=0=1,
256.000=naughty girl@Queen's Palace-bg.png=1.000=1=0=1,
257.500=naughty girl@Queen's Palace-bg.png=1.000=1=0=1,
258.500=naughty girl@Queen's Palace-bg.png=1.000=1=0=1,
259.500=naughty girl@Queen's Palace-bg.png=1.000=1=0=1,
260.000=naughty girl@Queen's Palace-bg.png=1.000=1=0=1,
261.500=naughty girl@Queen's Palace-bg.png=1.000=1=0=1,
263.750=black-bg.png=1.000=0=0=1,
99999=-nosongbg-=1.000=0=0=0 // don't automatically add -songbackground-
;

//---------------dance-single - NEMESetup----------------
#NOTES:
     dance-single:
     NEMESetup:
     Hard:
     8:
     0.561,0.564,0.267,0.147,0.147:
0000
0000
0000
0000
,
0000
0000
0000
0000
,
1000
1000
0100
0010
0000
0010
0000
0100
,
0001
0001
0100
0010
0000
0010
0000
0100
,
1000
1000
0100
0010
0000
0010
0000
0100
,
0010
0000
0001
0000
1000
0001
0100
0000
,
1001
0001
0100
0010
0000
0010
0000
0100
,
1000
1000
0100
0010
0000
0010
0000
1000
,
0100
0100
1000
0001
0000
0001
0000
0100
,
0001
0001
1000
0100
0000
0100
0000
1000
,
0100
0100
0010
0001
0000
0001
0000
0100
,
1000
1000
0100
0010
0000
0010
0000
1000
,
0010
0010
1000
0100
0000
0100
0000
0010
,
0001
0001
1000
0010
0200
0000
0310
0000
,
0110
0001
1000
0100
0000
0010
0000
0001
,
1000
0010
0100
1000
0000
0100
0000
0001
,
0010
1000
0010
0100
0000
1000
0000
0001
,
0100
0010
0100
1000
0000
0100
0000
0001
,
1000
0100
0001
0100
0000
0010
0000
0001
,
1000
0010
0001
1000
0000
0100
0000
0001
,
1000
0100
0010
0100
0000
1000
0000
0001
,
0010
1000
0001
0100
0100
0010
0001
0000
,
0011
0000
0000
0010
0000
0000
0001
0000
0000
0010
0000
0100
1000
0000
0010
0000
,
0100
0000
0000
0100
0000
0000
0010
0000
0000
1000
0000
0100
0010
0000
0001
0000
,
2002
0000
3003
0000
0101
0000
0100
0000
0000
0010
0000
1000
0100
0000
0010
0000
,
0010
0000
0000
0100
0000
0000
1000
0000
0010
0000
0100
0000
1000
0000
0100
0000
,
0202
0000
0303
0000
1001
0000
1000
0000
0000
0100
0000
0010
0100
0000
1000
0000
,
0001
0000
0000
0100
0000
0000
1000
0000
0000
0100
0000
0010
1000
0000
0001
0000
,
0010
0000
0000
0100
0000
0000
0001
0000
0000
0100
0000
1000
0001
0000
0100
0000
,
1000
1000
0100
1000
0100
0010
0110
0000
,
0010
0100
0001
1001
0000
0100
0000
1000
,
0010
0100
0001
0011
0000
0100
0000
1000
,
0001
0100
0010
1100
0000
0001
0000
0100
,
1000
0100
0010
1010
0000
0001
0001
0100
,
0010
0100
0001
0011
0000
0001
0000
0001
,
0100
0010
1000
1100
0000
1000
0000
1000
,
0100
0010
0100
0101
0000
0100
0000
0100
,
0010
0100
0010
0100
0010
0100
0020
0030
,
0101
0000
0001
0000
1000
0000
0010
0000
1000
0001
0100
0000
0001
0000
1000
0000
,
1000
0000
0100
0000
1000
0000
0001
0000
0100
0000
1000
0000
0100
0001
0100
0000
,
0001
1000
0000
1000
0001
0000
0100
0000
0010
0000
0010
0000
1000
0000
1000
0001
,
1000
0001
0100
1000
0001
0010
1000
0200
,
0000
0000
0310
0000
0001
0000
0010
0000
1000
0000
1000
0010
0100
0000
0100
0000
,
1001
0000
1000
0000
0010
0000
0001
0000
0010
0000
0010
1000
0100
0000
0010
0000
,
0110
0000
1000
0000
0100
0000
1000
0000
0001
0000
0100
0001
1000
0000
1000
0000
,
1100
0000
0011
0000
1010
0010
0110
0000
,
0001
0000
0001
0000
0100
0001
0000
0100
0001
0000
1000
0010
0000
0000
1000
0000
,
0100
0000
0000
0100
0000
0100
0000
0100
,
1000
0000
1000
0000
0001
0010
0000
1000
0010
0000
1000
0010
0000
0000
0200
0000
,
0300
0000
0010
0001
0010
0000
0000
0000
0100
1000
0100
0000
0000
0000
0100
0000
,
2002
0000
0000
3003
0000
0000
0011
0000
0000
0000
1100
0000
0000
0000
0010
0000
,
2002
0000
0000
3003
0000
0000
1010
0000
0000
0000
0101
0000
0000
0000
0100
0000
,
0102
0100
0100
0103
,
0010
0000
0010
0100
0010
0000
0100
0000
0001
0000
0010
0000
0100
0000
0000
0000
,
1001
0001
0100
1000
0000
0100
0000
0001
,
0010
1000
0010
1000
0000
0010
0000
0100
,
0010
0001
1000
0010
0000
0100
0000
1000
,
0100
0001
0100
0010
0000
1000
0100
0010
,
1001
1000
0010
0100
0000
1000
0000
1000
,
0100
0001
0100
0010
0000
0100
0000
0001
,
0010
1000
0010
0100
0000
0100
0000
0010
,
0001
1000
0010
1000
0100
0010
0100
1000
,
0020
0000
0000
0100
0000
1000
0000
1000
,
2030
0000
0000
0001
0000
0100
0000
0001
,
3002
0000
0000
0000
0000
0000
0010
0000
0000
0000
1000
0000
0000
0000
0100
0003
,
0200
0000
0000
0301
0000
0000
0000
0000
;

//---------------dance-single - NEMESetup----------------
#NOTES:
     dance-single:
     NEMESetup:
     Challenge:
     10:
     0.707,0.733,0.656,0.164,0.362: // measure 1
0000
0000
0000
0000
,  // measure 2
0000
0000
0000
0000
,  // measure 3
1010
0010
1000
0001
0000
0001
0000
1000
,  // measure 4
1001
0001
1000
0100
0000
0100
0000
1000
,  // measure 5
0001
0000
0001
0000
0010
0000
0100
0000
1000
0000
0010
0000
0000
0110
0000
0000
,  // measure 6
0010
0000
0010
1000
0100
0000
0010
0000
0001
1000
0001
0000
1001
0000
0000
0000
,  // measure 7
1001
0001
0100
0010
0000
0010
0000
0100
,  // measure 8
1000
1000
0100
0001
0000
0001
0000
1000
,  // measure 9
0100
0100
1000
0010
0000
0010
0000
1000
,  // measure 10
0001
0001
0100
1000
0000
1000
0000
0100
,  // measure 11
0010
0010
1000
0001
0000
0001
0000
0100
,  // measure 12
1000
1000
0100
0010
0000
0010
0000
1000
,  // measure 13
0100
0100
1000
0001
0000
0001
0000
1000
,  // measure 14
0010
0000
0010
0000
1000
0100
0010
0002
0200
0000
0000
0000
0010
0303
0000
0000
,  // measure 15
0110
0001
1000
1100
0000
0001
0000
0100
,  // measure 16
0110
1000
0001
0011
0000
0100
0000
1000
,  // measure 17
1001
0010
0100
0101
0000
0100
0000
0010
,  // measure 18
1010
0001
0100
1100
0000
0010
0000
1000
,  // measure 19
1001
0100
0010
0110
0000
0001
0000
1000
,  // measure 20
0110
0001
1000
1001
0000
0010
0000
0100
,  // measure 21
0011
0100
1000
1100
0000
0001
0000
0100
,  // measure 22
0010
0000
0100
0000
0001
0000
1000
0000
0100
0000
0010
0100
0010
0000
0000
0000
,  // measure 23
0110
0000
0010
0001
0000
0010
0001
0000
1000
0100
0000
0001
0100
0000
1000
0010
,  // measure 24
1000
0000
0010
0100
0000
0010
0100
0000
0010
1000
0000
0100
1000
0000
0100
0000
,  // measure 25
0002
0000
0003
0000
1100
0000
1000
0000
0100
0010
0000
0100
0001
0000
1000
0000
,  // measure 26
0010
0000
0001
0100
0000
0001
0100
0000
1000
0000
0100
0000
0001
0010
0100
1000
,  // measure 27
0002
0000
0003
0000
0110
0000
0010
0000
0100
1000
0000
0100
0001
0000
1000
0000
,  // measure 28
0100
0000
0001
0100
0000
0001
0100
0000
0010
0001
0000
0010
1000
0000
0010
0000
,  // measure 29
0001
0000
0100
0010
0000
0100
0010
0000
1000
0010
0000
0100
0001
0000
0001
0010
,  // measure 30
0001
0010
0100
1000
0010
0100
1000
0000
,  // measure 31
0110
0100
0010
0110
0000
0110
0000
0001
,  // measure 32
1000
0001
1000
1001
0000
1001
0000
0100
,  // measure 33
1100
1000
0100
1100
0000
1100
0000
1000
,  // measure 34
0001
0000
0100
0000
0001
0000
0101
0000
0000
0000
0001
0000
0001
0100
0010
0100
,  // measure 35
0001
1000
0100
0110
0000
1001
0000
1100
,  // measure 36
0001
0100
0010
1010
0000
1001
0000
1100
,  // measure 37
0001
0010
0100
1100
0000
0011
0000
0001
,  // measure 38
0101
0100
0110
0010
1010
1000
2001
0000
,  // measure 39
3010
1000
0000
0001
1000
0001
0100
0000
1000
0100
0010
0000
1000
0010
1000
0010
,  // measure 40
0100
0000
0001
1000
0001
0000
1000
0000
0010
0100
0000
0001
1000
0100
1000
0000
,  // measure 41
1000
0001
0000
0010
0100
0010
1000
0000
0010
0001
1000
0000
0100
0010
0001
0010
,  // measure 42
0100
0000
1000
0100
0000
0010
1000
0000
0001
0100
1000
0100
0010
0000
0020
0000
,  // measure 43
0130
0000
1000
0001
0100
0001
0100
0000
0010
0100
1000
0100
0010
0000
1000
0000
,  // measure 44
0100
0000
0010
0001
0010
1000
0010
0000
0100
0000
1000
0010
0100
0000
0001
0000
,  // measure 45
1000
0000
0010
0100
1000
0100
0010
0000
1000
0000
0100
0010
0001
0000
1000
0000
,  // measure 46
0010
0000
0100
0000
0001
0000
0010
0000
0100
1000
0100
1000
0010
0000
0000
0000
,  // measure 47
1001
0000
0001
0000
1000
0100
0000
1000
0100
0000
0010
0001
0000
0000
0000
0200
,  // measure 48
0000
0000
0310
0000
0100
0001
0010
0010
0100
0000
0100
1000
0001
0000
0001
0100
,  // measure 49
0010
0000
0100
0000
1000
0100
0000
0010
1000
0000
0100
0010
0000
0000
0002
0003
,  // measure 50
1001
0000
0001
0001
0100
0000
0110
0000
1000
1000
0100
0000
1001
0000
0010
0000
,  // measure 51
0220
0000
0000
1000
0000
1001
0330
0010
,  // measure 52
2002
0000
0000
0010
0000
0110
3003
0001
,  // measure 53
0101
0100
1100
0100
0101
0100
1100
0010
,  // measure 54
0100
0000
0001
0010
0001
0000
0010
0000
0100
0000
1000
0000
0010
0100
0010
0100
,  // measure 55
0010
0100
1000
1100
0000
0101
0000
0010
,  // measure 56
1001
0100
0010
0011
0000
1100
0000
0001
,  // measure 57
1001
0010
0100
1001
0000
0110
0000
0001
,  // measure 58
1010
0001
0100
0101
0000
1100
0001
0010
,  // measure 59
0011
0100
1000
1010
0000
0101
0000
0010
,  // measure 60
0110
0001
1000
0110
0000
1100
0000
0001
,  // measure 61
1100
0001
0100
0110
0000
0001
0000
1000
,  // measure 62
1000
0000
0010
0001
0010
0000
1000
0000
0100
0010
0001
0000
1001
0000
0000
0000
,  // measure 63
0200
0000
0000
0002
0000
1000
0003
0001
,  // measure 64
0302
0000
0000
2000
0000
0010
3000
1000
,  // measure 65
2003
0000
0000
0020
0000
0100
0030
0010
,  // measure 66
0020
0000
0000
3131
0000
0000
0000
0000
;

//---------------dance-single - NEMESetup----------------
#NOTES:
     dance-single:
     NEMESetup:
     Beginner:
     1:
     0.127,0.252,0.078,0.060,0.000:
0000
0000
0000
0000
,
0000
0000
0000
0000
,
0010
0000
0000
0000
,
0010
0000
0000
0000
,
0200
0000
0000
0300
,
0100
0000
0000
0000
,
1001
0000
0000
0000
,
1000
0000
0000
0000
,
0001
0000
0000
0000
,
1000
0000
0000
0000
,
0010
0000
0000
0000
,
0100
0000
0000
0000
,
0010
0000
0000
0000
,
0020
0000
0030
0000
,
0110
0000
0000
0000
,
0100
0000
0000
0000
,
1000
0000
0000
0000
,
0100
0000
0000
0000
,
0010
0000
0000
0000
,
0001
0000
0000
0000
,
0010
0000
0000
0000
,
1000
0000
0000
0000
,
0002
0000
0000
0000
,
0000
0000
0003
0000
,
2000
0000
0000
0000
,
0000
0000
3000
0000
,
0002
0000
0000
0000
,
0000
0000
0003
0000
,
2000
0000
0000
0000
,
0000
0000
3000
0000
,
1001
0000
0000
0000
,
0001
0000
0000
1000
,
1000
0000
0000
0000
,
0010
0000
0000
0100
,
0100
0000
0000
0010
,
0010
0000
0000
1000
,
1000
0000
0000
0000
,
0001
0001
0001
0000
,
1001
0000
0000
0000
,
0001
0000
1000
0000
,
1000
0000
0000
0000
,
0100
0000
0010
0000
,
0010
0000
1000
0000
,
0001
0000
0001
0000
,
0100
0000
0010
0000
,
1000
0000
0100
0100
,
0100
0000
0000
0000
,
0100
0000
1000
1000
,
1000
0000
0000
0000
,
0001
0000
0001
0000
,
1001
0000
1001
0000
,
0110
0000
0110
0000
,
0010
0010
0010
0010
,
0020
0000
0030
0000
,
1001
0000
0000
0000
,
0001
0000
0000
0000
,
1000
0000
0000
0000
,
0010
0000
0000
0000
,
0100
0000
0010
0000
,
0100
0000
0001
0000
,
1000
0000
1000
0000
,
0001
0001
0001
0001
,
0001
0000
0000
0000
,
0001
0000
0000
0000
,
0001
0000
0000
0000
,
0001
0000
0000
0000
;

//---------------dance-single - NEMESetup----------------
#NOTES:
     dance-single:
     NEMESetup:
     Easy:
     3:
     0.286,0.311,0.078,0.164,0.000:
0000
0000
0000
0000
,
0000
0000
0000
0000
,
1001
0000
0000
0100
,
0100
0000
0000
0010
,
0020
0000
0000
0000
,
0031
0001
0001
0000
,
1001
0000
1000
0001
,
1000
0000
0001
1000
,
0001
0000
1000
0001
,
1000
0000
0001
1000
,
0010
0000
0100
0010
,
0100
0000
0010
0100
,
0010
0000
0100
0010
,
0200
0000
0010
0310
,
1001
0000
0001
0100
,
1000
0000
1000
0100
,
0001
0000
0001
0010
,
1000
0000
1000
0010
,
0001
0000
1000
0010
,
0001
0000
1000
0100
,
0001
0000
0001
0010
,
1000
0000
0001
0100
,
2000
0000
0100
0100
,
3002
0000
0100
0100
,
2003
0000
0010
0010
,
3002
0000
0100
0100
,
0203
0000
0010
0010
,
0320
0000
1000
1000
,
2030
0000
0001
0001
,
3002
0010
0010
0013
,
0011
0000
0001
0100
,
0010
0000
1000
0100
,
0010
0000
0001
0100
,
1000
0000
1000
0100
,
0001
0000
1000
0010
,
0100
0000
0001
0010
,
0100
0000
1000
0001
,
0100
0100
0200
0300
,
1001
0010
1000
0010
,
0001
0010
1000
0100
,
0010
0001
0010
1000
,
0010
0001
0100
1000
,
0100
0001
1000
0100
,
0010
0001
0010
1000
,
0010
0100
1000
0010
,
0100
0100
0100
0100
,
0200
0000
0001
0001
,
0302
0000
1003
1000
,
2000
0000
0010
3010
,
0010
0000
0100
0000
,
0110
0000
0001
1000
,
0001
0000
1000
0001
,
1000
0100
0010
0001
,
0200
0010
0001
0301
,
0101
0010
1000
0100
,
1000
0010
1000
0100
,
0010
0001
0100
0001
,
0010
0001
0100
0100
,
0110
0010
1000
0100
,
0010
0010
0100
1000
,
0001
0001
0100
1000
,
0100
0100
0100
0100
,
0210
0000
0010
0010
,
0320
0000
1000
1000
,
2030
0000
0100
0100
,
3200
0000
0300
0000
;

//---------------dance-single - NEMESetup----------------
#NOTES:
     dance-single:
     NEMESetup:
     Medium:
     6:
     0.413,0.451,0.112,0.104,0.000:
0000
0000
0000
0000
,
0000
0000
0000
0000
,
0102
0000
0000
1000
0000
1000
0000
1003
,
2000
0000
0000
0010
0000
0010
0000
0010
,
3020
0000
0000
0100
0000
0100
0000
0100
,
0230
0010
0001
1300
,
1001
0000
0001
0100
0000
0100
0000
0001
,
1000
0000
0000
0010
0000
0010
0000
1000
,
0100
0000
0000
1000
0000
1000
0000
0001
,
0100
0000
0000
0001
0000
0001
0000
1000
,
0010
0000
0000
0100
0000
0100
0000
0001
,
0010
0000
0000
0100
0000
0100
0000
0010
,
1000
0000
0000
0010
0000
0010
0000
1000
,
0010
0001
1000
1001
,
0010
0000
0100
0001
0000
1000
0000
0001
,
0100
0000
0010
1000
0000
1000
0000
0100
,
0010
0000
0001
1000
0000
1000
0000
0001
,
0100
0000
0010
0100
0000
0100
0000
1000
,
0100
0000
0001
1000
0000
1000
0000
0001
,
0100
0000
0001
0010
0000
0010
0000
0100
,
1000
0000
0010
0100
0000
0100
0000
1000
,
0100
0000
0000
0100
0010
1000
0100
0000
,
1000
0000
0010
0000
0100
0010
0100
0000
,
0001
0000
1000
0000
0001
0100
1000
0000
,
2200
3300
0001
0000
0010
0100
1000
0000
,
0001
0000
0100
0000
0001
0100
0001
0100
,
0220
0330
1000
0000
0100
1000
0010
0000
,
0100
0000
0001
0000
0010
1000
0010
0000
,
0100
0000
1000
0000
0001
0010
1000
0000
,
0010
0000
0001
0000
0100
0010
0100
0000
,
0001
0000
0100
0010
0000
0100
0000
1000
,
0100
0000
0001
1000
0000
1000
0000
0001
,
0010
0000
0100
1000
0000
0001
0000
0100
,
0010
0000
1000
0100
0000
0100
0010
0100
,
0010
0000
0001
0100
0000
0100
0000
0100
,
0001
1000
0010
0100
0000
0100
0000
0100
,
0010
1000
0100
0010
0000
0010
0000
0010
,
0001
0010
0001
0010
0001
0010
1000
0000
,
1010
0000
0010
0100
0000
1000
0000
0001
,
0100
0000
0010
1000
0000
0100
0000
0010
,
0001
0000
0100
1000
0000
0100
0000
0001
,
0010
0000
1000
0010
0001
0100
0010
1000
,
0100
0000
0010
0001
0000
0100
0000
1000
,
0100
0000
0010
1000
0000
0001
0000
0100
,
1000
0000
0100
0001
0000
0001
0000
0010
,
0100
0000
1000
0000
0010
0100
0001
0000
,
0100
0000
0000
0001
0000
0001
0000
0001
,
1000
0000
0000
0100
0000
0100
0000
0100
,
1000
0000
0000
0010
0000
0010
0000
0010
,
1000
0000
0000
0100
0000
0100
0000
0100
,
1100
0000
0000
1001
0000
0001
0000
0100
,
1001
0000
0000
0010
0000
0100
0000
0010
,
1001
0110
1001
0110
,
0001
1000
0100
0010
0100
1000
0010
0000
,
1000
0000
0001
0100
0000
0010
0000
1000
,
0100
0000
0010
0001
0000
1000
0000
0001
,
0100
0000
0010
1000
0000
0100
0000
0010
,
0100
0000
1000
0001
0000
0100
0000
1000
,
1000
0100
0010
1000
0000
0100
0000
0010
,
0001
0001
0010
0100
0000
1000
0000
0001
,
0100
0100
0010
1000
0000
0001
0000
0100
,
0010
0000
0100
0000
0010
1000
0100
0010
,
0002
0000
0000
0010
0000
0010
0000
0010
,
0023
0000
0000
0100
0000
0100
0000
0100
,
0230
0000
0000
1000
0000
1000
0000
1000
,
2300
0000
0000
3001
0000
0000
0000
0000
;
