#TITLE:Yummy;
#SUBTITLE:;
#ARTIST:Gwen Stefani feat. Pharrell;
#TITLETRANSLIT:;
#SUBTITLETRANSLIT:;
#ARTISTTRANSLIT:;
#CREDIT:;
#BANNER:Yummy-bn.png;
#BACKGROUND:Yummy-bg.png;
#LYRICSPATH:;
#CDTITLE:NEMESetupLOGO.png;
#MUSIC:Yummy.mp3;
#OFFSET:-2.000;
#SAMPLESTART:62.900;
#SAMPLELENGTH:12.500;
#SELECTABLE:YES;
#BPMS:0.000=124.000;
#STOPS:412.000=1.460
;
#BGCHANGES:0.000=-random-=1.000=0=0=1,
412.000=Yummy-bg.png=1.000=0=0=1,
413.000=-random-=1.000=0=0=1,
413.063=-random-=1.000=0=0=1,
441.000=Yummy-bg.png=1.000=0=0=1,
99999=-nosongbg-=1.000=0=0=0 // don't automatically add -songbackground-
;

//---------------dance-single - NEMESetup----------------
#NOTES:
     dance-single:
     NEMESetup:
     Hard:
     9:
     0.660,0.556,0.332,0.492,0.205: // measure 1
1100
0001
0001
0100
1000
0100
0010
1000
,  // measure 2
0100
0000
0001
0100
0000
0000
1000
0000
0001
0000
0200
0000
0010
0000
0310
0000
,  // measure 3
0000
1000
1000
0001
0010
0100
1000
0010
,  // measure 4
1001
0000
1000
0001
0000
0000
0010
0000
0100
0000
2000
0000
0001
0000
3001
0000
,  // measure 5
0000
0000
0101
0000
0000
0000
1000
0000
1000
0100
0000
0010
0000
0110
0000
1000
,  // measure 6
0001
0000
0010
0000
0001
0000
0100
0000
1000
0000
0100
0001
0000
0101
0000
0000
,  // measure 7
0010
1000
0001
0100
0010
1000
0001
0100
,  // measure 8
0110
0000
0010
0100
0000
0000
0001
0000
0001
1000
0001
0000
0100
0000
0100
0000
,  // measure 9
0002
0000
0200
0000
0010
0303
0000
0000
2000
0000
0200
0000
0010
3300
0000
0000
,  // measure 10
0002
0000
0020
0000
1000
0033
0000
0000
2000
0000
0200
0000
0001
3300
0000
0000
,  // measure 11
0002
0000
2000
0000
0010
3003
0000
0000
2000
0000
0002
0000
0100
3003
0000
0000
,  // measure 12
0010
1000
0100
0000
0010
0000
0100
0000
0000
0000
2200
0000
0011
3300
0000
0000
,  // measure 13
2000
0000
0200
0000
0001
3300
0000
0000
2000
0000
0020
0000
0001
3030
0000
0000
,  // measure 14
0200
0000
0002
0000
1000
0303
0000
0000
0020
0000
0002
0000
1000
0033
0000
0000
,  // measure 15
0100
0000
0001
1000
0001
0000
0100
0000
0010
0000
1000
0000
0001
0000
0000
0000
,  // measure 16
0010
0000
0100
0000
1000
0000
0100
0000
0010
0001
0010
0001
0000
0000
0002
0000
,  // measure 17
1000
0000
0000
1000
0000
0000
1000
0000
1003
0000
0010
0000
1001
0000
0000
0000
,  // measure 18
0010
0000
2000
0000
0200
0000
0000
0300
0000
0000
0002
0000
0010
3003
0000
0000
,  // measure 19
0100
0000
0001
0000
0010
0000
0010
0100
1000
0000
0001
0000
0101
0000
0000
0000
,  // measure 20
1000
0010
0010
1000
0100
0001
0101
0000
,  // measure 21
0100
1000
0010
0000
0001
0000
0010
1000
0100
0000
0100
0000
0010
0000
1001
0000
,  // measure 22
0000
0100
1000
0000
0001
0000
0001
0000
0010
0000
0100
0000
0100
0000
1001
0000
,  // measure 23
0000
0000
0010
0000
0001
0000
0100
0000
0010
0000
1000
0000
0100
0000
1000
0001
,  // measure 24
1000
0000
1000
0001
0010
0000
0100
0000
1000
0000
1000
0000
1000
0000
0010
0100
,  // measure 25
0020
1000
1030
0100
0020
0031
0100
0010
,  // measure 26
1010
0000
0010
0100
0000
0000
0001
0000
0100
0000
0000
0000
1010
0000
0000
0000
,  // measure 27
0002
0100
0103
1000
0200
0301
0010
0100
,  // measure 28
1100
0000
1000
0100
0000
0000
0010
0000
0100
0000
0000
0000
0011
0000
0000
0000
,  // measure 29
2000
0000
0010
0000
0000
0000
3001
0000
0020
0100
0030
1000
0000
1001
0000
1000
,  // measure 30
0001
0000
0010
0000
0100
0000
1000
0000
0010
0000
0100
0001
0000
1001
0000
0000
,  // measure 31
0200
0001
0301
1000
0020
1030
0001
0100
,  // measure 32
0100
0000
0010
0100
0000
0000
0100
0000
0010
1000
0010
0000
0100
0000
0001
0000
,  // measure 33
0001
1000
0100
0001
0100
1000
1001
0010
,  // measure 34
1000
0001
0100
0010
0010
0100
0001
0001
,  // measure 35
1000
0001
0100
1000
0100
0001
1001
0010
,  // measure 36
1000
0000
0000
0001
1000
0000
0010
0000
0102
0000
0103
0100
0001
0000
0000
0000
,  // measure 37
0010
0001
0100
1000
0100
0010
0110
0001
,  // measure 38
0100
0100
0010
1000
1000
0001
0010
0010
,  // measure 39
0100
1000
0010
0001
0010
0100
0110
1000
,  // measure 40
0001
0000
0000
1000
0001
0000
0010
0000
1100
0000
2000
0000
0100
0000
3100
0000
,  // measure 41
0100
0000
0220
0000
1000
0330
0000
0000
0000
0000
2002
0000
0010
3003
0000
0000
,  // measure 42
0000
0000
0220
0000
0001
0330
0000
0000
0000
0000
2002
0000
0100
3003
0000
0000
,  // measure 43
0000
0000
2200
0000
0001
3300
0000
0000
0000
0000
2020
0000
0001
3030
0000
0000
,  // measure 44
1000
0100
0001
0100
0020
0100
0130
0000
,  // measure 45
0000
0000
0220
0000
0001
0330
0000
0000
0000
0000
2002
0000
0010
3003
0000
0000
,  // measure 46
0000
0000
0220
0000
1000
0330
0000
0000
0000
0000
2002
0000
0100
3003
0000
0000
,  // measure 47
0000
0000
0001
0010
0001
0000
1000
0000
1000
0000
0100
0000
0010
0000
0000
0000
,  // measure 48
0001
0000
0010
0000
0100
0000
1000
0000
0100
1000
0100
1000
0000
0000
2000
0000
,  // measure 49
0001
0000
0000
0001
0000
0000
0001
0000
3001
0000
0100
0000
1001
0000
0000
0000
,  // measure 50
0010
0000
0002
0000
0200
0000
0000
0300
0000
0000
2000
0000
0010
3003
0000
0000
,  // measure 51
1000
0000
0001
1000
0010
0000
0100
0001
1000
0000
0100
0000
0110
0000
0000
0000
,  // measure 52
1000
0000
0100
0000
0200
0000
0000
0000
0000
0000
0020
0000
1000
0330
0000
0000
,  // measure 53
0010
0000
0001
0000
1000
0001
1000
0001
0100
0000
0010
0000
1000
0000
0110
0000
,  // measure 54
0000
0001
0100
0000
1000
0000
0100
0000
0001
0000
1000
0000
0001
0000
0110
0000
,  // measure 55
0000
0000
0100
1000
0010
0000
0100
0000
0001
0000
0001
0000
1000
0000
0100
1000
,  // measure 56
0100
0010
0100
0010
0001
0000
1000
0000
0010
0000
0100
0000
0100
0000
0101
0000
,  // measure 57
0200
0001
0301
0010
0200
1300
0010
0100
,  // measure 58
0101
0000
0100
0010
0000
0000
1000
0000
0010
0000
0000
0000
0101
0000
0000
0000
,  // measure 59
2000
0010
3010
0001
0020
1030
0100
0010
,  // measure 60
0011
0000
0001
0010
0000
0000
0100
0000
0010
0000
0000
0000
1100
0000
0000
0000
,  // measure 61
0002
0000
0100
0000
0000
0000
1003
0000
0200
0010
0300
0001
0000
1001
0000
0001
,  // measure 62
1000
0000
0100
0000
0010
0000
0001
0000
0100
0000
0010
1000
0000
1001
0000
0000
,  // measure 63
0020
1000
1030
0001
0200
0301
1000
0010
,  // measure 64
0010
0000
0100
0010
0000
0000
0010
0000
0100
0001
0100
0000
0010
0000
1000
0000
,  // measure 65
1000
0001
0010
1000
0010
0001
1001
0100
,  // measure 66
0001
1000
0010
0100
0100
0010
1000
1000
,  // measure 67
0001
1000
0010
0001
0010
1000
1001
0100
,  // measure 68
0001
0000
0000
1000
0001
0000
0100
0000
2010
0000
3010
0010
1000
0000
0000
0000
,  // measure 69
0100
1000
0010
0001
0010
0100
0110
1000
,  // measure 70
0010
0010
0100
0001
0001
1000
0100
0100
,  // measure 71
0010
0001
0100
1000
0100
0010
0110
0001
,  // measure 72
1000
0000
0000
0001
1000
0000
0100
0000
0011
0000
0002
0000
0100
0000
0103
0000
,  // measure 73
0100
0001
0002
0000
0000
0000
1000
1003
,  // measure 74
0010
1000
0001
1001
0010
0100
0110
1001
,  // measure 75
0001
0000
0000
0001
2000
0000
0100
0000
3100
0000
0010
0000
0001
0000
0001
0000
,  // measure 76
0000
1000
0010
0100
1000
0100
0001
0001
,  // measure 77
1000
0000
0100
0000
0001
0000
0100
0000
1100
0000
1000
0010
0100
0000
0101
0000
,  // measure 78
0001
1000
1000
0010
0001
0010
1000
1001
,  // measure 79
0001
0000
0010
0001
0100
0000
0001
0000
1000
0000
0010
0000
0010
0000
0100
0000
,  // measure 80
0002
0000
0000
0000
0000
0000
0003
0000
1000
0010
1000
0000
0100
0000
0100
0000
,  // measure 81
0010
0001
1000
0010
0100
0001
1000
0000
,  // measure 82
0001
0000
1000
0001
0000
0000
0020
0000
0000
0000
0001
0000
0000
0000
0130
0000
,  // measure 83
0200
1300
1000
0100
0010
0001
0100
0000
,  // measure 84
0010
0000
1000
0010
0000
0000
0200
0000
0000
0000
1000
0000
0000
0000
0301
0000
,  // measure 85
0002
0013
0010
1000
0010
0100
1000
0000
,  // measure 86
0001
0000
0010
0001
0000
0000
2000
0000
0000
0000
0100
0000
0000
0000
3010
0000
,  // measure 87
0020
0031
0001
1000
0100
0001
1000
0000
,  // measure 88
0100
0000
0010
0100
0000
0000
0100
0000
1000
0100
1000
0000
0001
0000
1000
0000
,  // measure 89
0020
1000
1030
0100
0020
0031
0100
0010
,  // measure 90
1010
0000
0010
0100
0000
0000
0001
0000
0100
0000
0020
0000
1000
0000
1030
0000
,  // measure 91
0002
0100
0103
1000
0200
0301
0010
0100
,  // measure 92
1100
0000
1000
0100
0000
0000
0010
0000
0100
0000
0020
0000
0001
0000
0031
0000
,  // measure 93
2000
0000
0010
0000
0000
0000
3001
0000
0020
0100
0030
1000
0000
1001
0000
1000
,  // measure 94
0001
0000
0010
0000
0100
0000
1000
0000
0010
0000
0100
0001
0000
1001
0000
0000
,  // measure 95
0200
0001
0301
1000
0020
1030
0001
0100
,  // measure 96
0100
0000
0010
0100
0000
0000
0100
0000
0100
0000
0002
0000
0100
0000
0103
0000
,  // measure 97
0200
0001
0301
0010
0200
1300
0010
0100
,  // measure 98
0101
0000
0100
0010
0000
0000
1000
0000
0010
0000
0200
0000
0001
0000
0301
0000
,  // measure 99
2000
0010
3010
0001
0020
1030
0100
0010
,  // measure 100
0011
0000
0001
0010
0000
0000
0100
0000
0010
0000
0200
0000
1000
0000
1300
0000
,  // measure 101
0002
0000
0100
0000
0000
0000
1003
0000
0200
0010
0300
0001
0000
1001
0000
0001
,  // measure 102
1000
0000
0100
0000
0010
0000
0001
0000
0100
0000
0010
1000
0000
1001
0000
0000
,  // measure 103
0020
1000
1030
0001
0200
0301
1000
0010
,  // measure 104
0110
0001
0001
1000
0100
0001
0100
1000
,  // measure 105
1001
0010
1000
0001
0100
0010
0010
0100
,  // measure 106
0001
0001
1000
0001
0100
1000
0100
0001
,  // measure 107
1001
0000
0010
0000
1000
0000
0000
0001
1000
0000
0010
0000
0102
0000
0103
0100
,  // measure 108
0001
0000
0010
0001
0100
1000
0100
0010
,  // measure 109
0110
0001
0100
0100
0010
1000
1000
0001
,  // measure 110
0010
0010
0100
1000
0010
0001
0010
0100
,  // measure 111
0110
0000
1000
0000
0001
0000
0000
1000
0001
0000
0010
0000
2200
0000
0000
0000
,  // measure 112
3300
0000
0000
0000
;
