#TITLE:Tootsee Roll;
#SUBTITLE:;
#ARTIST:The Block Brothers & Hollywood J;
#TITLETRANSLIT:;
#SUBTITLETRANSLIT:;
#ARTISTTRANSLIT:;
#CREDIT:;
#BANNER:Tootsee Roll.png;
#BACKGROUND:Tootsee Roll-bg.png;
#LYRICSPATH:;
#CDTITLE:NEMESetupLOGO.png;
#MUSIC:Tootsee Roll.mp3;
#OFFSET:-2.085;
#SAMPLESTART:14.703;
#SAMPLELENGTH:15.000;
#SELECTABLE:YES;
#BPMS:0.000=133.110;
#STOPS:;
#BGCHANGES:;

//---------------dance-single - ----------------
#NOTES:
     dance-single:
     :
     Beginner:
     2:
     0.144,0.185,0.185,0.000,0.000: // measure 1
0000
0000
0000
0000
,  // measure 2
0000
0000
0000
0000
,  // measure 3
0000
0000
0000
0000
,  // measure 4
0000
0000
0000
0000
,  // measure 5
0000
0000
0000
0000
,  // measure 6
1000
0000
1000
0000
,  // measure 7
0001
0001
0001
1001
,  // measure 8
0000
0000
1000
1000
,  // measure 9
0000
0000
0000
0000
,  // measure 10
0000
0000
0001
0001
,  // measure 11
0000
0000
0000
0000
,  // measure 12
0000
0000
1000
1000
,  // measure 13
0000
0000
0000
0000
,  // measure 14
0000
0000
0001
0001
,  // measure 15
0000
0000
0110
1001
,  // measure 16
0000
0000
1000
0000
,  // measure 17
0000
0000
0001
0000
,  // measure 18
0000
0000
0010
0000
,  // measure 19
0000
0000
0100
0000
,  // measure 20
0000
0000
0000
0000
,  // measure 21
1001
0000
0000
0000
,  // measure 22
1001
0000
0000
0000
,  // measure 23
1001
0000
0000
0000
,  // measure 24
0000
0000
1000
0000
,  // measure 25
0000
0000
0001
0000
,  // measure 26
0000
0000
0010
0000
,  // measure 27
0000
0000
0100
0000
,  // measure 28
1000
1000
1000
0000
,  // measure 29
0001
0001
0001
0000
,  // measure 30
0001
0001
0001
0000
,  // measure 31
0001
0001
0001
0000
,  // measure 32
0001
0000
0001
0000
,  // measure 33
1000
1000
1000
1001
,  // measure 34
0000
0000
1000
1000
,  // measure 35
0000
0000
0001
0001
,  // measure 36
0000
0000
0100
0100
,  // measure 37
0000
0000
0010
0010
,  // measure 38
0000
1000
1000
1000
,  // measure 39
0000
0001
0001
0001
,  // measure 40
0000
0100
0100
0000
,  // measure 41
1001
0000
0000
0000
,  // measure 42
0000
1001
0000
0110
,  // measure 43
0000
0000
0000
1001
,  // measure 44
0000
0110
0000
1001
,  // measure 45
0000
0000
0000
0110
,  // measure 46
0000
1001
0000
0110
,  // measure 47
0000
0000
0000
0000
,  // measure 48
1000
0000
1000
0000
,  // measure 49
0001
0001
0001
1001
;

//---------------dance-single - ----------------
#NOTES:
     dance-single:
     :
     Easy:
     5:
     0.259,0.291,0.358,0.076,0.000: // measure 1
0000
0000
0000
0000
,  // measure 2
0000
0000
0000
0000
,  // measure 3
0000
0000
0000
0000
,  // measure 4
0000
0000
0000
0000
,  // measure 5
0000
0000
0000
0000
,  // measure 6
1000
0001
0010
0010
,  // measure 7
0001
1000
0110
1001
,  // measure 8
0002
0003
1000
0000
,  // measure 9
2000
3001
0000
0000
,  // measure 10
0200
0300
1000
0000
,  // measure 11
0020
0031
0000
0000
,  // measure 12
2000
3000
0001
0000
,  // measure 13
0002
1003
0000
0000
,  // measure 14
0020
0030
0001
0000
,  // measure 15
0000
0000
0110
1001
,  // measure 16
1000
1000
1000
1100
,  // measure 17
0001
0001
0001
0101
,  // measure 18
0010
0010
0010
1001
,  // measure 19
0100
0100
0100
0110
,  // measure 20
1001
0000
0010
0100
,  // measure 21
1001
0000
0010
0100
,  // measure 22
1001
0000
0010
0100
,  // measure 23
1001
0000
1000
0000
,  // measure 24
1000
0000
1100
0000
,  // measure 25
0001
0000
0101
0000
,  // measure 26
0010
0000
1001
0000
,  // measure 27
0100
0000
0110
0000
,  // measure 28
1000
0000
0101
0000
,  // measure 29
0001
0000
1100
0000
,  // measure 30
0001
0000
1100
0000
,  // measure 31
0001
0000
1100
0000
,  // measure 32
0001
1000
0010
0010
,  // measure 33
1000
0001
0110
1001
,  // measure 34
0001
0100
1000
0000
,  // measure 35
1000
0010
0001
0000
,  // measure 36
0010
1000
0000
0100
,  // measure 37
0100
0001
0000
0010
,  // measure 38
0100
1000
0001
0000
,  // measure 39
0010
0001
1000
0000
,  // measure 40
0001
1000
0100
0000
,  // measure 41
1001
0001
1000
0000
,  // measure 42
0001
0001
0000
0110
,  // measure 43
1000
1000
0000
0110
,  // measure 44
0001
0001
0000
0110
,  // measure 45
1000
1000
0000
0110
,  // measure 46
0001
0110
1000
1001
,  // measure 47
1000
0110
0001
1001
,  // measure 48
1000
0001
0010
0010
,  // measure 49
0001
1000
0110
1001
;

//---------------dance-single - ----------------
#NOTES:
     dance-single:
     :
     Medium:
     7:
     0.478,0.556,0.706,0.076,0.000: // measure 1
0000
0000
0000
0000
,  // measure 2
0000
0000
0000
0000
,  // measure 3
0000
0000
0000
0000
,  // measure 4
0000
0000
0000
0000
,  // measure 5
0000
0000
0000
0000
,  // measure 6
1100
0010
0001
1000
0011
0100
1100
0000
,  // measure 7
0110
0001
0110
1000
1001
0100
1001
0000
,  // measure 8
0002
0000
1003
1000
0000
0100
0100
0000
,  // measure 9
2000
0000
3001
0001
0000
0100
0100
0000
,  // measure 10
0200
0000
1300
1000
0000
0100
0100
0000
,  // measure 11
0020
0000
0031
0001
0000
0010
0010
0000
,  // measure 12
2000
0000
3001
0001
0000
0100
0100
0000
,  // measure 13
0002
0000
1003
1000
0000
0100
0100
0000
,  // measure 14
0020
0000
0031
0001
0000
0010
0010
0000
,  // measure 15
0011
0000
0110
1001
,  // measure 16
1000
0100
1100
0000
1000
0100
1100
0000
,  // measure 17
0001
0100
0101
0000
0001
0100
0101
0000
,  // measure 18
0010
0100
1001
0000
0010
0100
1001
0000
,  // measure 19
0100
0010
0110
0000
0100
0010
0110
0000
,  // measure 20
1001
0000
1000
0010
,  // measure 21
1001
0000
0001
0100
,  // measure 22
1001
0000
1000
0001
,  // measure 23
1001
0000
0000
0000
1000
0000
0000
1000
,  // measure 24
1100
0000
0000
1000
1100
0000
0000
0001
,  // measure 25
0101
0000
0000
0001
0101
0000
0000
0010
,  // measure 26
1001
0000
0000
0010
1001
0000
0000
0100
,  // measure 27
0110
0000
0000
0100
0110
0000
0000
0000
,  // measure 28
1010
0100
0101
0000
,  // measure 29
0011
0100
1100
0000
,  // measure 30
0011
0100
1100
0000
,  // measure 31
0011
0100
1100
0000
,  // measure 32
0011
0100
1000
0001
1100
0010
0011
0000
,  // measure 33
0110
1000
0110
0001
1001
0010
1001
0000
,  // measure 34
0001
0000
0100
0010
1000
0001
0100
0000
,  // measure 35
0001
0100
0001
0010
0100
1000
0001
0000
,  // measure 36
1000
0000
0010
0100
0001
1000
0100
0000
,  // measure 37
1000
0100
1000
0010
0100
0001
1000
0000
,  // measure 38
0001
0000
0010
0100
1000
0001
0010
0000
,  // measure 39
0001
0010
0001
0100
0010
1000
0001
0000
,  // measure 40
0001
0001
1000
0100
0010
0010
0010
0000
,  // measure 41
1001
0000
0001
0001
0000
1000
1000
0000
,  // measure 42
0001
0100
0101
0001
0010
0100
1100
0000
,  // measure 43
1000
0100
1100
1000
0010
0100
0101
0000
,  // measure 44
0001
0100
0101
0001
0010
0100
1100
0000
,  // measure 45
1000
0100
1100
1000
0010
0100
0101
0000
,  // measure 46
0001
0100
0101
0001
0010
0100
1100
0000
,  // measure 47
1000
0100
1100
1000
0010
0100
0101
0000
,  // measure 48
1100
0010
0001
1000
0011
0100
1100
0000
,  // measure 49
0110
0001
0110
1000
1001
0100
1001
0000
;

//---------------dance-single - ----------------
#NOTES:
     dance-single:
     :
     Hard:
     9:
     0.579,0.609,0.902,0.076,0.136: // measure 1
0000
0000
0000
0000
,  // measure 2
0000
0000
0000
0000
,  // measure 3
0000
0000
0000
0000
,  // measure 4
0000
0000
0000
0000
,  // measure 5
0000
0000
0000
0000
,  // measure 6
0011
0000
0100
0000
1000
0000
0001
0000
1100
0000
0010
0100
0001
0000
0000
0000
,  // measure 7
0110
1000
0110
0001
1001
0110
1001
0000
,  // measure 8
2000
0000
3001
0001
0011
0100
1100
0000
,  // measure 9
0002
0000
1003
1000
1010
0100
0101
0000
,  // measure 10
0020
0000
0031
0001
0110
0010
1100
0000
,  // measure 11
0200
0000
1300
1000
0110
0100
0101
0000
,  // measure 12
0002
0000
1003
1000
1100
0010
0011
0000
,  // measure 13
2000
0000
3001
0001
0101
0010
1010
0000
,  // measure 14
0200
0000
1300
1000
0110
0100
0011
0000
,  // measure 15
1100
0000
0000
1010
0000
0000
1001
0000
0000
0101
0000
0000
0000
0000
1000
0100
,  // measure 16
1000
0000
0000
0000
1100
0000
1000
0100
1000
0000
0000
0000
1100
0000
0001
0100
,  // measure 17
0001
0000
0000
0000
0101
0000
0001
0100
0001
0000
0000
0000
0101
0000
0010
0100
,  // measure 18
0010
0000
0000
0000
1001
0000
0010
0100
0010
0000
0000
0000
1001
0000
0001
1000
,  // measure 19
0001
0000
0000
0000
0110
0000
0001
1000
0001
0000
0000
0000
0110
0000
1000
0000
,  // measure 20
1001
0000
0000
0000
1000
0000
0010
0100
,  // measure 21
1001
0000
0000
0001
0010
0000
1000
0100
,  // measure 22
1001
0000
0000
0000
1000
0000
0001
0100
,  // measure 23
1001
0000
0000
0010
1000
0000
0000
1000
,  // measure 24
1100
0000
0000
1000
1100
0000
0000
0001
,  // measure 25
0101
0000
0000
0001
0101
0000
0000
0010
,  // measure 26
1001
0000
0000
0010
1001
0000
0000
0100
,  // measure 27
0110
0000
0000
0100
0110
0000
0000
0001
,  // measure 28
1010
0000
1000
0100
0101
0000
0000
0000
,  // measure 29
0011
0000
0001
0010
1100
0000
0000
0000
,  // measure 30
0011
0000
0001
0010
1100
0000
0000
0000
,  // measure 31
0011
0000
0001
0010
1100
0000
0000
0000
,  // measure 32
1100
0000
0010
0000
0001
0000
1000
0000
0011
0000
0100
0010
1000
0000
0000
0000
,  // measure 33
0110
0001
0110
1000
1001
0110
1001
0000
,  // measure 34
1000
0000
0000
0010
0100
0000
1000
0000
0100
0000
0010
0000
1000
0000
0100
0000
,  // measure 35
0010
0000
0000
0100
1000
0000
0100
0000
0010
0000
0001
0000
0100
0000
0100
0000
,  // measure 36
0001
0000
0000
0100
0010
0000
0001
0000
0010
0000
0100
0000
0001
0000
0010
0000
,  // measure 37
0100
0000
0000
0010
0001
0000
0010
0000
0100
0000
1000
0000
0100
0000
0100
0000
,  // measure 38
1000
0001
0100
0000
1000
0001
0010
0100
,  // measure 39
0010
0001
1000
0000
0001
1000
0100
0010
,  // measure 40
0100
1000
0001
0000
1000
0100
0010
0001
,  // measure 41
0101
0000
0000
0011
0000
0000
1001
0000
0000
1100
0000
0000
0000
0000
0000
0000
,  // measure 42
1000
0000
0100
0000
1100
0000
0010
0000
0001
0010
0001
0000
1100
0000
1000
0000
,  // measure 43
0001
0000
0100
0000
0101
0000
0010
0000
1000
0010
1000
0000
0101
0000
0001
0000
,  // measure 44
1000
0000
0100
0000
1100
0000
0010
0000
0001
0010
0001
0000
1100
0000
1000
0000
,  // measure 45
0001
0000
0100
0000
0101
0000
0010
0000
1000
0010
1000
0000
0101
0000
0001
0000
,  // measure 46
1000
0000
0100
0000
1100
0000
0010
0000
0001
0010
0001
0000
1100
0000
1000
0000
,  // measure 47
0001
0000
0100
0000
0101
0000
0010
0000
1000
0010
1000
0000
0101
0000
0000
0000
,  // measure 48
0011
0000
0100
0000
1000
0000
0001
0000
1100
0000
0010
0100
0001
0000
0000
0000
,  // measure 49
0110
1000
0110
0001
1001
0110
1001
0000
;

//---------------dance-single - NEMESetup----------------
#NOTES:
     dance-single:
     NEMESetup:
     Challenge:
     9:
     0.646,0.637,0.673,0.304,0.223:
0000
0000
0000
0000
,
0100
0000
1000
0010
0000
0000
0100
0001
,
0000
0000
1000
0000
0001
0000
0000
0000
0010
0000
0000
0010
0000
0000
0010
0001
,
1000
0000
0001
0010
0000
0000
0100
1000
,
0000
0001
1000
0000
0100
0010
0110
0000
,
0001
0001
1000
1000
0010
0100
1001
0000
,
0011
1000
1010
0001
1001
0220
1001
0330
,
1001
0000
0000
1000
0100
0000
1000
0000
0001
0000
0001
0000
1001
0000
0000
0000
,
0100
0010
0010
0100
0001
1000
1001
0000
,
0110
0000
0000
0010
1000
0000
0001
0000
0100
0000
0100
0000
0101
0000
0000
0000
,
0001
1000
1000
0001
0100
0010
1010
0000
,
0011
0000
0000
0001
1000
0000
0010
0000
1000
0000
1000
0000
1100
0000
0000
0000
,
0001
0000
1000
0010
1000
0000
0001
0000
0010
0000
0010
0000
0110
0000
0000
0000
,
0001
0001
0001
1000
0100
0010
0011
0000
,
2000
0000
0000
0002
0000
0000
0020
0000
0000
0200
0000
0000
3333
0000
1000
0100
,
1000
0000
0000
0000
1100
0000
1000
0100
1000
0000
0000
0000
1100
0000
0001
0100
,
0001
0000
0000
0000
0101
0000
0001
0100
0001
0000
0000
0000
0101
0000
0010
0100
,
0010
0000
0000
0000
1001
0000
0010
0100
0010
0000
0000
0000
1001
0000
0001
0100
,
0001
0000
0000
0000
1100
0000
1000
0100
1000
0000
0000
0000
0101
0000
0010
0000
,
2002
0000
3003
0000
1000
0000
0001
1000
,
2020
0000
3030
0100
0010
0000
0100
0010
,
2002
0000
3003
0000
0001
0000
1000
0001
,
1000
0100
0000
0010
0000
0001
0000
0001
0100
0000
0010
1000
0000
1000
0000
0001
,
1000
0000
1100
0001
1000
0000
1100
1000
,
0001
0000
0101
1000
0001
0000
0101
0100
,
0010
0000
1001
0100
0010
0000
1001
0010
,
0100
0000
1001
0010
0100
0000
1001
0100
,
1001
0000
2000
0002
0010
3003
0000
0000
,
0011
0000
0002
0020
0100
0033
0000
0000
,
1010
0000
2000
0020
0100
3030
0000
0000
,
1001
0000
2000
0002
0100
3003
0110
0000
,
1010
0010
1000
0001
0011
0001
1000
0000
,
1010
0100
0011
0100
1001
0220
1001
0330
,
1001
0000
0000
0010
0100
0000
0001
0000
1000
0000
0100
0000
0010
0000
0100
0000
,
1000
0001
0000
0001
1000
0000
1000
0010
0000
0100
0000
0001
0100
0000
1000
0100
,
0000
0000
0000
0001
0010
0000
0001
0000
1000
0000
0100
0000
0001
0000
0100
0000
,
0010
0000
1000
0000
0010
0000
0001
0000
1000
0100
0000
0001
0100
0000
0000
1001
,
0000
0000
0000
0010
0100
0000
0100
0000
0001
0000
1000
0001
0000
0001
1000
0000
,
0100
0000
1000
0000
0001
0000
0010
0000
0100
0000
0100
0010
0000
0010
0100
0000
,
1100
1000
0010
0100
0101
0001
1000
0001
,
0102
0000
0000
2000
0000
0000
0200
0000
0000
0020
0000
0000
3333
0000
0000
0000
,
0101
0001
0100
0010
1000
0001
0010
0100
,
0010
0001
1000
0010
0100
1000
0100
0001
,
1001
1000
0010
0001
0010
0100
0001
0010
,
1000
0010
0100
1000
0010
0100
0001
1000
,
1010
0010
0100
1000
0001
0010
0100
0001
,
0010
0100
1000
0001
0100
1000
0001
1000
,
0100
0100
0010
0010
1000
0001
0110
0000
,
0101
1000
1100
0001
0110
2002
0110
3003
;
