#TITLE:The Whistler;
#SUBTITLE:;
#ARTIST:Claude VonStroke;
#TITLETRANSLIT:;
#SUBTITLETRANSLIT:;
#ARTISTTRANSLIT:;
#CREDIT:;
#BANNER:The Whistler-bn.png;
#BACKGROUND:The Whistler-bg.png;
#LYRICSPATH:;
#CDTITLE:NEMESetupLOGO.PNG;
#MUSIC:Claude Von Stroke- The Whistler.mp3;
#OFFSET:-5.818;
#SAMPLESTART:78.334;
#SAMPLELENGTH:15.000;
#SELECTABLE:YES;
#BPMS:0.000=126.100;
#STOPS:;
#BGCHANGES:4.000=-random-=1.000=0=0=1,
147.500=The Whistler-bg.png=1.000=0=0=1,
156.000=-random-=1.000=0=0=1,
296.000=The Whistler-bg.png=1.000=0=0=1,
99999=-nosongbg-=1.000=0=0=0 // don't automatically add -songbackground-
;

//---------------dance-single - NEMESetup----------------
#NOTES:
     dance-single:
     NEMESetup:
     Hard:
     8:
     0.445,0.437,0.293,0.137,0.166:
0000
0000
0000
0000
,
0001
1000
0001
1000
,
0001
1000
0001
1001
,
0010
0100
0010
0100
,
0010
0100
0010
0110
,
0100
0001
0000
0010
0000
1100
0000
1000
,
0000
0001
0000
1000
0000
0100
0000
0010
,
0000
0001
0000
0100
0000
0011
0000
1000
,
0000
0001
0000
1000
0000
0010
0000
0100
,
0001
0000
1010
1000
0100
0000
0011
0000
,
1000
0000
0011
0001
0100
0000
0110
0000
,
0001
0000
0110
0100
0001
0000
1001
0000
,
0100
0000
1001
1000
0100
0000
0110
0000
,
1100
0000
0000
0001
0000
0000
0001
0000
0100
0000
0101
0000
0000
0000
0001
0000
,
1000
0000
0000
1000
0000
0000
1000
0000
0001
0000
0000
0000
0110
0000
0000
0000
,
0101
0000
0000
1000
0000
0000
1000
0000
0100
0000
1100
0000
0000
0000
1000
0000
,
0001
0000
0000
0001
0000
0000
0001
0000
1000
0000
0000
0000
0110
0000
0000
0000
,
1010
0000
0000
0100
0000
0000
0100
0000
0001
0000
0101
0000
0000
0000
0100
0000
,
0010
0000
0000
0010
0000
0000
0010
0000
0100
0000
0000
0000
1001
0000
0000
0000
,
0011
0000
0000
0100
0000
0000
0100
0000
1000
0000
1100
0000
0000
0000
0100
0000
,
0010
0000
0000
0010
0000
0000
0010
0000
0100
0000
0000
0000
1001
0000
0000
0000
,
0010
0000
2000
0000
0000
3000
0001
0000
0001
0000
0000
0000
0100
0000
0100
0000
,
0001
0000
0200
0000
0000
0300
0010
0000
0010
0000
0000
0000
1000
0000
1000
0000
,
0100
0000
0020
0000
0000
0030
0001
0000
0001
0000
0000
0000
0100
0000
0001
0000
,
1000
0000
2000
0000
0000
3000
0001
0000
0002
0000
0000
0003
1000
0000
0010
0000
,
0100
0000
0002
0000
0000
0003
0100
0000
1000
0000
0000
0000
0100
0000
0010
0000
,
1000
0000
0020
0000
0000
0030
1000
0000
0001
0000
0000
0000
0100
0000
1000
0000
,
0001
0000
0020
0000
0000
0030
0100
0000
0001
0000
0000
0000
0010
0000
0001
0000
,
0100
0000
2000
0000
0000
3000
0100
0000
0002
0000
0000
0003
1000
0000
0100
0000
,
0120
0000
0000
0000
0000
0100
0000
0030
,
0001
0100
0000
1000
0001
0000
1000
0010
,
0200
0000
0000
0000
0000
0010
0000
0300
,
1000
0100
0000
0001
1000
0000
0010
0001
,
2000
0000
0000
0000
0000
0001
0000
3000
,
0100
0010
0000
0001
0010
0000
1000
0100
,
0002
0000
0000
0000
0000
0100
0000
0003
,
1000
0100
0000
1000
0001
0000
0001
0200
,
0000
1000
0000
1000
1000
0000
0010
0010
,
0000
0001
0000
0001
0001
0300
0110
0010
,
1001
0000
0000
0100
0000
0000
0010
0000
1000
0000
0000
0001
0000
0000
0010
0000
,
0001
0000
0000
1000
0000
0000
0010
0000
0100
0000
0000
0001
0000
0000
1000
0000
,
0001
0000
0000
0100
0000
0000
0010
0000
1000
0000
0000
0100
0000
0000
1000
0000
,
0001
0000
0001
0100
0000
0000
0100
0000
0010
0000
1000
0000
0100
0000
0001
0000
,
0100
0000
0000
1000
0000
0000
0001
0000
1000
0000
0000
0010
0000
0000
0100
0000
,
0001
0000
0000
1000
0000
0000
0010
0000
0001
0000
0000
0010
0000
0000
0100
0000
,
0001
0000
0000
1000
0000
0000
0100
0000
0010
0000
0000
1000
0000
0000
0001
0000
,
0100
0000
0100
1000
0000
0000
0001
0000
1000
0000
0000
0000
0110
0000
0000
0000
,
0001
0000
0100
0000
0000
0000
1000
0000
0100
0000
0000
0001
1000
0000
1000
0000
,
0100
0000
0010
0000
0000
0000
1000
0000
0010
0000
0000
0001
0100
0000
0100
0000
,
0010
0000
1000
0000
0000
0000
0100
0000
0001
0000
0000
1000
0010
0000
0010
0000
,
0200
0000
0000
0001
0000
0000
1000
0000
1300
0000
0000
0000
0101
0000
0000
0000
,
1000
0000
0010
0000
0000
0000
0001
0000
0010
0000
0000
0100
0001
0000
0001
0000
,
0100
0000
1000
0000
0000
0000
0001
0000
0010
0000
0000
1000
0100
0000
0100
0000
,
0001
0000
0100
0000
0000
0000
1000
0000
0010
0000
0000
0001
1000
0000
1000
0000
,
0200
0000
0000
1000
0000
0000
0001
0000
0301
0000
0000
0000
1100
0000
0000
0000
,
0001
0100
0000
0001
0001
1000
0000
1000
,
0001
0000
0000
0001
0000
0000
0001
0000
1000
0000
0000
0000
0110
0000
0000
0000
,
1000
0000
0000
1000
0000
0000
1000
0000
0100
0000
0110
0000
0000
0000
0010
0000
,
0001
0000
0000
0001
0000
0000
0001
0000
1000
0000
0000
0000
1001
0000
0000
0000
,
2000
0100
0000
0001
0001
0001
0000
3100
,
0020
1000
0031
0101
,
0002
0000
1000
0000
0013
0011
0000
0001
,
0200
1000
0301
0110
,
0011
0000
0001
0100
0000
0000
0010
0000
1000
0000
1000
0100
0000
0000
0010
0000
,
0001
0000
0001
0100
0000
0000
0010
0000
1000
0000
1000
0100
0000
0000
0010
0000
,
0001
0000
0001
1000
0000
0000
0100
0000
1000
0000
1000
0001
0000
0000
0100
0000
,
0001
0000
1000
0100
0000
0000
0100
0000
0010
0000
0100
0000
0010
0000
0100
0000
,
1100
0000
1000
0010
0000
0000
0100
0000
0001
0000
0001
0010
0000
0000
0100
0000
,
1000
0000
1000
0010
0000
0000
0100
0000
0001
0000
0001
0010
0000
0000
0100
0000
,
1000
0000
1000
0001
0000
0000
0010
0000
0001
0000
0001
1000
0000
0000
0010
0000
,
1000
0000
0001
0010
0000
0000
0010
0000
0100
0000
0000
0000
1001
0000
0000
0000
,
0001
0000
0000
0100
0000
0000
0010
0000
1000
0000
1001
0000
0000
0000
1000
0000
,
0010
0000
0000
0010
0000
0000
0010
0000
0000
0000
0000
0000
0011
0000
0000
0000
,
1010
0000
0000
0100
0000
0000
0011
0000
0000
0000
1100
0000
0000
0000
1000
0000
,
0001
0000
0000
0001
0000
0000
0001
0000
1000
0000
0010
0000
1010
0000
0000
0000
;

//---------------dance-single - NEMESetup----------------
#NOTES:
     dance-single:
     NEMESetup:
     Medium:
     6:
     0.308,0.340,0.124,0.059,0.000:
0000
0000
0000
0000
,
0001
0001
1000
1000
,
0001
0001
1000
1000
,
0001
0001
1000
1000
,
0001
0001
2000
3000
,
0010
0100
0010
0100
,
0010
0100
0010
0100
,
0001
1000
0001
1000
,
0001
1000
0002
0003
,
1000
1100
0001
0101
,
1000
1100
0001
0101
,
1000
1010
0001
0011
,
1000
1010
0001
0011
,
0100
0000
0001
0000
1000
0000
0010
0010
,
0000
0000
1000
0000
0100
0000
0010
0010
,
0000
0000
0001
0000
1000
0000
0001
0001
,
0000
0000
1000
0000
0100
0000
0001
0100
,
0000
0000
1000
0000
0001
0000
0010
0010
,
0000
0000
0100
0000
1000
0000
0010
0010
,
0000
0000
0100
0000
0001
0000
1000
1000
,
0000
0000
0001
0000
0100
0000
1000
0100
,
0000
0000
0001
0000
1000
0000
0010
0010
,
0000
0000
0100
0000
0001
0000
0010
0010
,
0000
0000
0100
0000
1000
0000
0001
0001
,
0000
0000
0100
0000
0001
0000
0010
1000
,
0000
0000
0010
0000
0100
0000
1000
1000
,
0000
0000
0001
0000
0100
0000
0001
0001
,
0000
0000
1000
0000
0100
0000
0010
0010
,
0000
0000
0001
0000
0100
0000
1000
0100
,
0020
0000
0000
0000
0000
0000
0100
0030
,
1000
0000
0100
0010
0001
0000
1000
0000
,
0002
0000
0000
0003
,
0100
0000
0010
1000
1000
0000
0100
0000
,
2000
0000
0000
3001
,
1000
0000
0001
0100
0010
0000
1000
0000
,
0200
0000
0000
0310
,
0010
0000
0001
1000
0001
0000
0001
0200
,
0000
0000
0000
0000
,
0000
0000
0300
0110
,
1001
0000
0000
0001
1000
0000
0000
1000
,
0001
0000
0000
0001
1000
0000
0000
1000
,
0001
0000
0000
0001
1000
0000
0000
1000
,
0010
0100
0010
0100
,
0001
0000
0000
0001
1000
0000
0000
1000
,
0001
0000
0000
0001
1000
0000
0000
1000
,
0001
0000
0000
0001
1000
0000
0000
0010
,
0100
0100
0010
0110
,
0001
0000
0100
0000
0001
0000
0001
0001
,
0000
0000
1000
0000
0100
0000
1000
1000
,
0000
0000
0010
0000
0100
0000
0010
0010
,
0100
0000
0001
1000
0100
0000
1100
0000
,
1000
0000
0100
0000
1000
0000
0001
0001
,
0000
0000
1000
0000
0010
0000
0100
0100
,
0000
0000
0001
0000
1000
0000
0010
0010
,
0100
0000
0001
0100
0001
0000
0101
0000
,
1000
0000
0100
0000
0010
0000
0001
1000
,
0001
0100
0010
1001
,
0010
0000
0100
0000
1000
0000
0100
1000
,
0010
0100
0001
1100
,
0200
0001
0000
1000
,
0000
0000
0001
0000
0000
0000
1000
0300
,
0020
1000
0000
0001
,
0000
1000
0000
0130
,
0110
0001
0000
0001
0010
0100
0000
1000
,
0010
0100
0000
0001
1000
0100
0000
0010
,
0001
1000
0000
0100
0001
0100
0000
0100
,
1000
0010
0000
0100
0010
0100
0010
0100
,
0001
0100
0000
1000
0100
0001
0000
0010
,
0100
1000
0000
0001
0010
1000
0000
0010
,
0100
1000
0000
0001
0100
1000
0000
1000
,
0100
0001
1000
0010
0100
0000
0011
0000
,
1000
0000
0001
1000
0100
0000
0000
0010
,
0001
0001
1000
1001
,
0001
0000
1000
0001
0100
0000
0000
0001
,
0010
0000
0010
0000
0010
0100
1001
0000
;

//---------------dance-single - NEMESetup----------------
#NOTES:
     dance-single:
     NEMESetup:
     Easy:
     4:
     0.250,0.316,0.111,0.085,0.000:
0000
0000
0000
0000
,
0001
0000
0001
0000
,
1000
0000
1000
0000
,
0001
0000
0001
0000
,
1000
0000
1000
0000
,
0100
0100
0100
0100
,
0010
0010
0010
0010
,
0100
0100
0100
0100
,
0010
0010
0010
0010
,
0000
0011
0000
1000
,
0000
0001
0000
0100
,
0000
1010
0000
0100
,
0000
1000
0000
0001
,
0100
0001
0100
0000
,
0001
1000
0001
0000
,
0010
0100
0010
0000
,
0100
1000
0100
0000
,
1000
0010
0100
0000
,
0001
0010
0100
0000
,
1000
0100
0001
0000
,
0100
1000
0001
0000
,
0010
0001
0100
0000
,
0001
0100
1000
0000
,
0100
0010
1000
0000
,
0100
0010
0001
0000
,
1000
0010
0100
0000
,
0001
0010
0100
0000
,
1000
0010
0001
0000
,
1000
0100
0001
0000
,
2000
0100
0000
0100
,
3100
0100
0010
0001
,
0002
0100
0000
0100
,
0103
0010
1000
0010
,
0200
0010
0000
0010
,
0310
1000
0001
0100
,
0020
0100
0000
0100
,
0130
0001
0010
0000
,
0200
0000
0000
0000
,
0000
0000
0300
0110
,
1000
0010
1000
0010
,
0100
0001
0100
0001
,
0010
0001
0010
0001
,
1000
0100
2000
3100
,
1000
0001
1000
0001
,
0010
0100
0010
0100
,
1000
0010
0100
0001
,
0001
0010
0200
1300
,
1000
0010
0100
0001
,
0010
0100
1000
0010
,
0100
0001
1000
0001
,
0200
0301
0002
1003
,
1000
0010
0100
0001
,
1000
0100
0001
0100
,
1000
0010
0100
0001
,
2000
3010
0200
0301
,
0001
0001
0100
0000
,
0010
0010
0010
0000
,
1000
1000
0100
0000
,
0010
0010
0010
0000
,
2000
0100
0000
0100
,
0000
0001
0000
0010
,
0000
3002
0000
0010
,
0000
0100
0000
1003
,
0010
1001
0100
1001
,
0010
1001
0100
1001
,
0010
1001
0100
1001
,
1000
0100
0010
0001
,
1000
0110
0001
0110
,
1000
0110
0001
0110
,
1000
0110
0001
0110
,
1000
0010
0100
0101
,
0001
0001
0100
0000
,
1000
1000
1000
0000
,
0010
0010
0100
0000
,
0001
0001
0001
0110
;

//---------------dance-single - NEMESetup----------------
#NOTES:
     dance-single:
     NEMESetup:
     Beginner:
     1:
     0.124,0.170,0.091,0.033,0.000:
0000
0000
0000
0000
,
0010
0000
0000
0000
,
0010
0000
0000
0000
,
0010
0000
0000
0000
,
0010
0000
0000
0000
,
1000
0000
0000
0000
,
0001
0000
0000
0000
,
1000
0000
0000
0000
,
0001
0000
0000
0000
,
0000
0110
0000
1000
,
0000
1000
0000
0000
,
0000
0110
0000
0001
,
0000
0001
0000
0000
,
1001
0000
0001
0000
,
1000
0000
0000
0000
,
1000
0000
0001
0000
,
1000
0000
0000
0000
,
0010
0000
0100
0000
,
0010
0000
0000
0000
,
0010
0000
0100
0000
,
0010
0000
0000
0000
,
0100
0000
0000
0100
,
0000
0000
0000
1001
,
0000
0000
0000
0010
,
0000
0000
0000
1001
,
0000
0000
0000
0001
,
0000
0000
0000
0110
,
0000
0000
0000
1000
,
0000
0000
0000
0110
,
0000
0010
0000
0010
,
0000
0010
0000
0000
,
0000
0100
0000
0100
,
0000
0100
0000
0000
,
0000
1000
0000
1000
,
0000
1000
0000
0000
,
0000
0001
0000
0001
,
0000
0001
0000
0000
,
0000
0000
0000
0000
,
0000
0000
0000
0010
,
0010
0000
1000
0000
,
0010
0000
1000
0000
,
0001
0000
0100
0000
,
0002
0000
0003
0000
,
1000
0000
0100
0000
,
1000
0000
0100
0000
,
0010
0000
0001
0000
,
0020
0030
0010
0000
,
0010
0000
0000
0110
,
0000
0001
0000
1001
,
0000
0000
0000
0110
,
0000
1000
0000
1001
,
0000
0010
0000
0001
,
0000
0010
0000
1000
,
0000
0010
0000
0000
,
0200
0300
0100
0000
,
0001
0000
0100
0000
,
0010
0010
0000
0000
,
1000
0000
0100
0000
,
0010
0010
0000
0000
,
0002
0000
0000
0000
,
0000
0000
0003
0000
,
2000
0000
0000
0000
,
0000
0000
3000
0000
,
1001
0000
0001
0000
,
1000
1000
1000
0000
,
0001
0000
1000
0000
,
0001
0001
0001
0000
,
0110
0000
0100
0000
,
0010
0010
0010
0000
,
0100
0000
0010
0000
,
0100
0100
0100
0000
,
0001
0000
0000
0100
,
0100
0000
0000
0010
,
0000
0000
0000
1001
,
0000
0000
0100
0100
;

//---------------dance-single - NEMESetup----------------
#NOTES:
     dance-single:
     NEMESetup:
     Challenge:
     9:
     0.573,0.559,0.416,0.247,0.377: // measure 1
0000
0000
0000
0000
,  // measure 2
0001
0000
0000
1000
0000
0000
0001
0000
0100
0000
0110
0000
0000
0000
0010
0000
,  // measure 3
1000
0000
0000
1000
0000
0000
1000
0000
0001
0000
0000
0000
1001
0000
0000
0000
,  // measure 4
1000
0000
0000
0001
0000
0000
1000
0000
0100
0000
0110
0000
0000
0000
0010
0000
,  // measure 5
0001
0000
0000
0001
0000
0000
0001
0000
1000
0000
0000
0000
1001
0000
0000
0000
,  // measure 6
0100
0001
0100
1000
0100
0101
0100
0010
,  // measure 7
1000
0010
0001
0010
1000
0010
0110
0100
,  // measure 8
0010
1000
0010
0001
0010
1010
0010
0100
,  // measure 9
0001
0100
1000
0100
0001
0100
0110
0100
,  // measure 10
0001
0000
0000
1000
0010
0000
1000
0000
0100
0000
0101
0000
0000
0100
0010
0000
,  // measure 11
0001
0000
0000
0100
1000
0000
0100
0000
0010
0000
0000
0000
0101
0000
0000
0000
,  // measure 12
1000
0000
0000
0100
0010
0000
0001
1000
0020
0000
0100
0030
0101
0000
1000
0000
,  // measure 13
0001
0000
0000
1000
0100
0000
0001
0000
0100
0000
0000
0000
1100
0000
0000
0000
,  // measure 14
0101
0000
0000
1001
0000
0000
0010
0000
0100
0000
1100
0000
0000
0000
0010
0000
,  // measure 15
2000
0000
0000
0002
0000
0000
0010
0000
0100
0000
0000
0000
3113
0000
0000
0000
,  // measure 16
1001
0000
0000
0101
0000
0000
0010
0000
0001
0000
0011
0000
0000
0000
1000
0000
,  // measure 17
0002
0000
0000
0200
0000
0000
0010
0000
1000
0000
0000
0000
1313
0000
0000
0000
,  // measure 18
0101
0000
0000
1010
0000
0000
1000
0000
0001
0000
1001
0000
0000
0000
0001
0000
,  // measure 19
0020
0000
0000
0200
0000
0000
0001
0000
1000
0000
0000
0000
1331
0000
0000
0000
,  // measure 20
0011
0000
0000
1100
0000
0000
0010
0000
0100
0000
0110
0000
0000
0000
0001
0000
,  // measure 21
2000
0000
0000
0002
0000
0000
0010
0000
0100
0000
0000
0000
3113
0000
0000
0000
,  // measure 22
1000
0000
0020
0000
0000
0030
0100
0000
0001
1000
0000
1000
0001
0000
0001
0000
,  // measure 23
0010
0000
0200
0000
0000
0300
1000
0000
0010
0100
0000
0100
0010
0000
1000
0000
,  // measure 24
0001
0000
2000
0000
0000
3000
0100
0000
0010
0001
0000
0001
0010
0000
1000
0000
,  // measure 25
0010
0000
0200
0000
0000
0300
1000
0000
1000
0010
0000
0100
0010
0000
0100
0000
,  // measure 26
0001
0000
0200
0000
0000
0300
1000
0000
0100
0010
0000
1000
0001
0000
0100
0000
,  // measure 27
0010
0000
2000
0000
0000
3000
0001
0000
0010
0100
0000
1000
0001
0000
0100
0000
,  // measure 28
1000
0000
0002
0000
0000
0003
0010
0000
0100
0001
0000
1000
0001
0000
0010
0000
,  // measure 29
1000
0000
0002
0000
0000
0003
0100
0000
1000
0010
0000
0100
0001
0000
1000
0000
,  // measure 30
2020
0000
0000
0000
0000
0101
3030
0000
,  // measure 31
0001
0000
0100
0000
0000
0000
0001
0000
1000
0010
0000
0100
0010
0100
0010
0100
,  // measure 32
0002
0000
0000
0000
0000
1010
0003
0000
,  // measure 33
1000
0000
0100
0000
0000
0000
1000
0000
0001
0010
0000
0100
0010
0100
0010
0100
,  // measure 34
2000
0000
0000
0000
0000
0011
3000
0000
,  // measure 35
0010
0000
0100
0000
0000
0000
0001
0000
1000
0010
0000
0100
0001
0100
0010
0100
,  // measure 36
0002
0000
0000
0000
0000
0110
0003
0000
,  // measure 37
0100
0000
0010
0000
0000
0000
1000
0000
0001
0100
0000
0010
1000
0000
0200
0000
,  // measure 38
0000
1000
0000
1000
1000
0000
0001
0001
,  // measure 39
0000
0000
0010
0000
0000
0000
0010
0000
0020
0000
0000
0000
1001
0330
0000
0000
,  // measure 40
1001
0000
0010
1000
0000
0000
0100
0000
0010
0000
0001
0100
0000
0000
0001
0000
,  // measure 41
1000
0000
0100
0010
0000
0000
0001
0000
1000
0000
0010
1000
0000
0000
0100
0000
,  // measure 42
0001
0000
0100
1000
0000
0000
0001
0000
1000
0000
0010
0001
0000
0000
0010
0000
,  // measure 43
1000
0100
1000
0200
0000
0300
0100
0000
1000
0000
0010
0100
0000
0000
0100
0000
,  // measure 44
0001
0000
1000
0010
0000
0000
0100
0000
0001
0000
1000
0001
0000
0000
0010
0000
,  // measure 45
0100
0000
0010
0001
0000
0000
1000
0000
0001
0000
0100
1000
0000
0000
0100
0000
,  // measure 46
0010
0000
1000
0001
0000
0000
0100
0000
1000
0000
0001
0010
0000
0000
0100
0000
,  // measure 47
0001
0100
0001
0200
0000
0300
0100
0000
0010
0000
0000
0000
1001
0000
0000
0000
,  // measure 48
0100
0000
0001
0000
0000
0000
0001
0000
1000
0001
0000
1000
0010
1000
0001
1000
,  // measure 49
0100
0000
0010
0000
0000
0000
0010
0000
0001
0010
0000
0100
0001
0100
0010
0100
,  // measure 50
1000
0000
0100
0000
0000
0000
0100
0000
0001
0100
0000
1000
0010
1000
0001
1000
,  // measure 51
0100
0000
1000
0000
0000
0000
1000
0000
0010
0100
0000
0001
1000
0000
0100
0000
,  // measure 52
0100
0000
1000
0000
0000
0000
1000
0000
0001
1000
0000
0001
0100
0001
1000
0001
,  // measure 53
0010
0000
0100
0000
0000
0000
0100
0000
1000
0100
0000
0010
1000
0010
0100
0010
,  // measure 54
0001
0000
0010
0000
0000
0000
0010
0000
1000
0010
0000
0001
0100
0001
1000
0001
,  // measure 55
0010
0001
0000
0002
0200
0000
1313
0000
,  // measure 56
0010
0100
0110
0010
1000
0001
1001
0010
,  // measure 57
1000
0000
0000
0001
1000
0000
0100
0000
0200
0000
0000
0000
0311
0000
0000
0000
,  // measure 58
0010
0000
0000
0010
0000
0000
0010
0000
0100
0000
1100
0000
0000
0000
1000
0000
,  // measure 59
0001
0000
0000
0001
0000
0000
0001
0000
0200
0000
0000
0000
1310
0000
0000
0000
,  // measure 60
0002
0100
0000
1000
1000
1000
0000
0100
,  // measure 61
2003
0010
0001
0110
,  // measure 62
3002
0000
0000
0100
0000
0000
1000
0000
0200
0000
0010
0300
0000
0000
1000
0000
,  // measure 63
2003
0010
0100
3011
,  // measure 64
1010
0000
1000
0001
0000
0000
0100
0000
0110
0000
0100
0001
0000
0000
1000
0000
,  // measure 65
1100
0000
1000
0010
0000
0000
0100
0000
0101
0000
0001
1000
0000
0000
0010
0000
,  // measure 66
0110
0000
0010
1000
0000
0000
0001
0000
0101
0000
0100
0010
0000
0000
1000
0000
,  // measure 67
0001
0100
0010
2000
0000
3000
0001
0000
0010
0000
0010
0001
1000
0000
0001
0000
,  // measure 68
0101
0000
0001
1000
0000
0000
0010
0000
0110
0000
0010
1000
0000
0000
0001
0000
,  // measure 69
0011
0000
0001
0100
0000
0000
0010
0000
1010
0000
1000
0001
0000
0000
0100
0000
,  // measure 70
0110
0000
0100
0001
0000
0000
1000
0000
1010
0000
0010
0100
0000
0000
0001
0000
,  // measure 71
1000
0010
0100
0002
0000
0003
1000
0000
1000
0000
0000
0000
0110
0000
0000
0000
,  // measure 72
1000
0000
0000
1000
0001
0000
1000
0000
0100
0000
0110
0000
0000
0000
0001
0000
,  // measure 73
0001
0000
0000
0100
0000
0000
0002
0000
0000
0000
0000
0000
1013
0000
0000
0000
,  // measure 74
0110
0000
0000
0101
0000
0000
1100
0000
0000
0000
1001
0000
0000
0000
0010
0000
,  // measure 75
1000
0000
0000
1000
0000
0000
1000
0000
0100
0000
0010
0000
0110
0000
0000
0000
;
