#TITLE:合体せよ!ストロングイェーガー!!;
#SUBTITLE:-FATAL ATTACK-;
#ARTIST:L.E.D.-G;
#TITLETRANSLIT:THE STRONG JAEGER;
#SUBTITLETRANSLIT:;
#ARTISTTRANSLIT:;
#CREDIT:;
#BANNER:THE STRONG JAEGER -FATAL ATTACK-bn.png;
#BACKGROUND:THE STRONG JAEGER -FATAL ATTACK-bg.png;
#LYRICSPATH:;
#CDTITLE:NEMESetupLOGO.PNG;
#MUSIC:1-03 FATAL ATTACK.mp3;
#OFFSET:-3.299;
#SAMPLESTART:13.480;
#SAMPLELENGTH:12.000;
#SELECTABLE:YES;
#DISPLAYBPM:165.000;
#BPMS:0.000=165.000;
#STOPS:;
#BGCHANGES:;

//---------------dance-single - ----------------
#NOTES:
     dance-single:
     :
     Easy:
     4:
     0.336,0.446,0.244,0.197,0.000: // measure 1
1001
0000
0010
0000
,  // measure 2
1000
0000
0001
0000
,  // measure 3
0100
0000
0010
0000
,  // measure 4
0100
0000
0001
0001
,  // measure 5
1001
0000
0010
0000
,  // measure 6
1000
0000
0100
0000
,  // measure 7
0010
0000
0001
0000
,  // measure 8
0220
0000
0000
0000
0000
0000
0000
0330
,  // measure 9
1001
0000
0100
0000
,  // measure 10
1000
1000
1000
0100
,  // measure 11
1000
0000
0010
0000
,  // measure 12
0001
0001
0001
0100
,  // measure 13
0110
0000
0001
0000
,  // measure 14
0010
0010
0010
0100
,  // measure 15
1000
0000
0001
0000
,  // measure 16
0200
0000
0010
0310
,  // measure 17
1001
0000
0001
1000
,  // measure 18
0010
0000
0001
0000
,  // measure 19
0100
0000
0010
1000
,  // measure 20
0100
0000
0010
0001
,  // measure 21
1001
0000
0010
0000
,  // measure 22
1000
0000
0100
0000
,  // measure 23
0010
0000
0001
1000
,  // measure 24
0000
0101
0000
0000
1001
0000
0000
1000
,  // measure 25
1000
0100
1000
0010
,  // measure 26
0100
0000
0001
0020
0000
0030
0001
0000
,  // measure 27
0010
0100
1000
0001
,  // measure 28
0100
0000
0010
2000
0000
3000
0100
0000
,  // measure 29
0010
0001
1000
0010
,  // measure 30
0100
0000
0001
0200
0000
0300
0010
0000
,  // measure 31
0100
0001
1000
0010
,  // measure 32
1000
1000
0100
0010
,  // measure 33
1001
0010
1000
0001
,  // measure 34
1001
0010
1000
0001
,  // measure 35
0101
0100
0010
0100
,  // measure 36
0101
0100
0010
0100
,  // measure 37
0000
2002
0000
0000
0000
0000
0000
3003
,  // measure 38
0001
0001
0001
0001
,  // measure 39
1000
0010
0100
0001
,  // measure 40
0010
0100
1000
0010
,  // measure 41
2002
0000
0000
0000
,  // measure 42
0000
0000
0000
0000
,  // measure 43
3003
0000
0000
0000
,  // measure 44
0000
0000
0000
0000
,  // measure 45
2001
0000
0000
0000
,  // measure 46
3200
0000
0000
0000
,  // measure 47
0302
0000
0000
0000
,  // measure 48
2003
0000
0000
0000
0000
0000
3000
0001
,  // measure 49
1000
1000
1000
0010
,  // measure 50
0100
0100
0100
0001
,  // measure 51
0010
0010
0010
0100
,  // measure 52
0001
0001
0001
0100
,  // measure 53
1000
0010
1000
0010
,  // measure 54
0100
0001
0100
0001
,  // measure 55
0020
0000
0230
0000
,  // measure 56
2300
0000
0000
3000
,  // measure 57
1001
0001
1000
1000
,  // measure 58
0001
0001
1000
1000
,  // measure 59
0010
0010
0100
0100
,  // measure 60
0010
0010
0100
0100
,  // measure 61
2002
0000
0000
0000
,  // measure 62
0000
0000
0000
3003
,  // measure 63
0220
0330
2002
3003
,  // measure 64
0001
0000
1000
0000
0001
1000
0001
0000
,  // measure 65
0100
0010
0100
0001
,  // measure 66
1000
0010
0001
1000
,  // measure 67
0100
0001
0010
1000
,  // measure 68
0001
0100
1000
0010
,  // measure 69
0110
0001
1000
0010
,  // measure 70
0100
0001
0010
1000
,  // measure 71
0001
0100
0010
0100
,  // measure 72
0010
1000
1001
0101
,  // measure 73
1001
0010
1000
0100
,  // measure 74
0010
0001
1000
0010
,  // measure 75
0100
1000
0100
0001
,  // measure 76
0010
1000
1010
0100
,  // measure 77
1001
0100
0001
0010
,  // measure 78
1000
0010
0001
0100
,  // measure 79
0110
0100
0001
1000
,  // measure 80
0011
0100
1001
1001
,  // measure 81
2002
0000
0000
0000
,  // measure 82
3003
0000
0000
0000
;

//---------------dance-single - ----------------
#NOTES:
     dance-single:
     :
     Medium:
     7:
     0.478,0.574,0.228,0.126,0.071:
1001
1000
0010
0100
,
0001
0010
1000
0100
,
0010
0001
1000
0010
,
0110
0001
1000
0001
,
0101
0010
1000
0100
,
0010
0001
0100
0010
,
0010
1000
0100
0010
,
1002
1000
0000
0100
0200
0000
0303
0001
,
0100
0010
1000
0100
,
0010
0000
0011
0000
0001
0010
0100
1000
,
0010
1000
0100
0010
,
0001
0000
0110
0000
1000
0100
0010
1000
,
0001
0100
0010
1000
,
0001
0000
0110
0000
0001
0100
1000
0100
,
0010
1000
0100
0010
,
0001
0000
1000
0000
0010
0000
0010
0010
,
0100
0000
0001
0000
0010
0100
0010
0000
,
0001
0000
1000
0000
0010
1000
0100
0000
,
0010
0000
0001
0000
0100
0001
0100
0000
,
0010
0000
1000
0000
0001
0100
1000
0000
,
0110
0000
0001
0000
0010
1000
0010
0000
,
0001
0000
1000
0000
0001
0100
0010
0000
,
0100
0000
0001
0000
1000
0010
0100
0000
,
0000
0000
0001
0000
0000
1000
0000
0000
0001
0000
0000
1000
0000
0000
0001
0000
,
1000
0000
0010
0000
0100
0001
0010
0100
,
1000
0000
0010
2000
0000
3100
1000
0000
,
0010
0000
0100
0000
0001
0000
0010
0100
,
1000
0000
0001
0200
0000
0301
0100
0010
,
0100
0001
1000
0100
,
0010
0000
0001
0020
0000
0130
1000
0010
,
0100
0000
1000
0000
0100
0000
0010
1000
,
0100
0000
0010
0000
0001
1000
0010
0100
,
0001
0000
0000
0100
0000
0000
0001
0000
0000
0000
0100
0000
0010
0000
0000
0000
,
1000
0000
0000
0100
0000
0000
0010
0000
0000
0000
0001
0000
0010
0000
0000
0000
,
0100
0000
0000
1000
0000
0000
0010
0000
0000
0000
1000
0000
0100
0000
0000
0000
,
0010
0000
0000
0100
0000
0000
0010
0000
0000
0000
0001
0000
0100
0000
0000
0000
,
0000
0000
1001
0000
0000
1001
0000
0000
1001
0000
0000
1001
0000
0000
1001
0000
,
1000
0000
0000
0100
0000
0000
0010
0000
0000
0001
0000
0000
0010
0000
0001
0000
,
0010
0110
0100
0011
,
1010
0101
0110
0101
,
2002
0000
0000
0000
,
0000
0000
0000
0003
,
0020
0000
0000
3000
,
0230
0000
0000
0000
0000
0000
0000
0300
,
0001
0010
0001
0010
,
0100
1000
0100
1000
,
0020
0000
0230
0000
,
0302
0000
0000
0010
0010
0000
0003
1000
,
0110
0000
1000
0000
0100
0000
0010
0001
,
0010
0000
0100
0000
1000
0000
0001
1000
,
1000
0000
0010
0000
0100
0000
1000
0100
,
0100
0000
0010
0000
1000
0000
0100
0010
,
0010
0000
0001
0000
1000
0000
0001
0001
,
0001
0000
0100
0000
0010
0000
0100
0100
,
0100
0010
1001
0100
,
0011
1010
0101
0110
,
0001
0000
0100
0000
0000
0010
0000
0000
0100
0000
0000
0001
0000
0000
0100
0000
,
0010
0000
1000
0000
0000
0100
0000
0000
0010
0000
0000
0100
0000
0000
1000
0000
,
1000
0000
0010
0000
0000
0100
0000
0000
0010
0000
0000
0100
0000
0000
0001
0000
,
0001
0000
0010
0000
0000
0001
0000
0000
0010
0000
0000
0001
0000
0000
1000
0000
,
2000
0000
0000
0000
0000
0000
0000
0100
,
0200
0000
0000
0000
0000
0000
0000
0000
0000
0000
0000
0000
0000
3300
0000
0000
,
0100
1000
0100
1000
0010
0100
0010
0100
,
0001
0100
0001
0100
0001
0010
0100
0010
,
0110
0000
0001
0000
0010
0100
1000
0000
,
0001
0000
0100
0010
0000
0100
0001
0010
,
0100
0000
1000
0000
0001
1000
0010
0000
,
0100
0000
1000
0000
0100
0000
0010
1000
,
0100
0000
0010
0000
0001
0010
1000
0000
,
0010
0000
0100
0000
1000
0010
0100
0001
,
0010
0000
0001
0000
1000
0000
0010
1000
,
0001
0000
0100
0000
1000
0100
0010
0100
,
0010
0000
0100
0000
0001
0000
0010
0100
,
0010
0000
0001
0000
1000
0000
0001
0100
,
1000
0000
0100
0000
0001
0000
0010
1000
,
0001
0000
0100
0000
1000
0000
0010
0010
,
1001
0000
0010
0000
1000
0100
0010
0000
,
0001
0000
1000
0000
0010
0100
1000
0000
,
0100
0001
0010
0000
0100
1000
0010
0000
,
1000
0001
1000
0010
1000
0001
0100
0010
,
0202
0000
0000
0000
,
0303
0000
0000
0000
;

//---------------dance-single - ----------------
#NOTES:
     dance-single:
     :
     Hard:
     9:
     0.628,0.669,0.212,0.063,0.228:
0011
0100
1000
0000
0010
1000
0100
0000
,
0010
0001
0100
0000
1000
0100
0010
0000
,
1000
0001
0100
0000
0010
0100
0001
0000
,
0010
0100
1000
0000
0001
0000
1000
0001
,
1001
0010
1000
0000
0100
0010
0001
0000
,
0010
0100
1000
0000
0001
0100
0010
0000
,
0100
1000
0100
0000
0001
0010
0100
1000
,
2001
0000
0000
0001
0002
0000
3003
0001
,
1000
0000
0000
0001
0000
0000
1000
0000
0010
0000
1000
0000
0100
0000
0010
0000
,
0001
0000
0000
0001
0000
0000
0001
0000
0010
0000
0001
0000
0010
0000
0001
0000
,
0010
0000
0000
0010
0000
0000
0100
0000
1000
0000
0010
0000
0100
0000
1000
0000
,
0100
0000
0000
0100
0000
0000
0100
0000
0010
0000
0100
0000
1000
0000
0100
0000
,
0010
0000
0000
0010
0000
0000
1000
0000
0100
0000
0010
0000
0001
0000
0010
0000
,
0100
0000
0000
0100
0000
0000
1000
0000
1000
0000
0010
0000
1000
0000
0100
0000
,
0011
0000
0000
0100
0000
0000
1000
0000
0010
0000
1000
0000
0100
0000
0010
0000
,
0001
0000
0000
0001
0000
0000
0100
0000
1000
0000
0100
0000
0010
0000
0100
0000
,
0010
0000
0100
0000
0001
0010
0100
1000
,
0001
0000
1000
0010
1000
0100
0010
0001
,
0100
0010
0100
0000
1000
0100
0010
0000
,
1000
0001
1000
0100
0010
0001
0010
0100
,
1000
0000
0010
1000
0100
0010
0001
0100
,
0010
0000
0100
0001
0010
0100
1000
0001
,
1000
0000
0010
1000
0100
0010
0001
1000
,
0000
0000
1010
0000
0000
0101
0000
0000
0011
0000
0000
1100
0000
0000
0010
0000
,
0100
0000
0000
0001
0000
0000
1000
0000
0000
0000
0010
0000
1000
0000
0100
0000
,
0100
0000
0000
0010
0000
0000
0011
0000
0000
0000
0100
0000
1000
0000
0010
0000
,
0100
0000
0000
0100
0000
0000
1000
0000
0000
0000
0100
0000
0010
0000
1000
0000
,
0100
0000
0000
0010
0000
0000
0001
0000
0000
1000
0001
0000
1000
0000
0010
0000
,
0100
0000
0000
0001
0000
0000
0010
0000
0000
0000
0001
0000
0001
0000
0010
0000
,
1000
0000
0000
0010
0000
0000
0110
0000
0000
0000
0010
0000
0100
0000
1000
0000
,
0010
0000
0000
1000
0000
0000
0100
0000
0000
0000
0010
0000
0001
0000
0100
0000
,
1000
0000
0000
0100
0000
0000
0010
0000
1000
0000
1000
0000
0010
0000
1000
0000
,
0100
0000
0000
1000
0000
0000
0010
0000
0000
0100
0000
0000
0001
0000
0010
0000
,
0100
0000
0000
0010
0000
0000
0100
0000
0000
0010
0000
0000
0001
0000
1000
0000
,
0010
0000
0000
1000
0000
0000
0100
0000
0000
0010
0000
0000
0001
0000
0100
0000
,
1000
0000
0000
0100
0000
0000
0001
0000
0000
0010
0000
0000
0100
0000
1000
0000
,
0000
0000
0011
0000
0000
1001
0000
0000
0011
0000
0000
1010
0000
0000
1001
0000
,
0100
0000
0000
1000
0000
0000
0010
0000
0000
1000
0000
0000
0100
0000
0100
0000
,
0010
0001
0010
0100
1000
0010
1000
0100
,
0010
0100
0010
0001
0010
0100
0010
1000
,
0210
0000
0000
0000
,
0000
0000
0000
0000
0000
0000
0000
1000
,
2300
0000
0000
0000
0000
0000
0000
0000
0000
0000
0000
0000
0000
0000
0010
3000
,
0020
0000
0000
0000
0000
0000
0000
0000
0000
0000
0000
0000
0000
0030
0100
0000
,
0100
0000
0010
0000
0100
0000
0000
0000
0001
0000
0000
0100
0000
0000
0010
0000
,
0100
0000
1000
0000
0000
0100
0000
0000
0010
0000
0000
1000
0000
0000
0100
0000
,
0100
0000
0010
0000
0000
0001
0000
0000
0010
0000
0000
0100
0000
0000
1000
0000
,
1000
0010
0000
0010
1000
0010
0000
1000
,
0001
1000
0010
0000
1000
0001
0100
0010
,
0100
0001
0010
0000
0001
0010
0100
0010
,
0001
0010
0100
0000
1000
0010
1000
0100
,
0010
0100
0010
0000
0001
1000
0010
1000
,
0001
0100
1000
0000
1000
0100
0010
1000
,
0100
0010
0001
0000
0001
0010
1000
0010
,
0100
1000
0001
0000
1000
0010
0100
0000
,
0001
0100
1000
0100
0010
1000
0100
0010
,
0001
0000
0010
0000
0000
0001
0000
0000
0010
0001
0000
0010
0001
0000
0010
0000
,
0100
0000
1000
0000
0010
0000
1000
0000
0010
1000
0000
1000
0100
0000
0100
0000
,
0010
0000
0001
0000
0010
0000
0001
0000
1000
0001
0000
0001
1000
0000
0010
0000
,
1000
0000
0100
0000
0010
0000
0000
0000
0001
1000
0000
0010
0100
0000
0001
0000
,
0200
0000
0010
0000
0000
0010
0000
0000
0010
0000
0000
0010
0000
0000
0001
0000
,
0001
0000
0001
0000
0000
0001
0000
0000
0001
0000
0000
0001
0000
0000
0001
0300
,
0001
1000
0001
1000
0010
0100
0010
0100
,
0001
0010
0100
1000
0010
0100
0001
0010
,
1100
0000
0000
0010
1000
0000
0100
0000
0010
0000
0001
0000
0100
0000
0010
0000
,
0100
0000
0000
1000
0000
0000
0100
0000
0001
0000
0010
0000
0100
0000
1000
0000
,
0001
0100
0100
0010
0100
0010
1000
0001
,
0010
0100
1000
1000
0001
1000
0100
0010
,
0101
0000
0000
0010
0000
0000
0010
0000
0100
0000
1000
0000
0100
0000
0001
0000
,
0011
0000
0000
0100
0000
0000
1000
0000
0010
0000
0100
0000
0001
0000
0100
0000
,
0010
0000
1000
0000
0000
0100
0000
0000
0001
0000
0100
0000
1000
0000
0010
0000
,
0100
0001
0100
0010
1000
0100
0010
0001
,
0011
0000
0000
0100
0000
0000
1000
0000
0010
0000
0100
0000
1000
0000
0100
0000
,
0001
0000
0000
0010
0000
0000
0001
0000
0001
0000
0010
0000
1000
0000
0010
0000
,
0100
0000
0000
0001
0000
0000
0100
0000
1000
0000
0010
0000
0100
0000
0001
0000
,
0100
0000
0000
0100
0000
0000
0010
0000
1000
0000
0010
0000
0010
0000
1000
0000
,
1010
1000
0010
1000
0100
0010
0001
0010
,
0100
0010
1000
0010
0100
1000
0010
0100
,
0110
0001
1000
0001
1001
0100
1000
0010
,
1010
0000
0101
0000
0110
0001
0010
0100
,
0022
0000
0000
0000
,
0033
0000
0000
0000
;

//---------------dance-single - ----------------
#NOTES:
     dance-single:
     :
     Beginner:
     3:
     0.184,0.287,0.126,0.071,0.000:
0110
0000
0000
0000
,
0010
0000
0000
0000
,
1000
0000
0000
0000
,
0001
0000
0000
0000
,
1001
0000
0000
0000
,
0010
0000
0000
0000
,
0100
0000
0000
0000
,
0200
0000
0000
0300
,
0100
0000
0000
0000
,
1000
0000
1000
1000
,
0000
0000
0000
0000
,
0001
0000
0010
0010
,
0000
0000
0000
0000
,
1000
0000
0100
0100
,
0000
0000
0000
0000
,
0002
0000
0000
0003
,
0001
0000
0000
0000
,
0010
0000
0000
0000
,
1000
0000
0000
0000
,
0100
0000
0000
0010
,
0010
0000
0000
0000
,
0001
0000
0000
0000
,
0100
0000
0000
0000
,
2002
0000
0000
3003
,
1001
0000
0000
0010
,
0010
0000
1000
0000
,
0100
0000
0000
0001
,
0001
0000
1000
0000
,
0110
0000
0000
0010
,
0010
0000
0001
0000
,
0010
0000
0000
1000
,
1000
0000
0100
0000
,
1001
0000
0000
0000
,
1000
0000
0000
0000
,
0010
0000
0000
0000
,
0001
0000
0000
0000
,
0220
0000
0000
0330
,
0110
0000
0110
0000
,
0001
0000
0010
0000
,
1000
1000
1000
1000
,
1000
0000
0000
0000
,
0000
0000
0000
0000
,
0000
0000
0000
0000
,
0000
0000
0000
0100
,
0100
0000
0100
0000
,
0010
0000
0010
0000
,
0001
0000
0001
0000
,
0002
0000
0000
0003
,
0001
0000
0001
0000
,
1000
0000
1000
0000
,
0100
0000
0010
0000
,
0010
0000
0001
0000
,
1001
0000
1000
0000
,
0110
0000
0010
0000
,
1001
0000
0110
0000
,
1001
0000
0110
0000
,
1000
1000
1000
1000
,
1000
1000
1000
0000
,
0001
0001
0001
0001
,
0001
0001
0001
0000
,
0200
0000
0000
0000
,
0000
0000
0300
0000
,
0010
0000
0010
0000
,
0010
0000
1000
0000
,
1001
0000
0100
0000
,
0001
0000
0010
0010
,
0010
0000
1000
0000
,
0100
0000
0001
0000
,
1000
0000
1000
0000
,
0010
0000
0100
0000
,
1000
0000
0001
0000
,
0010
0000
1000
1000
,
1000
0000
0001
0000
,
0010
0000
0100
0000
,
0001
0000
0010
0000
,
0001
0000
0010
0010
,
0010
0000
1000
0000
,
0100
0000
1000
0000
,
0001
0000
1000
0000
,
0001
0001
0001
0001
,
0002
0000
0000
0000
,
0003
0000
0000
0000
;

//---------------dance-single - NEMESetup----------------
#NOTES:
     dance-single:
     NEMESetup:
     Challenge:
     11:
     0.808,0.892,0.236,0.047,0.610:
0110
0001
1000
0100
0010
0001
0100
1000
,
0100
0010
1000
0001
0100
0001
0010
0100
,
0001
0100
0010
0001
0100
0010
1000
0001
,
0101
1000
0010
0100
0110
0000
0001
1000
,
1100
0001
1000
0100
0010
0001
0100
1000
,
0100
0010
1000
0001
0100
0001
0010
0100
,
0001
0100
0010
0001
0100
0010
1000
0001
,
0102
0000
0010
0000
0000
0000
1000
0000
1000
0000
0000
0100
0003
0000
1000
0001
,
1000
0000
0100
0010
0000
0000
0010
0100
1000
0000
0010
0000
0100
0000
1000
0000
,
0100
0000
0001
0010
0000
0001
0010
0000
0100
1000
0000
0100
1000
0000
1000
0000
,
0010
0100
1000
0000
1000
0000
0100
0000
0001
0000
1000
0000
0100
0000
0010
0000
,
0001
0010
0000
1000
0000
1000
0010
0000
0010
0100
0000
0100
0000
1000
1000
0000
,
0001
0000
0100
0001
0000
0100
0010
0000
1000
0000
0010
0000
0100
0000
1000
0000
,
0100
0001
0000
1000
0001
0000
1000
0000
0100
0010
0000
0100
0100
0000
0010
0000
,
0010
0001
0010
0100
1000
0001
0100
0010
,
0100
0000
0000
0100
0000
0000
1000
0000
0100
0000
0001
0000
1000
0000
0100
0000
,
1100
0000
0001
1000
0000
1000
0001
0000
0001
0000
0010
0000
0010
0000
0100
0000
,
0010
0000
0001
0000
1000
0000
0010
0000
0100
0000
0001
0100
0000
0001
0100
0000
,
0001
1000
0100
0010
0001
0010
0100
0001
,
0000
0000
0001
0000
0000
0100
0100
0000
1000
0000
0001
0000
0100
0000
0010
0000
,
0110
0000
1000
0100
0000
0100
1000
0000
1000
0000
0100
0000
0001
0000
1000
0000
,
0010
0000
1000
0010
0010
0000
0100
0000
0001
0000
0010
0000
1000
0000
0010
0000
,
1010
0000
1000
0010
0000
0010
0001
0000
0001
0000
0100
0000
1000
0000
0100
0010
,
0000
0000
0110
0000
0000
1010
0000
0000
0101
0000
0000
0011
0000
0000
0100
0010
,
0100
0000
0100
1000
0000
1000
0010
0000
0010
0000
0100
0000
1000
0000
0100
0000
,
0001
0000
0001
0010
0001
0010
0100
0000
0000
0000
0010
0000
0100
0000
1000
0000
,
0001
0000
1000
0010
0000
0010
0100
0000
1000
0000
0100
0000
0001
0000
0010
0000
,
0100
0000
0100
0010
0000
0010
0100
0000
0010
0000
0010
0000
0100
0000
0100
0000
,
1000
0000
1000
0001
0000
0001
1000
0000
0010
0000
0100
0000
1000
0000
0100
0000
,
0001
0000
1000
0001
1000
0001
1000
0000
0000
0000
0100
0000
0100
0000
1000
0000
,
0010
0000
1000
0010
0000
0100
0001
0000
0001
0000
0010
0000
0100
0000
0001
0000
,
0100
0000
1000
0000
0001
0000
0001
0000
0000
1000
0100
0000
1000
0000
0100
0000
,
1000
0000
0010
1000
0000
1000
0100
0000
0100
0010
0000
0010
0001
0000
0001
0000
,
1000
0000
0001
0100
0000
0100
0001
0000
0001
1000
0000
1000
0010
0000
0010
0000
,
0100
0000
1000
0100
0000
0100
0010
0000
0010
1000
0000
1000
0100
0000
0100
0000
,
0010
0000
0001
1000
1000
0000
0100
0000
0100
0010
0000
0000
0001
0010
0001
0000
,
0000
0000
0011
0000
0000
0110
0000
0000
1100
0000
0000
0101
0000
0000
0110
0000
,
0100
0010
0000
0100
1000
0000
1000
0100
0000
0100
0001
0000
0010
0000
0100
0000
,
1000
0001
0100
0000
1000
0100
0001
0000
0001
0010
0100
0000
1000
0001
0100
0000
,
1010
0001
0010
0100
0010
0001
0010
0100
,
0210
1000
0000
1000
,
0000
0000
0000
0000
1000
0000
0000
0000
0000
0000
0000
0300
1000
0000
0100
0000
,
1000
0000
0001
0000
0000
1001
0000
0000
0001
0100
0000
0100
0001
0000
0010
0000
,
0100
0000
1000
0000
0010
1000
0000
0000
0010
1000
0000
0010
1000
0000
0001
0000
,
0100
0000
0010
0000
0000
0101
0000
0000
0100
0001
0000
0100
0001
0000
0010
0000
,
0100
0000
0010
0000
0100
0010
0000
0000
0010
0100
0000
0100
1000
0000
1000
0000
,
0010
0000
0100
0000
0001
0100
0000
0000
0100
0001
0000
0001
0010
0000
0100
0000
,
0210
0000
0000
0000
0000
0000
1000
0000
1000
0000
0000
0000
0000
0300
0000
0000
,
0100
0000
1000
0000
0001
0000
0100
0000
0010
0000
0000
0010
0100
0000
0100
0000
,
0001
0000
0010
0000
0100
0000
1000
0000
0010
0000
0000
1000
0010
0000
0010
0000
,
0100
0000
1000
0000
0100
0000
0001
0000
0010
0000
0000
0001
0010
0000
0010
0000
,
0100
0000
0001
0000
0100
0000
0010
0000
0001
0000
0000
0001
0100
0000
0100
0000
,
1000
0000
0100
0000
0010
0000
1000
0000
0001
0000
0000
0001
1000
0000
1000
0000
,
0100
0000
0010
0000
0100
0000
1000
0000
0001
0000
0000
0100
1000
0000
1000
0000
,
0100
0000
0010
0000
1000
0000
0000
0100
0010
0000
0100
0000
1000
0000
0010
0000
,
0100
0000
0000
0001
0010
0000
0001
0000
0010
0001
0000
0000
1100
0000
0000
0000
,
0101
0010
0100
1000
0100
0010
0100
0001
,
0100
0000
0010
0000
0100
0000
1000
0000
0100
0000
0010
0000
0100
0000
0000
0001
,
0010
0100
0010
1000
0010
0100
0010
0001
,
0010
1000
0010
0100
0010
0001
1000
0200
,
0010
0000
0010
0000
0000
0010
0000
0000
0010
0000
0000
0010
0000
0000
1000
0000
,
1000
0000
1000
0000
0000
1000
0000
0000
1000
0000
0000
1000
0000
0000
1300
0000
,
0100
1000
0100
1000
0100
0010
0100
0010
,
0001
0010
0001
0010
0001
0010
0001
0010
0100
1000
0100
1000
0100
1000
0100
1000
,
0010
0000
1000
0010
0000
0010
0100
0000
0100
1000
0000
1000
0100
0000
0001
0000
,
0010
0000
0100
1000
0000
1000
0001
0000
0100
0001
0000
0100
1000
0000
0000
0100
,
0010
0000
1000
0000
0100
0000
0010
0000
0001
0000
0001
0000
1000
1000
0100
0000
,
0100
0010
0001
0010
0100
0001
0100
0100
,
1000
0000
0001
0100
0000
0010
0100
0000
0010
0100
0000
1000
0100
0000
0001
0000
,
0001
0000
0010
1000
0000
1000
0010
0000
0100
1000
0000
0100
0000
1000
1000
0000
,
0001
0000
0100
0000
0010
0000
0100
0000
1000
0000
1000
0100
0000
0000
0100
0000
,
0001
0000
0001
0000
0010
0000
0100
0000
1000
0001
0000
0010
0100
0000
0010
0000
,
1001
0000
0010
0100
0000
0100
1000
0000
0001
1000
0000
0001
1000
0000
0001
0000
,
0100
0000
0010
0100
0000
1000
0100
0000
0001
0000
0000
0001
0010
0000
0010
0000
,
0100
0000
0001
0100
0000
0100
1000
0000
1000
0001
0000
0001
0100
0000
0010
0000
,
1000
0010
0100
1000
0100
0001
0011
0010
,
0011
0000
0100
0000
1000
0100
1000
0000
0010
0000
0100
0000
1000
0000
0100
0000
,
0001
0010
0100
1000
0001
0010
0100
0100
,
0110
0001
1000
0100
1100
0010
0100
0001
,
0010
0100
0010
0001
0010
0100
0010
1000
0010
0100
0010
0001
0010
0100
0010
1000
,
2020
0000
0000
0000
,
3030
0000
0000
0000
;
