#TITLE:合体せよ!ストロングイェーガー!!;
#SUBTITLE:(Ryu☆ remix);
#ARTIST:L.E.D. remixed by Ryu☆;
#TITLETRANSLIT:THE STRONG JAEGER;
#SUBTITLETRANSLIT:(Ryu* remix);
#ARTISTTRANSLIT:L.E.D. remixed by Ryu*;
#CREDIT:;
#BANNER:THE STRONG JAEGER (Ryu Remix)-bn.PNG;
#BACKGROUND:THE STRONG JAEGER (Ryu Remix)-bg.PNG;
#LYRICSPATH:;
#CDTITLE:NEMESetupLOGO.png;
#MUSIC:THE STRONG JAEGER (Ryu Remix).mp3;
#OFFSET:-0.680;
#SAMPLESTART:68.780;
#SAMPLELENGTH:11.980;
#SELECTABLE:YES;
#BPMS:0.000=155.000,100.000=77.500,124.000=155.000,140.000=309.999,156.000=155.000,160.000=77.499,161.000=155.000,162.000=309.999,164.000=155.000;
#STOPS:;
#BGCHANGES:;

//---------------dance-single - NEMESetup----------------
#NOTES:
     dance-single:
     NEMESetup:
     Hard:
     8:
     0.517,0.709,0.282,0.137,0.184:
0000
0000
0000
0000
,
1001
0000
0000
1000
0000
0000
1000
0000
0000
1000
0000
0000
0001
0000
1000
0000
,
0001
0000
0000
0001
0000
0000
0001
0000
0000
0001
0000
0000
0010
0000
0100
0000
,
0010
0000
0000
0010
0000
0000
0010
0000
0000
0010
0000
0000
0100
0000
0010
0000
,
0100
0000
0000
0100
0000
0000
0100
0000
0000
0100
0000
0000
1000
0000
0001
0000
,
1001
0000
0000
0001
0000
0000
0001
0000
0000
0001
0000
0000
1000
0000
0001
0000
,
1000
0000
0000
1000
0000
0000
1000
0000
0000
1000
0000
0000
0010
0000
0100
0000
,
0010
0000
0000
0010
0000
0000
0010
0000
0000
0100
0000
0000
0010
0000
0100
0000
,
0002
2003
3200
0310
,
0001
0100
1000
0100
0001
0010
0100
1000
,
0010
0100
1000
0100
0001
0010
0100
0110
,
0100
1000
0010
0100
1000
0100
0001
0010
,
0001
0010
0100
1000
0001
0100
0001
0101
,
0100
0010
1000
0100
1000
0010
0100
0001
,
0101
0001
0010
0100
1000
0010
0100
1000
,
1000
1100
0000
0110
0000
1001
0000
0001
,
1000
0100
0010
0001
0010
0100
0010
0001
,
2000
0000
0000
0000
,
3002
0000
0000
0000
,
0203
0000
0000
0000
0000
0000
0000
0000
0000
0000
0000
0000
0000
0000
0000
0300
,
0020
1030
0000
1010
,
2002
0000
0000
0000
,
0000
0000
0000
0000
,
0000
0000
0000
0000
,
0000
0000
0000
0000
0000
0000
0000
0000
0000
0000
0000
3003
0000
0000
0000
0000
,
0110
0000
0001
0000
0010
0000
0100
0000
1000
0000
0010
1000
0000
0010
1000
0000
,
1000
0000
0100
0000
0010
0000
0001
0000
0010
0000
0001
0010
0000
0001
0010
0000
,
0001
0000
0100
0000
0010
0000
0100
0000
0001
0000
1000
0001
0000
1000
0001
0000
,
1000
0000
0100
0010
0000
0100
0010
0000
0001
0000
0010
0001
0000
0010
0001
0000
,
0012
0010
0013
0101
0200
0010
0310
0110
,
0020
1000
1030
1010
2000
0100
3100
1100
,
1000
0100
1000
0100
0000
0010
0001
0010
,
0000
0100
1000
0010
0000
0100
0001
0010
,
0001
0000
0001
1000
0000
1000
0001
0000
0001
1000
0000
1000
,
0001
0100
0001
0100
1000
0100
1000
0000
0000
0100
0000
0000
,
0022
0000
0000
0000
,
0000
0000
0000
0000
,
0000
0000
0000
0000
,
0033
0000
1001
0000
,
1000
1010
0000
0101
0000
0011
0000
1001
,
0002
0100
1003
0000
,
1010
0001
0100
0010
,
1000
0000
0001
1000
0000
0100
0010
0000
,
1001
0100
1000
0100
,
0001
0000
0010
1000
0000
0010
0001
0000
,
0101
1000
0100
0001
,
1000
0000
0010
0100
0000
0001
1000
0000
,
0011
0000
0100
1000
0000
0010
0100
0000
,
0110
0000
0001
1000
0000
0100
0010
0000
,
0001
0010
0100
1000
0001
0100
0010
0000
,
0100
1000
0100
0001
0010
0100
1000
0000
,
1000
0100
0010
0100
1000
0001
0100
0000
,
1000
0100
0001
0010
0100
1000
0001
0000
,
0011
0010
0001
0010
0100
1000
0001
0000
,
0100
0001
0100
1000
0100
0010
1000
0000
,
1010
0000
0010
1000
0000
0010
1000
0000
,
0001
0000
0001
0100
0000
0001
0100
0000
,
0001
0000
0001
1000
1000
0000
0010
1000
,
0100
0000
0100
0010
0001
1000
0010
0100
,
0101
0000
0001
1000
0010
0100
0001
0010
,
0100
0000
0000
0100
0000
0010
0000
0000
0110
0000
0000
0000
1001
0000
0000
0000
,
1000
0000
0010
0000
0100
0000
0001
0000
1000
0000
0000
0001
0000
0000
1000
0000
,
0100
0000
0000
0100
0000
0000
0010
0000
0001
0000
0000
0001
0000
0000
0100
0000
,
1000
0000
0100
0000
0001
0000
0010
0000
0100
0000
0000
0100
0000
0000
1000
0000
,
0010
0000
0000
0010
0000
0000
0100
0000
0001
0000
0000
0001
0000
0000
0100
0000
,
1000
0000
0100
0000
0001
0000
1000
0000
0001
0000
0000
0010
0000
0000
0100
0000
,
0010
0000
0000
0001
0000
0000
0010
0000
1000
0000
0000
0010
0000
0000
0100
0000
,
1000
0001
1000
0001
1000
0010
1000
0010
,
0100
0001
0000
0001
0000
0001
1000
0010
,
0110
0000
0000
0000
;

//---------------dance-single - NEMESetup----------------
#NOTES:
     dance-single:
     NEMESetup:
     Medium:
     5:
     0.347,0.384,0.154,0.111,0.000:
0000
0000
0000
0000
,
1001
1000
1000
1000
,
0001
0000
0001
0000
0001
0000
0010
0100
,
0010
0010
0010
0010
,
0100
0000
0100
0000
0100
0000
0100
1000
,
1001
0001
0001
0001
,
1000
1000
1000
1000
,
0010
0100
0010
0100
,
0020
0000
0100
0000
0001
0000
1000
0030
,
1000
0000
0001
0000
0100
0000
0001
1000
,
0100
0000
0010
0000
0100
0000
0100
0010
,
0001
0000
0100
0000
1000
0000
1000
0100
,
0001
0000
0001
0000
1000
0000
0001
1000
,
0010
0000
0100
0000
0001
0000
0010
0100
,
0010
0001
1000
0010
,
1000
0100
0000
0100
0000
0100
0000
0100
,
1000
0000
0001
0000
1000
0010
0100
0000
,
0110
0000
0000
0000
,
0011
0000
0000
0000
,
1010
0000
0000
0000
,
0101
1100
0000
0010
,
0202
0000
0000
0000
,
0000
0000
0000
0000
,
0000
0000
0000
0000
,
0000
0000
0000
0303
,
0102
0000
0000
0000
1000
0000
1000
1000
,
2003
0000
0000
0000
0010
0000
0010
0010
,
3020
0000
0000
0000
0100
0000
0100
0100
,
0230
0000
0000
0000
0302
0000
0003
1000
,
1001
0000
0000
0001
1001
0000
0000
0100
,
0110
0000
0000
0010
0110
0000
0000
1000
,
1000
0100
0000
0100
0000
0010
0000
0010
,
0000
0001
0000
0001
0000
1000
0000
1000
,
0001
1000
0001
1000
,
0010
0100
0020
0130
,
2002
0000
0000
0000
,
0000
0000
0000
0000
,
0000
0000
0000
0000
,
3003
0000
0010
0000
,
1000
0100
0000
0100
0000
0100
0000
0100
,
2000
0000
0001
0000
0000
3000
0000
0000
,
0001
0100
0001
1000
,
0010
0000
0010
0100
0000
0100
0010
0000
,
1000
0100
0010
0001
,
1000
0000
0001
1000
0000
1000
0001
0000
,
0001
1000
0100
0010
,
0001
0000
0001
0010
0000
0010
0001
0000
,
0001
0000
1000
0010
0000
0000
0100
0000
,
0001
0000
1000
0001
0000
0000
1000
0000
,
1100
1000
0010
0100
,
0001
0000
0001
0100
0000
0100
0001
0000
,
0001
1000
0010
0100
,
1000
0000
1000
0100
0000
0100
1000
0000
,
0100
0001
0010
0100
,
1000
0000
0010
1000
0000
1000
0010
0000
,
1000
0000
1000
0100
0000
0000
0010
0000
,
0001
0000
0001
0020
0000
0000
0030
0000
,
0001
0000
0001
1000
0001
0000
0100
0000
,
0010
0000
1000
0010
1000
0000
0100
0000
,
0010
0001
0100
1000
,
0100
0000
0100
0100
0000
0000
1001
0000
,
0100
0010
0001
0010
,
1000
0000
0010
0000
0001
0000
1000
0010
,
0000
1000
0100
0010
,
0001
0000
0100
0000
1000
0000
0100
0001
,
0000
1001
0100
0010
,
0001
0000
1000
0000
0010
0000
0100
0001
,
0100
0001
0000
0001
0000
1000
0000
1000
,
0010
0100
0001
0010
0100
0000
0010
0000
,
1001
0000
0000
0000
;

//---------------dance-single - NEMESetup----------------
#NOTES:
     dance-single:
     NEMESetup:
     Easy:
     3:
     0.218,0.295,0.154,0.111,0.000:
0000
0000
0000
0000
,
1001
0000
0000
1000
,
1000
0000
0000
0001
,
0001
0000
0000
1000
,
1000
0000
0000
0000
,
0110
0000
0000
0010
,
0010
0000
0000
0100
,
0100
0000
0000
0000
,
0002
1000
1000
1003
,
1000
0000
0001
1000
,
0010
0000
1000
0001
,
0010
0000
0001
1000
,
0010
0000
1000
0000
,
0110
0000
0100
0001
,
0100
0000
0100
1000
,
0100
0000
0100
0000
,
0010
0010
0010
0010
,
1001
0000
0000
0000
,
1001
0000
0000
0000
,
0110
0000
0000
0000
,
0110
0110
0000
0000
,
2002
0000
0000
0000
,
0000
0000
0000
0000
,
0000
0000
0000
0000
,
0000
0000
3003
0000
,
2000
0000
0001
0000
,
3002
0000
0010
0000
,
0023
0000
0100
0000
,
0230
0000
0320
0030
,
1001
0000
0110
0000
,
1001
0000
0110
0000
,
1000
0000
0001
0000
,
1000
0000
0001
0000
,
0010
0100
0010
0100
,
0010
0100
0020
0030
,
2002
0000
0000
0000
,
0000
0000
0000
0000
,
0000
0000
0000
0000
,
0000
0000
3003
0000
,
1000
0001
1000
0010
,
0200
0000
0300
0000
,
0010
1000
0001
0000
,
0100
0000
0001
0000
,
1000
0100
0010
0000
,
0100
0000
1000
0000
,
0001
0010
1000
0000
,
0010
0000
0001
0000
,
0100
0000
1000
0100
,
0001
0000
0001
0000
,
0110
0000
0100
1000
,
0001
0000
1000
0000
,
0010
0000
1000
0010
,
0001
0000
1000
0000
,
0100
0000
0001
0010
,
0100
0000
1000
0000
,
0001
0000
0001
0001
,
1000
0000
1000
0000
,
0110
0000
0001
0001
,
0001
0000
1000
1000
,
1000
0000
0010
0000
,
0200
0000
0300
0110
,
0100
0001
0010
0000
,
0100
0000
1000
0001
,
0010
0000
0001
0000
,
0001
0000
0001
1000
,
0010
0000
0100
1000
,
0100
0000
0001
0000
,
1000
0000
0100
0000
,
0001
0010
0100
0010
,
1001
0000
0000
0000
;

//---------------dance-single - NEMESetup----------------
#NOTES:
     dance-single:
     NEMESetup:
     Beginner:
     2:
     0.108,0.207,0.103,0.034,0.000:
0000
0000
0000
0000
,
0000
0000
0000
0000
,
0000
0000
0000
0000
,
0000
0000
0000
0000
,
0000
0000
0000
0000
,
0100
0000
0000
0000
,
0010
0000
0000
0000
,
0100
0000
0000
0000
,
0002
0000
0003
0000
,
0001
0000
0000
0000
,
1000
0000
0000
0000
,
0001
0000
0000
0000
,
1000
0000
0000
0000
,
1001
0000
0000
0000
,
0110
0000
0000
0000
,
0100
0000
0100
0000
,
0010
0010
0010
0000
,
1001
0000
0000
0000
,
1001
0000
0000
0000
,
1001
0000
0000
0000
,
0001
0001
0000
0000
,
0200
0000
0000
0000
,
0000
0000
0000
0000
,
0000
0000
0000
0000
,
0000
0000
0300
0000
,
1001
0000
0000
0000
,
0010
0000
0000
0000
,
1000
0000
0000
0000
,
0100
0000
0000
0000
,
0001
0000
0001
0000
,
0001
0000
0001
0000
,
1000
0000
0000
0000
,
0010
0000
0000
0000
,
0100
0000
0100
0000
,
0100
0000
0100
0000
,
2002
0000
0000
0000
,
0000
0000
0000
0000
,
0000
0000
0000
0000
,
3003
0000
0000
0000
,
1000
0000
1000
0000
,
1000
0000
0000
0000
,
0110
0000
0000
0000
,
0001
0000
0000
0000
,
1000
0000
0000
0000
,
0010
0000
0000
0000
,
0100
0000
0000
0000
,
1000
0000
0000
0000
,
0001
0000
0000
0000
,
1000
0000
0000
0000
,
0110
0000
0000
0000
,
0001
0000
0000
0000
,
0010
0000
0000
0000
,
1000
0000
0000
0000
,
0100
0000
0000
0000
,
1000
0000
0000
0000
,
0001
0000
0000
0001
,
0001
0000
0000
0000
,
1001
0000
0000
0000
,
1000
0000
0000
0000
,
0100
0000
0000
0000
,
0010
0000
0000
0010
,
0010
0000
0000
0000
,
1000
0000
0000
0000
,
0001
0000
0000
0000
,
0100
0000
0000
0000
,
1001
0000
0000
0000
,
0010
0000
0000
0000
,
1000
0000
0001
0000
,
0100
0000
0100
0000
,
0110
0000
0000
0000
;

//---------------dance-single - NEMESetup----------------
#NOTES:
     dance-single:
     NEMESetup:
     Challenge:
     9:
     0.591,0.709,0.351,0.094,0.462: // measure 1
0000
0000
0000
0000
,  // measure 2
1001
0000
0000
1000
0000
0000
0010
0000
0000
0100
0000
0000
0001
0000
1000
0000
,  // measure 3
0001
0000
0000
1000
0000
0000
0100
0000
0000
0010
0000
0000
0001
0000
1000
0010
,  // measure 4
1000
0000
0000
0010
0000
0000
0100
0000
0000
0001
0000
0000
1000
0000
0001
0000
,  // measure 5
1000
0000
0000
0100
0000
0000
0010
0000
0000
0001
0000
0000
0100
0001
0100
0001
,  // measure 6
0100
0000
0000
0001
0000
0000
1000
0000
0000
0010
0000
0000
0100
0000
1000
0000
,  // measure 7
0100
0000
0000
0001
0000
0000
1000
0000
0000
0001
0000
0000
0010
0000
0001
0010
,  // measure 8
0001
0000
0000
0010
0000
0000
0100
0000
0000
1000
0000
0000
0001
0000
1000
0000
,  // measure 9
1001
0110
1001
0110
,  // measure 10
0001
0000
1000
0010
0000
0000
1000
0000
0001
1000
0000
0001
0010
0000
0100
0000
,  // measure 11
0010
0000
0001
0010
0000
0000
0100
0000
1000
0001
0000
0001
0100
0000
1000
0000
,  // measure 12
0100
0000
0010
1000
0000
0000
1000
0000
0100
0010
0000
0010
0100
0000
1000
0000
,  // measure 13
0001
0000
0100
0010
0000
0000
0010
0000
1000
0001
0000
0001
1000
0000
0100
0000
,  // measure 14
0110
0000
0010
0100
0000
1000
0010
0000
1000
0001
0000
0100
0000
0100
0001
0000
,  // measure 15
1000
0010
0000
0010
0000
1000
0100
0000
0100
0010
0000
0001
0000
0001
0010
0000
,  // measure 16
0000
0100
1000
0000
0000
0010
0100
0000
0000
0001
0010
0000
0000
0100
1000
0000
,  // measure 17
0010
0000
1000
0000
0001
0000
0010
0000
0010
0100
0010
0001
1000
0001
1000
0000
,  // measure 18
0020
0000
0000
0000
,  // measure 19
0230
0000
0000
0000
,  // measure 20
0302
0000
0000
0000
0000
0000
0000
0003
,  // measure 21
2000
3001
0000
0110
,  // measure 22
2002
0000
0000
0000
,  // measure 23
0000
0000
0000
0000
,  // measure 24
0000
0000
0000
0000
,  // measure 25
0000
0000
0000
3003
,  // measure 26
1001
0000
0010
0000
0100
0000
0001
0000
1000
0000
0001
0001
0000
1000
1000
0000
,  // measure 27
0001
0000
0100
0000
0010
0000
1000
0000
0010
0000
0100
0100
0000
0010
0010
0000
,  // measure 28
1000
0000
0100
0000
0010
0000
0001
0000
1000
0000
0100
0100
0000
1000
1000
0000
,  // measure 29
0001
0000
0100
0100
0000
0001
0001
0000
1000
0000
0010
0010
0000
1000
1000
0000
,  // measure 30
1001
0100
0010
0011
1001
0100
1000
1010
,  // measure 31
1001
0100
0010
0011
0101
1000
0010
1010
,  // measure 32
1100
1000
0100
0010
0110
0010
0001
1000
,  // measure 33
1001
0001
0100
0010
0110
0001
0010
0001
,  // measure 34
1000
0010
0100
0001
1000
0100
0010
0001
0100
1000
0100
0001
,  // measure 35
0010
0100
1000
0001
0010
1000
0010
0100
1000
0001
0000
0000
,  // measure 36
2002
0000
0000
0000
,  // measure 37
0000
0000
0000
0000
,  // measure 38
0000
0000
0000
0000
,  // measure 39
0000
3003
0110
0000
,  // measure 40
1000
1100
0000
0011
0000
1100
0000
0001
,  // measure 41
0200
0310
1001
0000
,  // measure 42
1010
0001
0100
1000
,  // measure 43
0110
0000
0100
1000
0000
0100
0001
0000
,  // measure 44
0011
0100
1000
0001
,  // measure 45
1010
0000
0001
0100
0000
0010
0100
0000
,  // measure 46
1001
0100
0010
0001
,  // measure 47
1100
0000
0001
0010
0000
0100
1000
0000
,  // measure 48
0101
0000
0010
1000
0000
0001
1000
0000
,  // measure 49
0011
0000
0100
1000
0000
0010
0100
0000
,  // measure 50
0001
0000
1000
0010
0000
0000
1000
0000
0100
0010
0000
0001
0010
0000
0100
0000
,  // measure 51
1000
0000
0001
0100
0000
0000
0010
0000
0100
1000
0000
1000
0100
0000
0001
0000
,  // measure 52
1000
0000
0001
0010
0000
0000
0100
0000
1000
0010
0000
0010
0100
0000
0001
0000
,  // measure 53
0010
0000
0100
0010
0000
0000
0001
0000
0100
0001
0000
0001
0100
0000
0001
0000
,  // measure 54
1000
0000
1000
0010
0000
0000
0100
0000
1000
0100
0000
0100
0010
0000
1000
0000
,  // measure 55
0100
0000
0010
0001
0000
0000
0001
0000
0010
1000
0000
0010
0100
0000
0010
0000
,  // measure 56
0002
0000
0010
0010
0000
1000
1003
0000
,  // measure 57
2000
0000
0010
0010
0000
0100
3100
0000
,  // measure 58
0100
1000
0010
0010
0100
0001
0100
1000
,  // measure 59
1000
0100
0001
0010
0100
0010
0001
0010
,  // measure 60
0110
0000
0000
0000
0000
0000
0100
0000
0000
0000
0000
0000
1000
0000
0000
0000
0000
0000
0001
0000
0000
1000
0000
0000
0100
0000
0000
0000
0010
0000
0000
0000
0001
0000
0000
0000
0010
0000
0000
0000
0100
0000
0000
0000
1000
0000
0000
0000
,  // measure 61
0010
0100
0001
1000
0001
0100
0010
0000
0000
0110
0000
0000
,  // measure 62
0001
0000
0100
0000
0010
0000
0100
0000
0001
0000
0001
1000
0000
0000
0100
0000
,  // measure 63
1000
0000
0010
1000
0000
0000
0100
0000
0010
0000
0100
0010
0000
0000
0100
0000
,  // measure 64
1000
0000
0001
0000
0100
0000
0010
0000
0100
0000
1000
0100
0000
0000
0010
0000
,  // measure 65
0100
0000
0001
0010
0000
0000
0100
0000
0010
0000
0001
0010
0000
0000
1000
0000
,  // measure 66
0010
0000
0100
0000
1000
0000
0001
0000
0100
0000
0010
1000
0000
0000
0100
0000
,  // measure 67
0010
0000
0001
1000
0000
0000
0100
0000
0010
0000
0001
0100
0000
0000
1000
0000
,  // measure 68
0100
0010
1000
0100
0010
0001
1000
0010
,  // measure 69
0100
0001
0000
0011
0000
1100
0000
0101
,  // measure 70
1001
0000
0000
0000
;
