#TITLE:Red. by Full Metal Jacket;
#SUBTITLE:-"Round-Nosed" Side-;
#ARTIST:DJ Mass MAD Izm*;
#TITLETRANSLIT:;
#SUBTITLETRANSLIT:;
#ARTISTTRANSLIT:;
#CREDIT:;
#BANNER:Red. by Full Metal Jacket-bn.png;
#BACKGROUND:Title Card-bg.png;
#LYRICSPATH:;
#CDTITLE:NEMESetupLOGO.png;
#MUSIC:Red. by Full Metal Jacket(REAL Location Test Ver.).mp3;
#OFFSET:-1.700;
#SAMPLESTART:18.280;
#SAMPLELENGTH:12.000;
#SELECTABLE:YES;
#BPMS:0.000=158.020,151.000=31.600,152.000=158.020;
#STOPS:;
#BGCHANGES:0.000=Black-bg.png=1.000=1=0=1,
3.000=Red. by Full Metal Jacket-bg.png=1.000=0=0=1,
4.000=-random-=1.000=0=0=1,
23.000=Red. by Full Metal Jacket-bg.png=1.000=0=0=1,
24.000=-random-=1.000=0=0=1,
27.000=Red. by Full Metal Jacket-bg.png=1.000=0=0=1,
27.250=-random-=1.000=0=0=1,
27.500=Red. by Full Metal Jacket-bg.png=1.000=0=0=1,
28.000=-random-=1.000=0=0=1,
31.000=Red. by Full Metal Jacket-bg.png=1.000=0=0=1,
32.000=-random-=1.000=0=0=1,
35.000=Red. by Full Metal Jacket-bg.png=1.000=0=0=1,
36.000=-random-=1.000=0=0=1,
39.000=Red. by Full Metal Jacket-bg.png=1.000=0=0=1,
40.000=-random-=1.000=0=0=1,
43.000=Red. by Full Metal Jacket-bg.png=1.000=0=0=1,
43.750=-random-=1.000=0=0=1,
44.000=Red. by Full Metal Jacket-bg.png=1.000=0=0=1,
44.500=Black-bg.png=1.000=0=0=1,
44.750=Red. by Full Metal Jacket-bg.png=1.000=0=0=1,
45.250=Black-bg.png=1.000=0=0=1,
45.500=Red. by Full Metal Jacket-bg.png=1.000=0=0=1,
45.750=Black-bg.png=1.000=0=0=1,
46.000=Red. by Full Metal Jacket-bg.png=1.000=0=0=1,
46.500=Black-bg.png=1.000=0=0=1,
46.750=Red. by Full Metal Jacket-bg.png=1.000=0=0=1,
47.250=Black-bg.png=1.000=0=0=1,
47.500=Red. by Full Metal Jacket-bg.png=1.000=0=0=1,
47.750=Black-bg.png=1.000=0=0=1,
48.000=Red. by Full Metal Jacket-bg.png=1.000=0=0=1,
48.500=Black-bg.png=1.000=0=0=1,
48.750=Red. by Full Metal Jacket-bg.png=1.000=0=0=1,
49.250=Black-bg.png=1.000=0=0=1,
49.500=Red. by Full Metal Jacket-bg.png=1.000=0=0=1,
49.750=Black-bg.png=1.000=0=0=1,
50.000=Red. by Full Metal Jacket-bg.png=1.000=0=0=1,
50.500=Black-bg.png=1.000=0=0=1,
50.750=Red. by Full Metal Jacket-bg.png=1.000=0=0=1,
51.250=Black-bg.png=1.000=0=0=1,
51.500=Red. by Full Metal Jacket-bg.png=1.000=0=0=1,
51.750=Black-bg.png=1.000=0=0=1,
52.000=Red. by Full Metal Jacket-bg.png=1.000=0=0=1,
52.500=-random-=1.000=0=0=1,
54.500=Red. by Full Metal Jacket-bg.png=1.000=0=0=1,
55.250=-random-=1.000=0=0=1,
55.500=Red. by Full Metal Jacket-bg.png=1.000=0=0=1,
55.750=-random-=1.000=0=0=1,
56.000=Red. by Full Metal Jacket-bg.png=1.000=0=0=1,
56.500=-random-=1.000=0=0=1,
60.000=Red. by Full Metal Jacket-bg.png=1.000=0=0=1,
60.500=-random-=1.000=0=0=1,
62.500=Red. by Full Metal Jacket-bg.png=1.000=0=0=1,
63.250=-random-=1.000=0=0=1,
63.500=Red. by Full Metal Jacket-bg.png=1.000=0=0=1,
63.750=-random-=1.000=0=0=1,
64.000=Red. by Full Metal Jacket-bg.png=1.000=0=0=1,
64.500=-random-=1.000=0=0=1,
67.000=Red. by Full Metal Jacket-bg.png=1.000=0=0=1,
67.500=Black-bg.png=1.000=0=0=1,
68.000=Red. by Full Metal Jacket-bg.png=1.000=0=0=1,
68.500=-random-=1.000=0=0=1,
70.500=Red. by Full Metal Jacket-bg.png=1.000=0=0=1,
70.750=-random-=1.000=0=0=1,
71.000=Red. by Full Metal Jacket-bg.png=1.000=0=0=1,
71.250=-random-=1.000=0=0=1,
71.500=Red. by Full Metal Jacket-bg.png=1.000=0=0=1,
71.750=-random-=1.000=0=0=1,
72.000=Red. by Full Metal Jacket-bg.png=1.000=0=0=1,
72.500=-random-=1.000=0=0=1,
75.500=Red. by Full Metal Jacket-bg.png=1.000=0=0=1,
75.750=-random-=1.000=0=0=1,
76.000=Red. by Full Metal Jacket-bg.png=1.000=0=0=1,
76.500=-random-=1.000=0=0=1,
78.750=Red. by Full Metal Jacket-bg.png=1.000=0=0=1,
79.500=-random-=1.000=0=0=1,
80.000=Red. by Full Metal Jacket-bg.png=1.000=0=0=1,
82.000=Red. by Full Metal Jacket-bg.png=1.000=1=0=1,
84.000=Red. by Full Metal Jacket-bg.png=1.000=1=0=1,
88.000=-random-=1.000=0=0=1,
118.000=Red. by Full Metal Jacket-bg.png=1.000=0=0=1,
118.500=Black-bg.png=1.000=0=0=1,
118.750=Red. by Full Metal Jacket-bg.png=1.000=0=0=1,
119.250=Black-bg.png=1.000=0=0=1,
119.500=Red. by Full Metal Jacket-bg.png=1.000=0=0=1,
119.750=Black-bg.png=1.000=0=0=1,
120.000=Red. by Full Metal Jacket-bg.png=1.000=0=0=1,
121.000=-random-=1.000=0=0=1,
148.000=Red. by Full Metal Jacket-bg.png=1.000=1=0=1,
151.000=Black-bg.png=1.000=1=0=1,
151.813=Red. by Full Metal Jacket-bg.png=1.000=0=0=1,
152.000=-random-=1.000=0=0=1,
180.000=Red. by Full Metal Jacket-bg.png=1.000=0=0=1,
180.250=Black-bg.png=1.000=0=0=1,
180.500=Red. by Full Metal Jacket-bg.png=1.000=0=0=1,
180.625=Black-bg.png=1.000=0=0=1,
180.750=Red. by Full Metal Jacket-bg.png=1.000=0=0=1,
180.875=Black-bg.png=1.000=0=0=1,
181.000=Red. by Full Metal Jacket-bg.png=1.000=0=0=1,
181.250=Black-bg.png=1.000=0=0=1,
181.500=Red. by Full Metal Jacket-bg.png=1.000=0=0=1,
181.625=Black-bg.png=1.000=0=0=1,
181.750=Red. by Full Metal Jacket-bg.png=1.000=0=0=1,
181.875=Black-bg.png=1.000=0=0=1,
182.000=Red. by Full Metal Jacket-bg.png=1.000=0=0=1,
182.250=Black-bg.png=1.000=0=0=1,
182.500=Red. by Full Metal Jacket-bg.png=1.000=0=0=1,
182.625=Black-bg.png=1.000=0=0=1,
182.750=Red. by Full Metal Jacket-bg.png=1.000=0=0=1,
182.875=Black-bg.png=1.000=0=0=1,
183.000=Red. by Full Metal Jacket-bg.png=1.000=0=0=1,
184.000=-random-=1.000=0=0=1,
215.000=Red. by Full Metal Jacket-bg.png=1.000=0=0=1,
216.000=-random-=1.000=0=0=1,
239.000=Red. by Full Metal Jacket-bg.png=1.000=1=0=1,
240.000=Red. by Full Metal Jacket-bg.png=1.000=1=0=1,
242.000=Red. by Full Metal Jacket-bg.png=1.000=1=0=1,
244.000=Red. by Full Metal Jacket-bg.png=1.000=1=0=1,
246.000=Red. by Full Metal Jacket-bg.png=1.000=1=0=1,
248.000=Red. by Full Metal Jacket-bg.png=1.000=1=0=1,
250.000=Red. by Full Metal Jacket-bg.png=1.000=1=0=1,
252.000=Red. by Full Metal Jacket-bg.png=1.000=1=0=1,
256.000=-random-=1.000=0=0=1,
262.000=Red. by Full Metal Jacket-bg.png=1.000=0=0=1,
262.500=Black-bg.png=1.000=0=0=1,
262.750=Red. by Full Metal Jacket-bg.png=1.000=0=0=1,
263.250=Black-bg.png=1.000=0=0=1,
263.500=Red. by Full Metal Jacket-bg.png=1.000=0=0=1,
264.000=-random-=1.000=0=0=1,
270.500=Red. by Full Metal Jacket-bg.png=1.000=0=0=1,
272.000=-random-=1.000=0=0=1,
278.000=Red. by Full Metal Jacket-bg.png=1.000=0=0=1,
278.500=Black-bg.png=1.000=0=0=1,
278.750=Red. by Full Metal Jacket-bg.png=1.000=0=0=1,
279.250=Black-bg.png=1.000=0=0=1,
279.500=Red. by Full Metal Jacket-bg.png=1.000=0=0=1,
280.000=-random-=1.000=0=0=1,
287.500=Red. by Full Metal Jacket-bg.png=1.000=0=0=1,
288.000=-random-=1.000=0=0=1,
290.000=Red. by Full Metal Jacket-bg.png=1.000=0=0=1,
290.500=Black-bg.png=1.000=0=0=1,
290.750=Red. by Full Metal Jacket-bg.png=1.000=0=0=1,
291.250=Black-bg.png=1.000=0=0=1,
291.500=Red. by Full Metal Jacket-bg.png=1.000=0=0=1,
292.000=-random-=1.000=0=0=1,
294.500=Red. by Full Metal Jacket-bg.png=1.000=0=0=1,
296.000=-random-=1.000=0=0=1,
298.000=Red. by Full Metal Jacket-bg.png=1.000=0=0=1,
298.500=Black-bg.png=1.000=0=0=1,
298.750=Red. by Full Metal Jacket-bg.png=1.000=0=0=1,
299.250=Black-bg.png=1.000=0=0=1,
299.500=Red. by Full Metal Jacket-bg.png=1.000=0=0=1,
300.000=-random-=1.000=0=0=1,
302.000=Red. by Full Metal Jacket-bg.png=1.000=0=0=1,
302.500=Black-bg.png=1.000=0=0=1,
302.750=Red. by Full Metal Jacket-bg.png=1.000=0=0=1,
303.250=Black-bg.png=1.000=0=0=1,
303.500=Red. by Full Metal Jacket-bg.png=1.000=0=0=1,
303.750=Black-bg.png=1.000=1=0=1,
99999=-nosongbg-=1.000=0=0=0 // don't automatically add -songbackground-
;

//---------------dance-single - NEMESetup----------------
#NOTES:
     dance-single:
     NEMESetup:
     Hard:
     8:
     0.673,0.592,0.591,0.197,0.078:
0000
0000
0000
0011
,
0100
1100
0000
0001
1000
0000
0010
0000
,
0100
0101
0000
1000
0001
0000
0100
0000
,
0010
0110
0000
0001
0100
0000
2000
3000
,
0100
0010
0010
0100
0001
0000
0011
0000
,
1000
1010
0000
0001
0010
0000
2200
3300
,
0001
0011
0000
1000
0010
0000
0010
0100
,
0001
1001
0000
0010
0100
0000
2020
3030
,
0001
0001
0010
1000
0010
0000
1100
0000
,
0001
0101
0000
1000
1000
0100
1001
0000
,
1000
1100
0000
0001
0001
0100
1001
0000
,
1000
0000
0000
0010
0000
0000
0100
0000
0001
0000
0000
0010
0000
0000
0100
0000
,
1000
0000
0000
0001
0000
0000
0100
0000
0010
0000
0000
0010
0000
0000
0010
0000
,
0110
0100
0001
0010
0100
1100
0000
1000
,
0001
0100
1000
0000
1000
0100
0001
0000
,
0101
0100
0010
1000
0001
0011
0000
0100
,
0010
1000
0010
0001
0010
0100
1100
0000
,
1010
0000
0110
0000
1000
0001
0001
0100
,
0110
0000
0001
0000
0100
0001
0100
0010
,
1010
1000
0010
0100
0010
1000
0000
0001
,
0011
0000
0000
0001
0000
0000
0100
0000
0110
0000
0000
0100
0000
0000
0001
0000
,
0101
0000
0000
0100
0010
0000
0010
0000
0000
0000
2020
0000
0000
0000
3030
0000
,
1001
0000
0010
0010
0001
0100
1000
0100
,
0001
0001
0100
0001
1000
0100
0001
0100
,
1000
1000
0100
1000
0010
0100
0001
0010
,
0100
1000
0001
0100
0001
1000
0010
0010
,
0100
0100
0001
0100
0010
1000
0100
0001
,
0100
0100
0010
0100
1000
1010
1000
1001
,
0001
1000
0001
0100
0010
0001
0010
0100
,
0001
0000
1000
0000
1000
0000
0100
0000
0010
0000
0000
0001
0000
0000
1000
0000
,
2010
0000
0000
3000
0001
0000
0100
0000
0010
0000
0100
0000
0001
0000
0100
0000
,
0001
0100
0010
1000
0001
2000
0000
3010
,
0010
0000
0110
0000
0001
0200
0000
0301
,
1000
0010
0100
0001
0001
1000
0001
0100
,
0010
0010
0100
0001
1000
0010
0100
0001
,
0010
1000
0001
0100
1000
0010
0100
0100
,
0010
1000
0100
0010
0001
0200
0000
1300
,
0200
0000
0000
0000
0000
0000
0000
0000
0000
0000
0000
0000
0000
0000
0000
0000
0000
0000
0000
0000
0000
0000
0000
0000
0000
0000
0000
0000
0000
0000
0000
0000
0301
0000
0000
0000
0000
0000
0000
0000
0000
0000
0000
0000
0000
0000
0000
0000
0202
0000
0000
0000
0000
0000
0000
0000
0303
0000
0000
0000
0000
0110
0000
0000
,
1010
0000
1001
0000
0010
1000
0001
0000
,
0100
0001
1000
0000
0010
1000
0100
0000
,
0011
0000
1001
0000
1000
0010
0001
0000
,
1000
0100
0001
0000
0010
0001
0100
0000
,
0001
0001
0101
0000
0010
1000
0100
0000
,
1000
1000
1100
0000
1000
0100
0001
0000
,
0010
0100
0020
0000
1000
0000
0000
0000
0100
0000
0000
0000
0031
0000
0000
0000
,
0010
0001
0010
0001
0010
0001
0010
0000
,
1100
0100
0001
0100
0000
0010
0001
0000
,
1000
0000
0010
0001
0000
0010
1010
0000
,
0100
0100
0001
1000
0100
1000
1100
0000
,
0010
0001
0000
1000
1000
0001
0101
0000
,
0010
1000
0100
0001
0100
1000
0000
0001
,
0100
0101
0000
1010
0000
0011
0000
1100
,
0010
0001
1000
0100
0000
1000
0010
0000
,
0100
0000
0000
0000
0101
0000
0000
0000
1000
0000
0100
0000
0020
0000
0000
0030
,
0001
0001
0100
0010
1000
0001
0100
0000
,
0001
0100
1000
0100
0010
1000
0100
0000
,
1000
1000
0010
0100
1000
0100
0001
0000
,
0100
0100
0001
0100
0010
1000
0010
0000
,
0100
0001
1000
0100
0010
0001
0100
0000
,
0010
0000
0010
0000
0100
0000
0001
0000
1000
0000
0100
0000
0220
0000
0000
0330
,
1100
0000
0000
0000
0000
0000
0000
0000
0011
0000
0000
0100
0000
0000
1010
0000
,
2000
0000
0000
0000
0001
0000
0000
0000
3001
0000
0000
0100
0000
0000
0010
0000
,
0101
0000
0000
0000
0000
0000
0000
0000
1010
0000
0000
0100
0000
0000
0011
0000
,
0002
1000
1003
1001
,
1000
0100
0010
0100
1000
0100
0001
0100
,
1000
0000
0100
0000
0010
0000
0001
0000
1001
0000
0000
0100
0000
0000
0110
0000
,
0010
0100
0001
0100
1000
0100
0001
0100
,
0010
1000
0001
0100
0000
0202
0000
0303
,
0001
0100
0010
0100
0001
0100
1000
0100
,
0001
0000
0010
0000
0100
0000
1000
0000
1001
0000
0000
0010
0000
0000
0110
0000
,
0100
0010
1000
0010
0001
0010
0100
0010
,
0100
0000
0001
0000
0100
0000
0001
0000
0100
0000
0000
0100
0000
0000
1001
0000
,
0001
0000
0010
0000
0100
0000
1000
0000
1010
0000
0000
1001
0000
0000
1001
0000
,
1000
0100
1000
0100
0000
0220
0000
0330
,
1000
0000
0100
0000
0010
0000
0001
0000
0011
0000
0000
1001
0000
0000
1001
0000
,
0001
0000
0100
0000
1000
0000
0100
0000
0001
0000
0000
0100
0000
0000
1010
0000
;

//---------------dance-single - NEMESetup----------------
#NOTES:
     dance-single:
     NEMESetup:
     Challenge:
     10:
     0.867,0.779,0.854,0.213,0.415:
0000
0000
0000
1001
,
0100
1100
0100
1000
1001
0001
0100
0000
,
0010
0110
0100
0001
0011
1000
0010
0100
,
0001
0000
0101
0000
0100
0000
0010
0000
1010
0000
1000
0000
0002
0000
0000
0003
,
1000
0100
0010
0100
0010
0000
0001
0000
0010
0000
0001
0000
1001
0000
0000
0000
,
0100
0101
0001
1000
1010
0010
0200
0300
,
0010
1010
1000
0001
0101
0100
1000
0100
,
0001
0101
0100
0010
0110
1000
0002
0003
,
1000
0100
1000
0100
0001
0000
0100
0000
1000
0000
0100
0000
0110
0000
0000
0000
,
1000
1100
0010
0001
0011
1000
0001
0000
,
0001
0011
1000
0010
1010
0001
1000
0000
,
0100
0000
0000
0110
0000
0000
1000
0000
0100
0000
0000
1100
0000
0000
0010
0000
,
0001
0000
0000
0011
0000
0000
1000
0000
0001
0000
0000
0001
0000
0000
0001
0000
,
1001
0100
0001
0100
0010
1010
0000
1000
,
1010
0100
0001
0010
0001
0100
0010
1000
,
1001
0010
1000
0100
0010
0011
0000
0001
,
0011
0100
1000
0100
1000
0010
0110
0000
,
0101
0010
1000
0100
1000
0001
0001
0100
,
0110
1000
0001
0100
1000
0100
0001
0010
,
0011
0000
0100
0000
1000
0000
0010
0000
0001
0000
0000
0010
0000
0000
1000
0000
,
2010
0000
0000
0001
3000
0000
0001
0000
0012
0000
0000
1003
0000
0000
1000
0000
,
1010
0000
0000
0100
1000
0100
1000
0100
0000
0000
0220
0000
0000
0000
0330
0000
,
1100
0000
0000
0100
0000
1000
0010
1000
0001
0000
0100
0000
0010
0000
0100
0000
,
0001
1000
0001
0000
0100
0000
0010
0100
1000
0000
0100
0000
0001
0000
1000
0000
,
0001
0010
0001
0010
0001
0000
1000
0001
0010
0000
0100
0000
1000
0000
0010
0000
,
0100
0001
0100
0000
1000
0000
0100
0000
0001
0000
0010
0100
1000
0100
0000
0000
,
0010
0001
0010
0000
0100
0000
0100
1000
0010
0000
0100
0000
0001
0000
1000
0000
,
1000
0100
0010
0000
0001
1000
0100
0000
0110
0000
0100
0000
1001
0000
0001
0000
,
1000
0010
1000
0000
0100
1000
0000
0001
0010
0000
0100
0000
0100
1000
0001
0000
,
0100
0000
0100
0000
0001
0100
0001
0100
0010
0000
0000
0110
0000
0000
0010
0000
,
2001
0000
0000
0000
3010
0000
1000
0000
1000
0100
0001
0000
0101
0000
0100
0000
,
1000
0010
0100
0000
0101
0000
0100
0000
0001
0000
0202
0000
0000
0303
0010
0000
,
1000
0000
0000
0001
1000
0000
0100
0000
0010
0000
0200
0000
0000
0300
0010
0000
,
0011
0000
1000
0000
0001
0100
0010
0000
0200
0000
0000
0300
1001
0000
1000
0000
,
0001
0100
0010
0000
1000
0000
1000
0001
0100
0000
0001
1000
0010
0000
1000
0000
,
0010
1000
0010
1000
0001
0000
0001
0100
0010
0100
0001
2000
0000
3000
1000
0000
,
1000
0010
0100
0010
1000
0000
0001
0000
0010
0100
0020
0000
0000
0030
0001
0000
,
0200
0000
0000
0000
0000
0000
0000
0000
1000
0000
0000
0000
0000
0000
0000
0000
1000
0000
0000
0000
0000
0000
0000
0000
0000
0000
0000
0000
0000
0000
0000
0000
0301
0000
0000
0000
0000
0000
0000
0000
0100
0000
0000
0000
0001
0000
0000
0000
0100
0000
0000
0000
0000
0000
0000
0000
0000
0000
0000
0000
0000
0110
0000
0000
,
1001
0000
1000
0001
1000
0000
0100
0000
1100
0000
1000
0000
0100
0000
0010
0000
,
0110
0100
0010
0001
0011
0001
0100
0001
,
1000
0010
1000
0000
0002
0000
0100
0003
0101
0000
0100
0000
0010
0000
1000
0000
,
1010
1000
0100
0010
0110
0100
1000
0001
,
0100
0001
0100
0000
0101
0000
0001
0000
1000
0000
0010
0000
0100
0000
0001
0000
,
1000
0010
1000
0010
1000
0000
0001
0000
0100
0000
0010
0000
1000
0000
0001
0000
,
1000
0100
0010
0001
2000
0000
3100
0000
1000
0000
0010
0000
0100
0000
0001
0000
,
1000
0000
0010
1000
0010
0000
0100
0010
0100
0000
0001
0100
0001
0000
0000
0000
,
1010
0100
0001
0010
0000
0001
1000
0000
,
0001
0000
0100
0010
0100
0000
0110
0000
0001
0000
1000
0000
1001
0000
0000
0000
,
0100
0000
0010
1000
0010
0000
1000
0000
0001
0000
0010
0000
0011
0000
0000
0100
,
0010
0000
0001
0000
1000
0100
0010
0000
0110
0000
0000
0000
0101
0000
0000
0000
,
0001
0100
0010
0000
1010
0000
1000
0000
0010
0000
1001
0000
0000
0000
0100
0001
,
0100
0101
0100
0110
0100
1100
0100
0101
,
0001
0000
0010
0000
0100
0000
1100
0000
0000
0100
0010
0000
1001
0000
0001
1000
,
0100
0010
0001
1000
0010
0100
0220
0330
,
0100
0001
0100
0001
0100
0000
0010
1000
0001
0000
0001
0000
1000
0100
0000
0000
,
0010
0000
0010
0100
1000
0000
0001
0000
0010
0000
0010
0001
1000
0001
0000
0000
,
1000
0001
1000
0000
0100
0000
1000
0000
0010
0000
0010
0100
1000
0100
0000
0000
,
0001
0000
0001
0000
1000
0100
1000
0010
0100
0000
0001
1000
0001
0100
0000
0000
,
0010
0000
0100
0001
1000
0000
0001
0000
0010
0000
0010
0100
1000
0001
0000
0000
,
0100
0000
0100
0001
0100
0000
0001
0000
1000
0001
0100
0000
0020
0000
0000
0030
,
1100
0000
0000
0000
0100
0000
0000
0000
0012
0000
0000
0100
0000
0000
0010
0000
,
1003
0000
0000
0000
1000
0000
0000
0000
1000
0000
0000
0001
0000
0000
0001
0000
,
0101
0000
0000
0000
0100
0000
0000
0000
2010
0000
0000
0100
0000
0000
0010
0000
,
3001
0000
0000
0000
0001
0000
0000
0000
0001
0000
0000
1000
0001
0000
0010
0000
,
0011
0100
1000
0010
1010
0100
0001
0010
,
0011
0000
0100
0000
1000
0000
0010
0000
1010
0000
0000
0101
0000
0000
1001
0000
,
1010
0100
0001
0010
0011
0100
1000
0010
,
1010
0100
0001
0100
0000
0220
0000
0330
,
0101
0010
1000
0100
1100
0010
0001
0100
,
0101
0000
0100
0000
0010
1000
0010
0000
0101
0000
0000
1010
0000
0000
1001
0000
,
1100
0010
0001
0100
0101
0010
1000
0100
,
1100
0000
0010
0000
0001
0000
0010
0000
0100
0000
0000
0100
0000
0000
1100
0000
,
0010
0000
0100
0000
1000
0000
0001
0000
0110
0000
0000
1001
0000
0000
0110
0000
,
0001
0100
1000
0100
0000
0202
0000
0303
,
0010
0000
0100
0000
0001
0000
1000
0000
0110
0000
0000
1001
0000
0000
0110
0000
,
0001
0000
0100
0000
1000
0000
0100
0000
0110
0000
0000
1100
0000
0000
1001
0000
;

//---------------dance-single - NEMESetup----------------
#NOTES:
     dance-single:
     NEMESetup:
     Beginner:
     2:
     0.145,0.218,0.041,0.090,0.000:
0000
0000
0000
0000
,
0100
0000
0000
0000
,
0001
0000
0000
0000
,
0100
0000
0000
0000
,
2000
0000
3000
0000
,
0010
0000
0000
0000
,
0001
0000
0000
0000
,
0010
0000
0000
0000
,
2000
0000
3000
0000
,
0001
0000
0000
0000
,
0100
0000
0000
0000
,
1000
0000
1000
0000
,
1000
0000
1000
0000
,
1001
0000
0000
0000
,
0010
0000
0000
0000
,
0001
0000
0000
0000
,
1000
0000
0000
0000
,
0100
0000
0000
0100
,
0100
0000
0000
0000
,
0001
0000
0000
0000
,
0010
0000
0010
0000
,
0010
0000
0020
0030
,
0010
0000
0000
0000
,
1000
0000
1000
0000
,
0001
0000
0000
0000
,
0100
0000
0001
0000
,
0100
0000
0000
0000
,
0010
0000
1000
0000
,
1000
0000
0000
0000
,
0001
0000
1001
0000
,
0110
0000
0000
0000
,
0010
0000
1000
0000
,
0100
0000
0000
0000
,
0001
0000
0000
1000
,
1000
0000
0001
0000
,
0001
0000
0100
0000
,
0010
0000
0000
0000
,
0200
0000
0000
0300
,
0100
0000
0000
0000
,
1000
0000
0000
0000
,
0020
0030
0000
0000
,
0010
0000
0000
0000
,
0002
0003
0000
0000
,
2000
3000
0000
0000
,
0020
0030
0000
0000
,
0010
0010
0010
0000
,
0110
0000
0000
0000
,
0001
0000
0000
1000
,
0000
0000
0000
0100
,
0000
0000
1000
1000
,
0000
0000
0001
0000
,
0000
0000
0001
0000
,
0100
0000
0000
0000
,
0010
0000
0000
0000
,
1000
0000
0000
0000
,
0001
0000
0000
0000
,
0100
0000
0000
0000
,
0010
0000
0010
0000
,
0010
0000
0000
0000
,
1000
0000
0000
0000
,
0002
0000
0003
0000
,
0001
0001
0001
0000
,
2000
0000
3000
0000
,
1000
1000
1000
0000
,
1001
0000
0001
0000
,
1000
0000
0010
0000
,
0010
0000
0100
0000
,
0100
0000
0000
0010
,
0010
0000
0100
0000
,
0010
0000
1000
0000
,
1000
0000
0001
0000
,
1000
0000
0002
0000
,
0003
0000
1000
1000
,
0000
0000
0001
0000
,
0000
0000
0010
0010
,
0000
0000
0100
0100
;

//---------------dance-single - NEMESetup----------------
#NOTES:
     dance-single:
     NEMESetup:
     Easy:
     4:
     0.257,0.343,0.213,0.074,0.000:
0000
0000
0000
0000
,
1001
0000
0010
0000
,
1000
0000
0010
0000
,
0001
0000
0010
0000
,
0200
0000
0300
0000
,
0001
0000
0010
0000
,
1000
0000
0010
0000
,
0001
0000
0010
0000
,
2000
0000
3000
0000
,
0100
0000
0010
0000
,
0001
0000
0010
0000
,
2000
0000
0001
0000
,
0001
0000
0010
3000
,
1010
0000
0000
1000
,
0010
0000
0100
0000
,
0001
0000
0000
1000
,
0001
0000
0100
0000
,
0010
0000
0000
1000
,
1000
0000
0100
0000
,
0010
0000
0000
0001
,
1001
0000
0110
0000
,
1001
0000
0000
0000
0000
0020
0000
0030
,
1000
0000
0010
0000
,
0100
0000
0001
1000
,
0001
0000
0010
0000
,
0100
0000
1000
0100
,
0010
0000
0001
0000
,
1000
0000
0001
0100
,
0001
0000
1000
0000
,
0010
0000
0200
0000
,
0310
0000
0100
0010
,
1000
0000
0100
0000
,
1000
0001
0001
0000
,
1000
0000
0001
0100
,
0010
0000
1000
0100
,
1000
0001
0010
0001
,
0100
0000
0001
0000
,
0100
0000
0010
0010
,
1001
0000
0010
0000
,
0100
0000
0100
0000
,
0001
1001
1000
0000
,
0001
0000
1000
0000
,
0100
1100
0000
0000
,
0010
0110
0000
0000
,
0001
0101
0000
0000
,
1000
1100
0101
1100
,
0001
0000
1000
0000
,
0001
0000
0100
0000
,
0010
0000
1000
0000
,
0100
0000
0010
0001
,
0010
0000
0100
0000
,
1000
0000
0010
1000
,
0001
0000
0100
0000
,
0010
0000
1000
1100
,
1000
0000
0001
0100
,
0001
0000
0010
0010
,
0100
0000
1000
0001
,
0100
0000
0010
1000
,
0100
0000
1000
1000
,
0001
0100
0001
0010
,
0002
0000
0100
0000
,
1000
1000
1000
0000
,
2003
0000
0100
0000
,
0001
0001
0001
3010
,
1001
0000
0100
0000
,
0010
0000
1001
0100
,
1001
0000
0100
0000
,
0001
0000
0000
0000
0000
2100
0000
3000
,
0001
0000
1000
0000
,
0001
0000
0110
1000
,
0110
0000
0001
0000
,
1000
0000
0001
0101
,
1000
0001
0101
0100
,
0010
0000
1000
0000
0000
0012
0000
0003
,
0100
1000
0110
0001
,
1100
0000
0001
0000
0100
0000
0000
0110
;

//---------------dance-single - NEMESetup----------------
#NOTES:
     dance-single:
     NEMESetup:
     Medium:
     7:
     0.490,0.467,0.263,0.263,0.029:
0000
0000
0000
0011
,
1000
0100
0000
1000
0001
0000
0000
0000
,
0010
0001
0000
0100
0001
0000
0000
0000
,
0010
0100
0000
1000
0100
0000
0000
0000
,
1000
0002
0000
0010
0013
0000
0100
0000
,
1000
0001
0000
0100
0001
0000
0020
0030
,
0100
1000
0000
0001
1000
0000
0020
0030
,
0100
0001
0000
0010
0001
0000
2000
3000
,
0001
2000
0000
0010
3010
0000
0100
0000
,
0010
1000
0000
0100
0001
0000
0110
0000
,
0010
0001
0000
0100
1000
0000
0110
0000
,
0200
0000
0000
1000
1000
0000
0000
0001
,
0001
0000
0000
0010
0310
0000
0000
1000
,
1002
0000
0013
0000
0000
0100
0000
0100
,
1000
0011
0100
0101
,
0020
0000
1030
0000
0000
0001
0000
0001
,
0100
1010
1000
1001
,
0021
0000
0130
0000
1000
0001
0001
0100
,
0020
0001
0100
1030
,
2010
0000
3001
0000
0100
0001
0000
0001
,
0002
0000
2000
0003
,
0200
0000
0000
0000
3300
2002
0000
3003
,
0110
0000
0100
1000
0001
0000
0010
0000
,
0001
0100
0001
0000
1000
0100
1000
0000
,
0010
0000
0010
0000
1000
0100
0001
0000
,
0001
0100
1000
0000
0001
0000
0001
0001
,
1000
0000
0100
0000
0010
0001
0100
0000
,
0020
0000
1030
0000
0001
0100
0001
0100
,
1000
0000
0100
0001
0010
0000
0100
0000
,
1000
0000
1000
0000
0001
0000
0100
0000
0001
0000
0000
0001
0000
0000
0001
0000
,
2000
0000
0000
3000
0010
0000
1000
0000
0100
0000
0010
0000
0000
0000
0001
0000
,
1000
0000
0001
0000
0100
0010
0000
0100
,
0100
0000
0001
0000
0001
0010
0000
0100
,
1000
0000
0001
0000
0010
0000
0100
1000
,
0100
0000
0001
0000
0100
1000
0010
0000
,
0100
0001
0010
0000
0100
0100
0000
1000
,
0001
0000
0100
0001
1000
0010
0000
1000
,
2000
0000
0000
0000
0000
0000
0000
0000
0000
0000
0000
0000
0000
0000
0000
0000
0000
0000
0000
0000
0000
0000
0000
0000
0000
0000
0000
0000
0000
0000
0000
0000
0010
0000
0000
0000
0000
0000
0000
0000
0000
0000
0000
0000
0000
0000
0000
0000
3200
0000
0000
0000
0000
0000
0000
0000
0300
0000
0000
0000
0000
0010
0000
0000
,
1001
0110
1000
0100
,
0010
0001
1000
0001
,
1010
1001
0010
0100
,
0001
0010
0100
1000
,
1100
1001
0100
0010
,
0011
1001
0100
0010
,
0210
1000
0001
0310
,
2000
3020
0230
0301
,
0101
0000
0010
0010
0000
1000
0001
0000
,
1000
0000
0100
0100
0000
0010
0001
0000
,
0100
0000
0010
1000
0000
0001
0001
0000
,
0010
0100
0000
1000
0010
0000
0101
0000
,
1000
0000
0001
0000
0100
0010
0000
1000
,
0000
0101
0000
0010
0000
1100
0000
0001
,
0001
0000
0010
0100
0000
1000
0100
0000
,
0011
0000
0000
0000
1001
0000
0000
0000
0100
0000
0000
0000
0120
0000
0000
0030
,
1000
1000
0100
0000
0010
0001
0100
0000
,
0001
0000
0100
0000
0010
1000
0100
0000
,
0010
0010
0100
0000
1000
0000
0001
0000
,
0200
0000
0300
0001
0010
0100
1000
0000
,
0001
0000
0010
0000
0100
1000
0001
0000
,
0100
0000
0000
0000
0010
0000
0000
0000
1000
0000
0100
0000
0020
0000
0000
0030
,
0200
0000
0001
0000
,
1000
1000
1000
0000
,
0320
0000
1000
0000
,
0001
0001
0031
1001
,
1000
0001
0100
0000
0001
1000
0100
0000
,
0001
0000
0100
0000
1000
0000
0000
0000
0010
0000
0000
0010
0000
0000
0010
0000
,
1000
0100
0010
0000
0100
0010
0001
0000
,
1000
0100
1000
0100
0000
0020
0000
0030
,
0001
1000
0100
0000
0001
0100
1000
0000
,
1000
0000
0001
0000
0100
0000
0000
0000
0010
0000
0000
0010
0000
0000
0010
0000
,
1000
0010
0001
0000
1000
0100
0001
0000
,
0010
0000
0001
0000
0000
0200
0300
0110
,
0000
0000
0100
0000
0001
0000
0000
0000
1000
0000
0000
1000
0000
0000
1000
0000
,
0010
0000
0010
0100
0000
0020
0000
0030
,
0101
0000
0000
0000
1000
0000
0000
0000
0001
0000
0000
0001
0000
0000
0001
0000
,
0100
0000
0000
0000
0010
0000
0000
0000
0100
0000
0000
0100
0000
0000
0101
0000
;
