#TITLE:PLEASE DON'T GO;
#SUBTITLE:;
#ARTIST:ASLETICS;
#TITLETRANSLIT:;
#SUBTITLETRANSLIT:;
#ARTISTTRANSLIT:;
#CREDIT:;
#BANNER:PLEASE DON'T GO-bn.png;
#BACKGROUND:Title Card-bg.png;
#LYRICSPATH:;
#CDTITLE:NEMESetupLOGO.png;
#MUSIC:PLEASE_DON'T_GO.MP3;
#OFFSET:-2.220;
#SAMPLESTART:3.980;
#SAMPLELENGTH:12.000;
#SELECTABLE:YES;
#BPMS:0.000=135.000;
#STOPS:;
#BGCHANGES:0.000=black-bg.png=1.000=1=0=1,
4.000=PLEASE DON'T GO-bg.png=1.000=0=0=1,
5.000=-random-=1.000=0=0=1,
9.500=PLEASE DON'T GO-bg.png=1.000=0=0=1,
10.500=-random-=1.000=0=0=1,
12.000=PLEASE DON'T GO-bg.png=1.000=0=0=1,
13.000=-random-=1.000=0=0=1,
16.500=PLEASE DON'T GO-bg.png=1.000=0=0=1,
16.750=-random-=1.000=0=0=1,
17.250=PLEASE DON'T GO-bg.png=1.000=0=0=1,
17.750=-random-=1.000=0=0=1,
18.250=PLEASE DON'T GO-bg.png=1.000=0=0=1,
18.750=-random-=1.000=0=0=1,
19.000=PLEASE DON'T GO-bg.png=1.000=0=0=1,
19.500=-random-=1.000=0=0=1,
20.000=PLEASE DON'T GO-bg.png=1.000=0=0=1,
21.000=-random-=1.000=0=0=1,
25.500=PLEASE DON'T GO-bg.png=1.000=0=0=1,
26.500=-random-=1.000=0=0=1,
28.000=PLEASE DON'T GO-bg.png=1.000=0=0=1,
29.000=-random-=1.000=0=0=1,
32.000=PLEASE DON'T GO-bg.png=1.000=0=0=1,
32.500=-random-=1.000=0=0=1,
33.000=PLEASE DON'T GO-bg.png=1.000=0=0=1,
33.250=-random-=1.000=0=0=1,
33.750=PLEASE DON'T GO-bg.png=1.000=0=0=1,
34.250=-random-=1.000=0=0=1,
34.750=PLEASE DON'T GO-bg.png=1.000=0=0=1,
35.000=-random-=1.000=0=0=1,
35.500=PLEASE DON'T GO-bg.png=1.000=0=0=1,
36.000=-random-=1.000=0=0=1,
50.000=PLEASE DON'T GO-bg.png=1.000=0=0=1,
50.250=-random-=1.000=0=0=1,
50.750=PLEASE DON'T GO-bg.png=1.000=0=0=1,
51.250=-random-=1.000=0=0=1,
51.750=PLEASE DON'T GO-bg.png=1.000=0=0=1,
52.000=-random-=1.000=0=0=1,
63.500=PLEASE DON'T GO-bg.png=1.000=0=0=1,
64.000=-random-=1.000=0=0=1,
64.500=PLEASE DON'T GO-bg.png=1.000=0=0=1,
65.000=-random-=1.000=0=0=1,
65.500=PLEASE DON'T GO-bg.png=1.000=0=0=1,
65.750=-random-=1.000=0=0=1,
66.000=PLEASE DON'T GO-bg.png=1.000=0=0=1,
66.250=-random-=1.000=0=0=1,
66.500=PLEASE DON'T GO-bg.png=1.000=0=0=1,
66.750=-random-=1.000=0=0=1,
67.000=PLEASE DON'T GO-bg.png=1.000=0=0=1,
67.250=-random-=1.000=0=0=1,
67.500=PLEASE DON'T GO-bg.png=1.000=0=0=1,
67.750=-random-=1.000=0=0=1,
68.000=PLEASE DON'T GO-bg.png=1.000=0=0=1,
68.250=-random-=1.000=0=0=1,
83.000=PLEASE DON'T GO-bg.png=1.000=0=0=1,
83.250=-random-=1.000=0=0=1,
83.500=PLEASE DON'T GO-bg.png=1.000=0=0=1,
83.750=-random-=1.000=0=0=1,
84.000=PLEASE DON'T GO-bg.png=1.000=0=0=1,
84.250=-random-=1.000=0=0=1,
99.000=PLEASE DON'T GO-bg.png=1.000=0=0=1,
99.250=-random-=1.000=0=0=1,
99.500=PLEASE DON'T GO-bg.png=1.000=0=0=1,
99.750=-random-=1.000=0=0=1,
100.000=PLEASE DON'T GO-bg.png=1.000=0=0=1,
100.250=-random-=1.000=0=0=1,
112.000=PLEASE DON'T GO-bg.png=1.000=0=0=1,
112.250=-random-=1.000=0=0=1,
112.750=PLEASE DON'T GO-bg.png=1.000=0=0=1,
113.000=-random-=1.000=0=0=1,
113.500=PLEASE DON'T GO-bg.png=1.000=0=0=1,
113.750=-random-=1.000=0=0=1,
114.250=PLEASE DON'T GO-bg.png=1.000=0=0=1,
114.500=-random-=1.000=0=0=1,
115.000=PLEASE DON'T GO-bg.png=1.000=0=0=1,
115.250=-random-=1.000=0=0=1,
115.500=PLEASE DON'T GO-bg.png=1.000=0=0=1,
115.750=-random-=1.000=0=0=1,
116.000=PLEASE DON'T GO-bg.png=1.000=0=0=1,
117.000=PLEASE DON'T GO-bg.png=1.000=1=0=1,
118.000=PLEASE DON'T GO-bg.png=1.000=1=0=1,
119.000=PLEASE DON'T GO-bg.png=1.000=1=0=1,
120.000=PLEASE DON'T GO-bg.png=1.000=1=0=1,
121.000=PLEASE DON'T GO-bg.png=1.000=1=0=1,
122.000=PLEASE DON'T GO-bg.png=1.000=1=0=1,
123.000=PLEASE DON'T GO-bg.png=1.000=1=0=1,
124.000=PLEASE DON'T GO-bg.png=1.000=1=0=1,
125.000=PLEASE DON'T GO-bg.png=1.000=1=0=1,
126.000=PLEASE DON'T GO-bg.png=1.000=1=0=1,
127.000=PLEASE DON'T GO-bg.png=1.000=1=0=1,
128.000=PLEASE DON'T GO-bg.png=1.000=1=0=1,
129.000=PLEASE DON'T GO-bg.png=1.000=1=0=1,
130.000=PLEASE DON'T GO-bg.png=1.000=0=0=1,
130.250=-random-=1.000=0=0=1,
130.500=PLEASE DON'T GO-bg.png=1.000=0=0=1,
130.750=-random-=1.000=0=0=1,
131.000=PLEASE DON'T GO-bg.png=1.000=0=0=1,
131.250=-random-=1.000=0=0=1,
131.500=PLEASE DON'T GO-bg.png=1.000=0=0=1,
131.750=-random-=1.000=0=0=1,
132.000=PLEASE DON'T GO-bg.png=1.000=0=0=1,
133.000=PLEASE DON'T GO-bg.png=1.000=1=0=1,
134.000=PLEASE DON'T GO-bg.png=1.000=1=0=1,
135.000=PLEASE DON'T GO-bg.png=1.000=1=0=1,
136.000=PLEASE DON'T GO-bg.png=1.000=1=0=1,
137.000=PLEASE DON'T GO-bg.png=1.000=1=0=1,
138.000=PLEASE DON'T GO-bg.png=1.000=1=0=1,
139.000=PLEASE DON'T GO-bg.png=1.000=1=0=1,
140.000=PLEASE DON'T GO-bg.png=1.000=0=0=1,
140.250=-random-=1.000=0=0=1,
140.500=PLEASE DON'T GO-bg.png=1.000=0=0=1,
140.750=-random-=1.000=0=0=1,
141.000=PLEASE DON'T GO-bg.png=1.000=0=0=1,
141.250=-random-=1.000=0=0=1,
141.500=PLEASE DON'T GO-bg.png=1.000=0=0=1,
142.000=PLEASE DON'T GO-bg.png=1.000=1=0=1,
143.000=PLEASE DON'T GO-bg.png=1.000=1=0=1,
144.000=PLEASE DON'T GO-bg.png=1.000=1=0=1,
145.000=PLEASE DON'T GO-bg.png=1.000=1=0=1,
146.000=PLEASE DON'T GO-bg.png=1.000=1=0=1,
147.000=PLEASE DON'T GO-bg.png=1.000=1=0=1,
148.000=PLEASE DON'T GO-bg.png=1.000=0=0=1,
148.250=-random-=1.000=0=0=1,
148.500=PLEASE DON'T GO-bg.png=1.000=0=0=1,
148.750=-random-=1.000=0=0=1,
149.000=PLEASE DON'T GO-bg.png=1.000=0=0=1,
149.250=-random-=1.000=0=0=1,
149.500=PLEASE DON'T GO-bg.png=1.000=0=0=1,
150.000=PLEASE DON'T GO-bg.png=1.000=1=0=1,
151.000=PLEASE DON'T GO-bg.png=1.000=1=0=1,
152.000=PLEASE DON'T GO-bg.png=1.000=1=0=1,
153.000=PLEASE DON'T GO-bg.png=1.000=1=0=1,
154.000=PLEASE DON'T GO-bg.png=1.000=0=0=1,
154.500=-random-=1.000=0=0=1,
155.000=PLEASE DON'T GO-bg.png=1.000=0=0=1,
156.000=PLEASE DON'T GO-bg.png=1.000=1=0=1,
159.500=-random-=1.000=0=0=1,
160.000=PLEASE DON'T GO-bg.png=1.000=0=0=1,
160.500=-random-=1.000=0=0=1,
161.500=PLEASE DON'T GO-bg.png=1.000=0=0=1,
162.000=-random-=1.000=0=0=1,
162.500=PLEASE DON'T GO-bg.png=1.000=0=0=1,
163.000=-random-=1.000=0=0=1,
163.500=PLEASE DON'T GO-bg.png=1.000=0=0=1,
163.750=-random-=1.000=0=0=1,
164.000=PLEASE DON'T GO-bg.png=1.000=0=0=1,
164.250=-random-=1.000=0=0=1,
191.500=PLEASE DON'T GO-bg.png=1.000=0=0=1,
192.000=-random-=1.000=0=0=1,
192.500=PLEASE DON'T GO-bg.png=1.000=0=0=1,
193.000=-random-=1.000=0=0=1,
193.500=PLEASE DON'T GO-bg.png=1.000=0=0=1,
193.750=-random-=1.000=0=0=1,
194.000=PLEASE DON'T GO-bg.png=1.000=0=0=1,
195.000=-random-=1.000=0=0=1,
196.000=PLEASE DON'T GO-bg.png=1.000=0=0=1,
197.000=-random-=1.000=0=0=1,
201.500=PLEASE DON'T GO-bg.png=1.000=0=0=1,
202.500=-random-=1.000=0=0=1,
204.000=PLEASE DON'T GO-bg.png=1.000=0=0=1,
205.000=-random-=1.000=0=0=1,
209.500=PLEASE DON'T GO-bg.png=1.000=0=0=1,
210.500=-random-=1.000=0=0=1,
212.000=PLEASE DON'T GO-bg.png=1.000=0=0=1,
213.000=-random-=1.000=0=0=1,
217.500=PLEASE DON'T GO-bg.png=1.000=0=0=1,
218.500=-random-=1.000=0=0=1,
220.000=PLEASE DON'T GO-bg.png=1.000=0=0=1,
221.000=-random-=1.000=0=0=1,
223.500=PLEASE DON'T GO-bg.png=1.000=0=0=1,
224.000=-random-=1.000=0=0=1,
224.500=PLEASE DON'T GO-bg.png=1.000=0=0=1,
225.000=-random-=1.000=0=0=1,
225.500=PLEASE DON'T GO-bg.png=1.000=0=0=1,
225.750=-random-=1.000=0=0=1,
226.000=PLEASE DON'T GO-bg.png=1.000=0=0=1,
226.250=-random-=1.000=0=0=1,
226.500=PLEASE DON'T GO-bg.png=1.000=0=0=1,
226.750=-random-=1.000=0=0=1,
227.000=PLEASE DON'T GO-bg.png=1.000=0=0=1,
227.250=-random-=1.000=0=0=1,
227.500=PLEASE DON'T GO-bg.png=1.000=0=0=1,
227.750=-random-=1.000=0=0=1,
228.000=PLEASE DON'T GO-bg.png=1.000=0=0=1,
228.250=-random-=1.000=0=0=1,
233.500=PLEASE DON'T GO-bg.png=1.000=0=0=1,
234.500=-random-=1.000=0=0=1,
236.000=PLEASE DON'T GO-bg.png=1.000=0=0=1,
236.250=-random-=1.000=0=0=1,
243.000=PLEASE DON'T GO-bg.png=1.000=0=0=1,
243.250=-random-=1.000=0=0=1,
243.500=PLEASE DON'T GO-bg.png=1.000=0=0=1,
243.750=-random-=1.000=0=0=1,
244.000=PLEASE DON'T GO-bg.png=1.000=0=0=1,
244.250=-random-=1.000=0=0=1,
249.500=PLEASE DON'T GO-bg.png=1.000=0=0=1,
250.500=-random-=1.000=0=0=1,
252.000=PLEASE DON'T GO-bg.png=1.000=0=0=1,
252.250=-random-=1.000=0=0=1,
256.000=PLEASE DON'T GO-bg.png=1.000=0=0=1,
256.250=-random-=1.000=0=0=1,
256.750=PLEASE DON'T GO-bg.png=1.000=0=0=1,
257.000=-random-=1.000=0=0=1,
257.500=PLEASE DON'T GO-bg.png=1.000=0=0=1,
257.750=-random-=1.000=0=0=1,
258.250=PLEASE DON'T GO-bg.png=1.000=0=0=1,
258.500=-random-=1.000=0=0=1,
259.000=PLEASE DON'T GO-bg.png=1.000=0=0=1,
259.250=-random-=1.000=0=0=1,
259.500=PLEASE DON'T GO-bg.png=1.000=0=0=1,
259.750=black-bg.png=1.000=1=0=1,
99999=-nosongbg-=1.000=0=0=0 // don't automatically add -songbackground-
;

//---------------dance-single - NEMESetup----------------
#NOTES:
     dance-single:
     NEMESetup:
     Challenge:
     10:
     0.713,0.614,0.197,0.066,0.949: // measure 1
0000
0000
0000
0000
,  // measure 2
1001
0000
0000
0001
1000
0000
1000
0000
0001
0000
0000
1000
0001
0000
0001
0000
,  // measure 3
1000
0000
0000
0001
1000
0000
0110
0000
0000
0000
0100
0000
1000
0000
0010
0000
,  // measure 4
0100
0000
0000
0001
1000
0000
1000
0000
0001
0000
0000
1000
0001
0000
0001
0000
,  // measure 5
1000
0000
0001
1000
0000
0100
0000
0100
0000
1000
0000
0100
1000
0000
1000
0000
,  // measure 6
1001
0000
0000
1000
0010
0000
0010
0000
0100
0000
0000
0001
0100
0000
0100
0000
,  // measure 7
0010
0000
0000
1000
0100
0000
0110
0000
0000
0000
0001
0000
1000
0000
0010
0000
,  // measure 8
0100
0000
0000
0001
0100
0000
0100
0000
1000
0000
0000
1000
0100
0000
0100
0000
,  // measure 9
0001
0000
0100
0000
0010
1000
0000
0001
0000
0010
0000
0100
0010
0000
0010
0000
,  // measure 10
0001
0010
0000
0001
0010
0000
1000
0010
0000
1000
0010
0000
0100
0000
0010
0000
,  // measure 11
0001
0000
0100
0000
1000
0100
0000
0010
0000
0010
0000
1000
0100
0000
0100
0000
,  // measure 12
1000
0000
0001
0000
1000
0100
0000
0010
0000
0001
0000
0001
0010
0000
0010
0100
,  // measure 13
0000
0100
0000
0010
0001
0000
0010
0000
0100
1000
0000
0001
0000
0100
0000
0100
,  // measure 14
0010
0100
0000
0010
0100
0000
1000
0100
0000
1000
0100
0000
0001
0000
1000
0000
,  // measure 15
0100
0000
0010
0000
1000
0010
0000
0001
0000
0010
0000
1000
0010
0000
0100
0000
,  // measure 16
0100
0000
0010
0000
0001
0010
0000
0100
0000
0001
0000
0100
0001
0000
0101
0000
,  // measure 17
0000
1100
0000
0011
0100
0100
0101
0100
,  // measure 18
0001
0100
0001
0100
0000
1000
0000
0100
0000
0010
0000
1000
0100
0000
0010
0000
,  // measure 19
0100
0000
1000
0000
0001
0000
0200
0000
0010
0300
1000
0000
1100
0000
0010
0000
,  // measure 20
0100
1000
0100
0001
0000
0010
0000
0100
0000
1000
0000
0001
0010
0000
0100
0000
,  // measure 21
1000
0010
0000
1000
0100
0000
0010
0100
0000
0010
0100
0000
0010
0001
0010
0001
,  // measure 22
0010
0100
1000
0100
0000
1000
0000
0010
0000
0100
0000
1000
0100
0000
0001
0000
,  // measure 23
0010
0000
0100
0000
1000
0000
0020
0000
0001
0030
1000
0000
0110
0000
0001
0000
,  // measure 24
0010
0100
0010
0100
0000
0010
0000
0001
0000
0010
0000
1000
0010
0000
0100
0000
,  // measure 25
1000
0100
0000
0010
0001
0000
0010
1000
0000
0010
0100
0000
0010
0001
0010
0001
,  // measure 26
0010
0100
1000
0001
0000
0100
0000
1000
0000
0100
0000
0010
1000
0000
0100
0000
,  // measure 27
0010
0000
0100
0000
1000
0000
0002
0000
0100
0003
0010
0000
1010
0000
0001
0000
,  // measure 28
0100
1000
0100
0010
0000
0100
0000
1000
0000
0100
0000
0001
0010
0000
0100
0000
,  // measure 29
1000
0010
0000
0100
0001
0000
0010
0100
0000
1000
0010
0000
0100
0001
0100
0001
,  // measure 30
0200
0000
0000
0000
0000
0000
0000
0000
0000
0000
0000
0000
0300
0000
0001
0010
,  // measure 31
0002
0000
0000
0000
0000
0000
0000
0000
0000
0000
0000
0000
0003
0000
1000
0010
,  // measure 32
0000
1000
0000
0000
0001
0000
0100
0010
0000
0100
0000
0100
0000
0000
0000
0000
,  // measure 33
0000
0000
0010
1000
0000
0100
0000
0100
0010
0000
0010
0000
0010
0000
0010
0000
,  // measure 34
0110
0000
0001
1000
0000
1000
0000
0001
0000
0001
0000
0100
0010
0000
0100
0000
,  // measure 35
1000
0000
0100
0000
1000
0000
0000
0000
0000
0000
0000
0000
0000
0000
1000
0100
,  // measure 36
0020
0000
1000
0000
1000
0000
1000
0030
0000
0000
1000
0100
0010
0000
0001
0010
,  // measure 37
0100
0000
1000
0001
1000
0000
0100
0000
0010
0000
0100
0000
1000
0000
0001
0000
,  // measure 38
1001
0000
0001
1000
0001
1000
0100
0000
0000
0000
0010
0100
0010
0000
0001
0010
,  // measure 39
0001
0000
0010
1000
0010
0000
0100
0010
0100
0000
1100
0000
1100
0000
0000
0000
,  // measure 40
1001
0000
0000
0000
0000
0000
0000
0000
0000
0000
0001
0100
0001
0000
1000
0000
,  // measure 41
1000
0000
0010
1000
0010
0000
0100
0000
0001
1000
0100
0000
0010
0000
0001
0010
,  // measure 42
1000
0000
0010
0100
0010
0100
0000
0010
0001
0000
0010
0001
0000
0010
0100
0000
,  // measure 43
1000
0000
0001
1000
0001
1000
0000
0001
1000
0000
0001
1000
0000
0001
1000
0000
,  // measure 44
0100
0000
1000
0010
1000
0010
0000
1000
0010
0000
1000
0010
0000
1000
0010
0000
,  // measure 45
1000
0000
0100
0010
0100
0010
0000
0100
0010
0000
0100
0010
0000
0100
0010
0000
,  // measure 46
0001
0000
0001
0100
0001
0100
0000
1000
0100
0000
1000
0100
0000
1000
0100
0000
,  // measure 47
0001
0000
1000
0010
1000
0010
0000
0001
0010
0000
0001
0010
0000
0001
0010
0000
,  // measure 48
1000
0000
0100
0010
0100
0010
0000
0001
0010
0000
0001
0010
1000
0000
0010
0000
,  // measure 49
0000
1010
0000
0011
0001
0000
1001
0000
,  // measure 50
0001
1000
0000
0001
1000
0000
0010
0100
0000
0010
0100
0000
1000
0000
0100
0000
,  // measure 51
0001
0000
0010
0000
0100
1000
0000
0001
0000
0001
0000
0100
1000
0000
1000
0000
,  // measure 52
0100
0000
0010
0000
1000
0100
0000
0100
0000
0010
0000
0100
1000
0000
0001
0100
,  // measure 53
0000
0100
0000
0001
0100
0000
1000
0000
0100
0010
0000
0010
0000
1000
0000
0000
,  // measure 54
1000
0100
0000
0100
0010
0000
0010
0001
0000
0001
0010
0000
1000
0000
0010
0000
,  // measure 55
0100
0000
1000
0000
0001
0100
0000
0010
0100
0000
0000
0100
0000
0000
0100
0000
,  // measure 56
0010
0000
1000
0000
0100
0010
0000
0001
0000
0001
0000
0010
1000
0000
1010
0000
,  // measure 57
0000
0110
0000
0001
1001
0100
0001
0010
,  // measure 58
0001
0010
1000
0010
0000
0100
0000
0010
0000
0001
0000
0100
1000
0000
0100
0000
,  // measure 59
0001
0000
1000
0000
0010
0000
0200
0000
0010
0300
0100
0000
1001
0000
0100
0000
,  // measure 60
0010
0001
0010
0001
0000
0010
0000
1000
0000
0010
0000
0100
1000
0000
0010
0000
,  // measure 61
0100
1000
0000
0100
1000
0000
0100
0001
0000
0100
0001
0000
0100
0010
0100
0010
,  // measure 62
0001
0010
0100
0001
0000
1000
0000
0001
0000
0100
0000
0010
1000
0000
0100
0000
,  // measure 63
0010
0000
0100
0000
1000
0000
0002
0000
0100
0003
0010
0000
1010
0000
0001
0000
,  // measure 64
1000
0100
0010
0100
0000
0010
0000
1000
0000
0010
0000
0001
0010
0000
0100
0000
,  // measure 65
1000
0010
0000
1000
0100
0000
0010
0001
0000
0100
0010
0000
0100
1000
0100
0001
;

//---------------dance-single - NEMESetup----------------
#NOTES:
     dance-single:
     NEMESetup:
     Beginner:
     2:
     0.112,0.160,0.033,0.033,0.000:
0000
0000
0000
0000
,
0010
0000
0000
0000
,
0000
0000
1000
0000
,
0001
0000
0000
0000
,
0100
0000
0100
0000
,
0100
0000
0000
0000
,
0000
0000
0001
0000
,
1000
0000
0000
0000
,
0010
0000
0010
0010
,
0010
0000
1000
0000
,
0001
0001
0000
0000
,
1000
0000
0000
0000
,
0100
0000
0100
0100
,
0100
0000
0000
0000
,
0001
0000
0000
1000
,
1000
0000
0000
0000
,
0001
0000
0000
0000
,
1001
0000
0000
0000
,
1000
0000
0001
0000
,
1000
0000
0000
0000
,
0010
0000
0000
0000
,
0110
0000
0000
0000
,
0100
0000
0010
0000
,
0100
0000
0000
0000
,
0001
0000
0000
1000
,
1000
0000
0000
0000
,
0001
0000
0000
0001
,
0001
0000
0000
0000
,
0100
0000
0000
0000
,
0020
0000
0000
0000
,
0030
0000
0000
0000
,
2000
0000
0000
0000
,
3000
0000
0000
0000
,
0200
0000
0000
0000
,
0300
0000
0000
0000
,
0002
0000
0000
0000
,
0003
0000
0000
0000
,
0001
0000
0000
0000
,
1000
0000
0000
0000
,
0010
0000
0000
0000
,
0100
0000
0000
0000
,
1001
0000
0000
0000
,
1000
0000
1000
0000
,
0001
0000
0000
0000
,
0001
0000
0001
0000
,
0010
0000
0000
0000
,
0100
0000
0100
0000
,
0010
0000
0000
0000
,
1000
0000
1000
0000
,
1000
0000
0000
0010
,
0010
0000
0000
0100
,
0100
0000
0000
0000
,
0001
0000
1000
0000
,
0001
0000
0000
0001
,
0001
0000
0000
0010
,
0010
0000
0000
0000
,
1000
0000
1000
1000
,
1000
0000
0000
0000
,
0001
0000
0010
0000
,
1000
0000
0000
0000
,
0100
0000
0000
0000
,
0110
0000
0000
0000
,
1000
0000
0100
0000
,
0001
0000
0000
0000
,
0001
0000
1000
1000
;

//---------------dance-single - NEMESetup----------------
#NOTES:
     dance-single:
     NEMESetup:
     Easy:
     3:
     0.228,0.319,0.140,0.008,0.000:
0000
0000
0000
0000
,
1001
0000
0001
1000
,
1000
0000
0001
0000
,
1000
0000
1000
1000
,
0001
0000
1000
0000
,
0110
0000
0010
0010
,
0100
0000
0100
0000
,
0100
0000
0010
0010
,
0100
0000
0001
0000
,
1001
0000
1000
0010
,
0001
0000
0001
0100
,
1000
0000
1000
0000
,
0010
0000
0100
0100
,
1001
0000
0001
0010
,
1000
0000
1000
0010
,
0001
0000
1000
0000
,
0001
0001
0001
0000
,
0110
0000
0001
0000
,
1000
0001
1000
0001
,
1000
0000
0010
0000
,
0100
0000
0010
0010
,
1001
0000
0001
1000
,
0010
0100
0010
0100
,
0001
0000
1000
0000
,
0100
0000
0010
0010
,
1001
0010
0000
1000
,
0100
0010
0000
0001
,
1000
0001
0000
0100
,
0001
0001
1000
1000
,
0110
0000
0000
0000
,
1000
0000
0000
0000
,
0001
0000
0100
0000
,
0000
0000
0010
1000
,
0100
0000
0000
0000
,
1000
0001
0000
0000
,
0110
0000
0000
0001
,
0001
1000
1000
0001
,
0200
0300
0000
0001
,
0010
0100
1000
0010
,
1000
0000
0000
0100
,
1000
0010
0100
0001
,
1000
0000
0001
1000
,
0001
0000
0100
0010
,
1000
0000
0100
0000
,
1000
0100
0001
0100
,
1000
0000
0001
0010
,
0100
0000
0010
0000
,
0001
0000
0001
0010
,
1000
1000
1000
1000
,
0110
0000
1000
0001
,
0010
0000
1000
0100
,
0001
0000
1000
0000
,
0001
0000
0010
0010
,
0110
0000
0001
1000
,
0001
0000
1000
0000
,
0100
0000
0001
1000
,
0011
1010
0011
1010
,
0100
0000
0010
1000
,
0100
0000
0010
0001
,
1000
0000
1000
0000
,
0001
0100
1000
0010
,
0001
0000
1000
0000
,
1000
0100
0001
0010
,
1000
0000
1000
0000
,
0001
1000
0110
1001
;

//---------------dance-single - NEMESetup----------------
#NOTES:
     dance-single:
     NEMESetup:
     Medium:
     5:
     0.366,0.347,0.099,0.058,0.000:
0000
0000
0000
0000
,
2010
3001
0100
0001
,
1000
0000
0001
0020
0000
0030
0100
0000
,
1000
0010
0100
1000
,
0100
0001
1000
1000
,
0012
0103
1000
0010
,
0100
0000
1000
0200
0000
0300
1000
0000
,
0100
0001
1000
0100
,
0010
0001
0010
0010
,
0001
0000
0100
0000
0001
0000
1000
0001
,
1000
0000
0010
0000
0100
0000
0001
1000
,
0010
1000
0100
0010
,
0001
0000
1000
0000
0001
0100
0001
0100
,
0010
1000
0100
0010
,
0001
0000
0100
0000
1000
0000
1000
0100
,
0001
0000
1000
0000
0100
0000
0010
0002
,
0000
1000
0000
1000
0000
1000
0000
1003
,
1000
0000
0001
0000
1000
0000
0010
0100
,
0010
0010
0010
1001
,
1000
0000
0100
0000
0010
0000
0001
1000
,
0001
0000
0001
0000
1000
0000
1000
0001
,
1000
0000
0100
0000
0010
0000
0001
0100
,
1000
1000
1000
1001
,
0010
0000
1000
0000
0100
0000
1000
0100
,
0001
0000
0100
0000
0010
0000
0001
0010
,
1000
0000
0010
0000
0100
0000
0010
0001
,
1000
0000
0001
0000
1000
0000
0010
0100
,
1001
0000
0100
0000
1000
0000
1000
0010
,
0100
0000
0001
0000
1000
0000
0001
0010
,
0010
0000
0000
0000
0000
0000
0000
0001
,
0001
0000
0000
0000
0000
0000
0000
1000
,
1000
0010
0100
0100
,
0000
0100
0001
0000
0100
0000
0010
1000
,
0100
0010
0010
0010
,
0100
0000
0010
0000
0000
0000
0000
0100
,
0100
0000
0000
0000
0000
1000
1000
0001
,
0001
1000
1000
0000
0000
0000
0010
0000
,
0110
0100
0100
0100
0000
0001
1000
0001
,
1000
0100
0010
0100
0010
0000
0000
0000
,
1001
0000
0000
0000
0000
0010
1000
0000
,
0000
0001
0100
0000
1000
0100
0000
0001
,
1000
0000
0100
0000
0010
0000
0001
0010
,
0010
0000
0100
1000
0000
0010
1000
0000
,
0001
0000
0100
0000
1000
0000
1000
0100
,
0000
0010
1000
0000
0001
0000
1000
0000
,
1001
0000
0100
0000
0010
0000
0001
0010
,
0000
0100
1000
0000
0010
0000
0100
0000
,
0001
0000
0001
0000
1000
0000
1000
0200
,
0000
0010
0000
0010
0000
0300
0000
0000
,
0110
0000
1001
0000
0001
0100
1000
0000
,
1000
0100
0001
0000
0010
0000
0100
0000
,
1000
0010
0001
0000
0001
0010
1000
0000
,
1000
0000
0100
0000
0100
0010
0001
0000
,
1001
0000
0100
0000
0001
0100
1000
0000
,
1000
0100
0001
0000
0001
0010
1000
0010
,
0001
0010
0100
1000
,
2000
0010
0000
0010
0000
0010
3010
0000
,
0010
0000
1000
0000
0001
0001
0100
0000
,
0010
0000
1000
0100
0000
0010
0001
0000
,
1000
0001
0100
1000
,
0100
0000
0001
1000
0000
0001
1000
0000
,
1001
0000
0100
0000
0010
0000
0001
0010
,
0000
0100
1000
0010
0000
0100
0001
1000
,
0100
0010
0001
0010
,
0100
0000
1000
0000
0010
0100
0001
0001
;

//---------------dance-single - NEMESetup----------------
#NOTES:
     dance-single:
     NEMESetup:
     Hard:
     8:
     0.503,0.507,0.132,0.066,0.374:
0000
0000
0000
0000
,
1001
0000
0001
1000
1000
0000
1000
0001
,
0001
0000
1000
0110
0000
0001
1000
0000
,
0100
0000
0010
0100
0100
0000
0100
0010
,
0010
0000
0010
0000
0000
0001
0000
0000
0010
0000
0000
0010
0001
0000
0001
0000
,
1000
0000
0001
1000
1000
0000
1000
0001
,
0001
0000
1000
0110
0000
0001
1000
0010
,
0100
0000
0010
0100
0100
0000
0100
0010
,
0010
1000
0000
1000
0001
0100
0010
0100
,
0001
0000
0000
0000
0001
0000
0000
0001
0000
0000
1000
0000
0010
0000
1000
0000
,
0100
0000
0000
0000
0010
0000
0000
0010
0000
0000
0100
0000
1000
0000
0001
0000
,
0100
0000
0000
0000
1000
0000
0000
1000
0000
0100
0000
0010
0000
0000
0010
0000
,
1000
0000
0001
0000
1000
0100
0010
0100
,
1000
0000
0000
0000
1000
0000
0000
0100
0000
0000
0010
0000
0001
0000
1000
0000
,
0001
0000
0000
0000
0100
0000
0000
0001
0000
0000
0001
0000
0010
0000
0100
0000
,
1000
0000
0000
0000
0010
0000
0000
0100
0000
0001
0000
0100
0000
0000
1000
0000
,
0000
1100
0000
0110
0000
0001
1000
1000
,
0001
0000
0000
1000
0000
1000
0000
0100
0000
0000
1000
0000
0100
0000
0010
0000
,
0001
0000
1000
0000
0010
0000
0200
0000
0000
0300
0001
0000
0100
0000
1000
0000
,
0100
0000
0000
0001
0000
0010
0000
0100
0000
0000
0100
0000
0010
0000
0001
0000
,
1000
0000
0000
0001
0000
0000
0001
0000
0000
1000
0000
0000
0001
0000
1000
0000
,
0001
0000
0000
0001
0000
0010
0000
0100
0000
0000
0100
0000
0010
0000
0001
0000
,
1000
0000
0010
0000
0100
0000
0002
0000
0000
0003
0001
0000
0100
0000
1000
0000
,
0100
0000
0000
0001
0000
1000
0000
1000
0000
0000
0100
0000
0010
0000
0100
0000
,
1000
0000
0000
1000
0000
0000
0010
0000
0000
1000
0000
0000
1000
0000
0010
0000
,
0100
0000
0000
0010
0000
0100
0000
1000
0000
0000
1000
0000
0100
0000
0001
0000
,
0010
0000
1000
0000
0010
0000
0200
0000
0000
0300
0100
0000
1000
0000
0001
0000
,
0100
0000
0000
0010
0000
0100
0000
1000
0000
0000
1000
0000
0100
0000
0001
0000
,
0010
0000
0000
1000
0000
0000
0010
0000
0000
0001
0000
0000
1000
0000
0010
0000
,
2000
0000
0000
0000
0000
0000
0000
0000
0000
0000
0000
0000
3000
0000
0001
0100
,
0002
0000
0000
0000
0000
0000
0000
0000
0000
0000
0000
0000
0003
0000
1000
0001
,
0000
0000
0000
0000
0001
0000
0001
1000
0000
1000
0000
0010
0000
0000
0000
0000
,
0000
0000
0100
0010
0000
0010
0000
0010
1000
0000
1000
0000
0100
0000
0010
0000
,
0001
0000
1000
0001
0000
0001
0000
0100
0000
0000
0010
0000
1000
0000
0100
0000
,
0010
0000
0100
0000
0010
0000
0000
0000
0000
0000
0000
0000
0000
0000
0001
0100
,
0002
0000
0000
0003
0000
1000
0010
1000
,
0001
1000
0100
1000
0001
0001
0100
0010
,
0110
0000
0010
1000
0010
1000
0010
0000
0000
0000
0100
0000
0001
0000
0010
0000
,
0100
0010
0001
0010
1000
0010
0010
0000
,
1100
0000
0000
0000
0000
0001
0100
0010
,
0010
1000
0100
1000
0001
1000
0000
0100
,
0010
0000
0001
0000
0000
0010
0000
0000
0100
0000
0000
1000
0000
0000
0010
0000
,
0100
0000
0001
0000
0000
0100
0000
0000
1000
0000
0000
0100
0000
0000
0001
0000
,
1000
0000
0100
0000
0000
0010
0000
0000
1000
0000
0000
0010
0000
0000
0100
0000
,
1000
0000
0001
0000
0000
0100
0000
0000
0010
0000
0000
1000
0000
0000
0001
0000
,
0101
0000
0010
0000
0000
1000
0000
0000
0100
0000
0000
0010
0000
0000
1000
0000
,
0001
0000
0100
0000
0000
0010
0000
0000
0001
0000
0000
0100
0000
0000
1000
0000
,
0100
0000
0010
0000
0000
1000
0000
0000
0100
0000
0010
0000
0000
0000
0001
0000
,
0000
0011
0000
1010
0001
0000
1001
0000
,
0010
0000
0000
0000
0100
0000
0000
0001
0000
0000
0100
0000
1000
0000
1000
0000
,
0100
0000
0001
0000
0010
0000
0000
1000
0000
0000
0010
0000
0100
0000
1000
0000
,
0010
0000
0100
0000
0001
0000
0000
1000
0000
0100
0000
0100
1000
0000
0010
0000
,
0000
1000
0100
0010
0001
0001
0100
1000
,
0100
0000
0000
0000
0001
0000
0000
0100
0000
0000
0010
0000
0010
0000
0100
0000
,
1000
0000
0100
0000
0001
0000
0000
0000
0010
0000
0000
0100
0000
0000
0100
0000
,
0010
0000
0100
0000
1000
0000
0000
0001
0000
0001
0000
0100
0010
0000
1000
0000
,
0000
1100
0000
0011
0100
0100
0110
0100
,
0001
0000
0000
0100
0000
0001
0000
0100
0000
0000
1000
0000
0100
0000
0001
0000
,
0010
1000
0010
0120
0000
0130
1000
0001
,
0100
0000
0000
0010
0000
0100
0000
1000
0000
0000
0100
0000
0001
0000
1000
0000
,
0010
0000
0000
1000
0000
0000
0100
0000
0000
0010
0000
0000
0001
0000
0010
0000
,
1000
0000
0000
0010
0000
0100
0000
1000
0000
0000
0001
0000
0100
0000
0010
0000
,
1000
0001
0100
0201
0000
0301
0100
1000
,
0100
0000
0000
0010
0000
1000
0000
0100
0000
0000
0010
0000
0001
0000
1000
0000
,
0010
0000
0000
0100
0000
0000
0001
0000
0000
0010
0000
0000
0100
1000
0001
0100
;
