#TITLE:NEMESIS;
#SUBTITLE:;
#ARTIST:D.J.SETUP;
#TITLETRANSLIT:;
#SUBTITLETRANSLIT:;
#ARTISTTRANSLIT:;
#CREDIT:;
#BANNER:NEMESIS-bn.png;
#BACKGROUND:NEMESIS-bg.png;
#LYRICSPATH:;
#CDTITLE:NEMESetupLOGO.png;
#MUSIC:NEMESIS.mp3;
#OFFSET:-4.421;
#SAMPLESTART:35.150;
#SAMPLELENGTH:15.000;
#SELECTABLE:YES;
#DISPLAYBPM:82.000;
#BPMS:0.000=164.000,148.000=82.000,156.000=164.000,271.000=82.000;
#STOPS:156.000=5.480
,158.500=1.100
,163.500=1.480
,167.500=1.460
,171.500=1.080
;
#BGCHANGES:;

//---------------dance-single - NEMESetup----------------
#NOTES:
     dance-single:
     NEMESetup:
     Easy:
     3:
     0.188,0.212,0.061,0.182,0.000: // measure 1
0000
0000
0000
0000
,  // measure 2
0200
0000
0300
0000
,  // measure 3
2000
0000
3000
0000
,  // measure 4
0002
0000
0003
0000
,  // measure 5
0110
0000
0000
0000
,  // measure 6
1001
0000
0000
0000
,  // measure 7
0001
0000
0000
0000
,  // measure 8
1000
0000
0000
0000
,  // measure 9
0001
0000
0000
0100
,  // measure 10
0100
0100
0000
0010
,  // measure 11
0000
0100
0000
0010
,  // measure 12
0000
1000
0000
0001
,  // measure 13
2000
0000
0000
3001
,  // measure 14
0001
0000
0100
0000
,  // measure 15
0001
0000
1000
0000
,  // measure 16
0020
0030
1000
0000
,  // measure 17
0100
0000
0010
0100
,  // measure 18
2000
3000
0001
0000
,  // measure 19
0100
0000
1000
0000
,  // measure 20
0200
0300
0010
0000
,  // measure 21
0020
0000
0100
0130
,  // measure 22
0110
0000
0001
0000
,  // measure 23
1000
0000
0001
0000
,  // measure 24
0010
0000
0100
0000
,  // measure 25
0010
0000
0100
0000
,  // measure 26
1000
0000
0001
0000
,  // measure 27
0010
0000
0100
0000
,  // measure 28
1000
0000
0001
0000
,  // measure 29
2000
0000
0001
3001
,  // measure 30
0001
0000
0100
0000
,  // measure 31
0001
0000
0010
0000
,  // measure 32
0100
0000
1000
0000
,  // measure 33
0010
0000
0100
0000
,  // measure 34
0110
0000
0001
0000
,  // measure 35
1001
0000
0100
0000
,  // measure 36
1000
0000
0001
0000
,  // measure 37
0100
0001
1000
0000
,  // measure 38
0220
0000
0000
0000
,  // measure 39
0000
0000
0330
0000
,  // measure 40
1001
2000
0000
3000
,  // measure 41
0001
0100
0020
0000
,  // measure 42
0030
0100
0020
0000
,  // measure 43
1030
0100
2000
0000
,  // measure 44
3000
0001
0100
0002
,  // measure 45
0000
0003
0000
0000
,  // measure 46
0001
1000
0010
0020
,  // measure 47
0000
0030
0000
0000
,  // measure 48
0000
0100
0001
2000
,  // measure 49
0000
3000
0000
0000
,  // measure 50
0000
0100
1000
0002
,  // measure 51
0000
0000
0000
0000
,  // measure 52
1000
1003
0000
0001
,  // measure 53
1000
0010
0000
0100
,  // measure 54
0000
0001
0100
1000
,  // measure 55
0000
0100
0000
0010
,  // measure 56
0000
1000
0010
0100
,  // measure 57
0000
0001
0000
1000
,  // measure 58
0000
1000
0010
0001
,  // measure 59
0000
0010
0000
0200
,  // measure 60
0000
0000
0010
0310
,  // measure 61
0000
1000
0000
0001
,  // measure 62
0010
0100
1000
0001
,  // measure 63
0000
0100
0000
0010
,  // measure 64
0000
1000
0010
0100
,  // measure 65
0000
0001
0000
1000
,  // measure 66
0001
0010
0100
1000
,  // measure 67
0000
0001
0000
0100
,  // measure 68
0100
0100
0010
2002
,  // measure 69
0000
0003
0000
0020
,  // measure 70
0000
0030
0000
0200
,  // measure 71
3300
0000
0000
0000
;

//---------------dance-single - NEMESetup----------------
#NOTES:
     dance-single:
     NEMESetup:
     Medium:
     5:
     0.308,0.345,0.159,0.159,0.000:
0000
0000
0000
0000
,
0200
0000
0000
0000
,
0302
0000
0000
0000
,
0023
0000
0000
0000
,
0130
0000
0000
0000
,
1001
1000
1000
1000
,
0001
0001
0001
0001
,
1000
1000
1000
1000
,
0001
0001
0001
0001
,
0100
0110
0000
1001
,
0000
1100
0000
1001
,
0000
0011
0000
0101
,
0002
0000
0000
0000
0000
0100
0103
0000
,
0001
1000
0010
0100
,
0001
1000
0100
0010
,
0020
0031
0100
0001
,
0100
0000
1000
0000
0100
0000
0100
0010
,
0200
0310
1000
0100
,
0010
0100
0010
0001
,
2000
3010
1000
0100
,
0020
0000
0000
0000
0000
0001
0031
0000
,
1001
1000
0001
0100
,
0010
0100
0001
1000
,
0200
1300
0010
1000
,
0001
0000
0100
0000
1000
0000
1000
0100
,
0001
0010
0100
1000
,
0010
0100
0001
1000
,
2000
3100
1000
0100
,
0020
0000
0000
0000
0000
0100
0130
0000
,
0110
0001
1000
0010
,
0100
0001
1000
0001
,
0100
1000
0100
0001
,
0010
0000
0100
0000
1000
0000
0010
1000
,
0100
0000
0000
0000
0010
0000
0000
0001
,
1000
0000
0001
0000
,
0101
1000
0101
1000
,
0001
1000
0001
1000
0010
0000
0100
0000
,
0220
0000
0000
0000
,
0000
0000
0000
0330
,
1001
0000
1000
0000
0000
1000
0001
0000
,
1000
0000
0001
0000
0001
0000
0000
0010
,
0100
0000
0010
0000
0100
0000
0000
0100
,
1000
0000
0010
0000
0100
0000
0000
0100
,
0001
0100
0010
2000
,
0000
0100
0000
0000
0000
0000
0000
0000
,
0100
0100
0100
3200
,
0000
0010
0000
0000
0000
0000
0000
0000
,
0000
0010
0010
0320
,
0000
0001
0000
0000
0000
0000
0000
0000
,
0000
0001
0001
0032
,
0000
1000
0000
0000
0000
0000
0000
0000
,
1000
1000
1003
0001
,
0100
0001
1000
0100
,
0010
0010
0110
1000
,
0001
0100
0010
1000
,
0001
1000
1000
1001
,
1000
0010
0100
1000
,
0100
0001
0001
0011
,
1000
0010
0100
0020
,
0000
0000
0000
1000
1030
0000
1001
0000
,
1000
0000
0100
1000
0100
0000
0010
0000
,
0001
0000
1000
0001
1000
0000
0010
0000
,
0100
0000
0001
0010
0001
0000
0010
0000
,
0100
1100
0110
0011
,
0001
0000
0100
1000
0100
0000
0001
0000
,
1000
0000
0001
0010
0001
0000
0011
0000
,
0001
0000
1000
0000
0100
0000
0100
0010
,
0100
0000
1000
0001
0100
0010
0200
0000
,
0000
0000
0000
0001
0001
0001
0302
0000
,
0000
0000
0000
0000
1000
1000
2000
0000
,
3003
0000
0000
0000
;

//---------------dance-single - NEMESetup----------------
#NOTES:
     dance-single:
     NEMESetup:
     Hard:
     7:
     0.410,0.451,0.273,0.136,0.140:
0000
0000
0000
0000
,
0000
0000
0000
0200
0000
0000
0000
0000
0000
0000
0000
0000
0000
0000
0000
0000
,
0000
0000
0300
0002
0000
0000
0000
0000
0000
0000
0000
0000
0000
0000
0000
0000
,
0000
0000
0003
0020
0000
0000
0000
0000
0000
0000
0000
0000
0000
0000
0000
0000
,
1030
0000
0000
0000
,
1001
1000
1000
0001
,
0100
0000
0100
0000
0001
0010
0100
1000
,
0010
0010
0010
1000
,
0100
0000
0100
0000
1000
0000
0100
1000
,
0100
0000
0000
0010
0001
0000
0000
0000
1000
0000
0000
0001
1000
0000
0000
0000
,
0100
0000
0000
1000
0100
0000
0000
0000
1000
0000
0000
0010
1000
0000
0000
0000
,
0010
0000
0000
0100
0001
0000
0000
0000
0100
0000
0000
0001
0100
0000
0000
0000
,
0002
0000
0000
0000
0000
1000
1003
0000
,
0101
0000
1000
0010
0100
0000
0001
0000
,
1000
0000
0100
0000
0010
0000
0001
0100
,
0101
0010
1000
0100
,
0001
0000
0100
0000
1000
0000
0010
0100
,
0110
0001
1000
0100
,
0010
0001
0100
0010
,
1010
0001
1000
0100
,
2000
0000
0000
0000
0000
0001
3001
0000
,
0001
1000
0010
0000
0100
0001
1000
0000
,
0001
0010
0100
0000
1000
0001
0100
0000
,
1000
0100
0001
0000
0010
0100
1000
0000
,
0001
0010
1000
0000
0001
0100
0010
0001
,
0001
1000
0010
0000
1000
0010
0100
0000
,
1000
0100
0001
0000
0001
1000
0010
0000
,
0100
0001
0010
0000
0100
1000
0010
0000
,
0200
0000
0000
0000
0000
0001
0301
0000
,
0001
0000
0100
0000
0001
0000
0000
0001
0000
0000
1000
0000
0010
0000
0000
0010
,
0000
0000
1000
0000
0100
0000
0000
0100
0000
0000
0010
0000
0001
0000
0000
0001
,
0000
0000
0100
0000
1000
0000
0000
1000
0000
0000
0100
0000
0001
0000
0000
0001
,
0000
0000
1000
0000
0010
0000
0000
0010
0000
0000
0001
0000
0010
0000
0000
0010
,
1000
1000
0100
0000
0100
0010
0001
0000
,
1001
0010
0100
0000
0001
1000
0100
0000
,
1100
0000
0000
0001
0010
0000
0000
0100
1000
0000
0000
0001
0010
0000
0000
0100
,
1000
0010
1000
0010
1000
0010
0100
0000
,
0120
0000
0000
0000
,
0000
0000
2000
3030
,
1001
0000
0011
0000
0000
0100
0001
0000
,
1000
0000
0010
0000
0110
0000
0000
1000
,
0100
0000
1000
0000
0101
0000
0000
0001
,
0010
0000
0001
0000
1010
0000
0000
0001
,
0001
0100
0010
1002
,
0000
0010
0000
0000
0000
0000
0003
0000
,
0100
0001
1000
0021
,
0000
0100
0000
0000
0000
0000
0000
0000
,
0030
0001
1000
0210
,
0000
0010
0000
0000
0000
0000
0000
0000
,
0300
0001
0100
2001
,
0000
0100
0000
0000
0000
0000
0000
0000
,
0001
3000
0000
0000
0001
0000
1000
0001
1000
0000
0000
0000
0001
0000
0000
1000
,
0001
0000
1000
0000
0010
0000
0000
0100
0001
0000
0100
0000
0001
0000
0000
0000
,
0011
0000
0000
0000
1100
0000
0000
0000
0101
0000
0000
0000
0110
0000
0000
0010
,
1000
0000
0100
0000
1000
0000
0000
0001
0010
0000
0001
0000
0010
0000
0000
0000
,
0100
0000
0000
0000
1100
0000
0000
0000
0110
0000
0000
0000
0101
0000
0000
0001
,
0010
0000
0001
0000
0010
0000
0000
0010
1000
0000
0010
0000
1000
0000
0000
0010
,
0100
0010
0011
0000
0110
0000
0011
0000
,
1000
0010
0100
0202
,
0000
0000
0000
0000
0303
0000
1000
0001
1000
0000
0000
0000
1001
0000
1000
0000
,
0100
0010
0100
0000
0100
1000
0010
0000
,
0100
0000
1000
0100
0001
0000
0011
0000
,
0001
0010
0100
1000
0001
0100
1000
0000
,
0100
0000
0010
1000
0100
0000
0110
0000
,
0100
1000
0001
0100
0010
1000
0100
0000
,
1100
0000
0000
0000
0011
0000
0000
0000
0101
0000
0000
0000
0101
0000
0000
0010
,
1000
0000
0000
0001
0100
0000
0000
0010
1000
0000
0000
0100
1000
0000
0100
0000
,
1000
0000
0100
0000
0010
0000
0001
0000
0011
0000
0100
0000
0100
0000
0000
0200
,
0000
0000
0000
0000
0300
0000
0001
0000
0100
0000
0010
0000
1000
0000
0000
2000
,
0000
0000
0000
0000
3000
0000
0000
0000
1000
0000
0001
0000
2000
0000
0000
0020
,
3030
0000
0000
0000
;

//---------------dance-single - NEMESetup----------------
#NOTES:
     dance-single:
     NEMESetup:
     Beginner:
     1:
     0.097,0.132,0.053,0.091,0.000:
0000
0000
0000
0000
,
0000
0000
0000
0000
,
0000
0000
0000
0000
,
0000
0000
0000
0000
,
0010
0000
0000
0000
,
1001
0000
0000
0000
,
1000
0000
0000
0000
,
1000
0000
0000
0000
,
0001
0000
0000
0000
,
0000
0100
0000
0100
,
0000
0100
0000
0100
,
0000
0010
0000
0010
,
0020
0000
0000
0030
,
0010
0000
0000
0000
,
1000
0000
0000
0000
,
0001
0000
0000
0000
,
0001
0000
0000
0000
,
1000
0000
0000
0000
,
0010
0000
0000
0000
,
1000
0000
0000
0000
,
2000
0000
0000
3000
,
1000
0000
0000
0000
,
0001
0000
0000
0000
,
0010
0000
0000
0000
,
0001
0000
0000
0000
,
1000
0000
0000
0000
,
0010
0000
0000
0000
,
0100
0000
0000
0000
,
0002
0000
0000
0003
,
0001
0000
0000
0000
,
1000
0000
0000
0000
,
0100
0000
0000
0000
,
0010
0000
0000
0000
,
1001
0000
0000
0000
,
0100
0000
0000
0000
,
0110
0000
0010
0000
,
0010
0010
0010
0000
,
0002
0000
0000
0000
,
0000
0000
0003
0000
,
2002
3003
0000
0000
,
0000
0000
0001
0000
,
0000
0000
0100
0000
,
0000
0000
0010
0000
,
0000
0000
0000
2000
,
0000
0000
0000
0000
,
0000
3000
0000
0002
,
0000
0000
0000
0000
,
0000
0003
0000
0200
,
0000
0000
0000
0000
,
0000
0300
0000
0020
,
0000
0000
0000
0000
,
0000
0030
0000
0110
,
0000
0000
0000
0000
,
1000
1000
0000
0001
,
0000
0000
0000
0000
,
0000
0100
0000
0010
,
0000
0000
0000
0000
,
0000
0010
0010
0010
,
0000
0000
0000
0200
,
0000
0300
0000
1001
,
0000
0000
0000
0000
,
0001
0001
0000
1000
,
0000
0000
0000
0000
,
0000
0100
0000
0010
,
0000
0000
0000
0000
,
0000
1000
1000
1000
,
0000
0000
0000
0002
,
0000
0003
0000
0110
,
0000
0000
0000
0100
,
0000
0000
0000
0010
;

//---------------dance-single - NEMESetup----------------
#NOTES:
     dance-single:
     NEMESetup:
     Challenge:
     9:
     0.550,0.583,0.212,0.068,0.398:
0000
0000
0000
0000
,
0000
0010
0000
0100
0000
0000
0100
0000
0000
0001
0000
1000
0000
0000
1000
0000
,
0000
0010
0000
1000
0000
0000
1000
0000
0000
0100
0000
0010
0000
0000
0010
0000
,
0000
0001
0000
1000
0000
0000
1000
0000
0000
0001
0000
0100
0000
0000
0200
0000
,
0000
0300
0000
0000
,
1001
0000
0000
0001
1000
0000
0010
0000
1000
0000
0000
0100
1000
0000
0100
0000
,
1000
0000
0000
0010
0100
0000
0010
0000
0100
0010
0100
0000
0001
0000
0010
0000
,
0001
0000
0000
0001
0010
0000
0100
0000
0010
0000
0000
0100
0010
0000
0001
0000
,
1000
0000
0000
0010
1000
0000
0010
0000
1000
0000
0000
1000
0100
0000
0100
0000
,
1000
0000
0000
0010
1000
0000
0010
0000
1000
0000
0000
0001
0100
0000
0001
0000
,
0100
0000
0000
1000
0100
0000
1000
0000
0100
0000
0000
0010
1000
0000
0010
0000
,
1000
0000
0000
0100
0010
0000
0100
0000
0010
0000
0001
0000
1000
0000
0010
0000
,
0100
0010
0100
0010
0100
0010
0100
0010
0100
0000
0010
0000
0110
0000
0100
0000
,
0001
0000
0000
0001
1000
0000
0100
0000
0010
0000
0001
0000
1000
0000
0010
0000
,
0100
0000
0000
0001
0100
0000
0001
0000
0100
0000
1000
0000
0100
0000
0001
0000
,
0011
0000
0000
0001
0010
0000
0100
0000
1000
0000
0010
0000
0100
0000
1000
0000
,
0100
0000
0000
1000
0100
0000
1000
0000
0100
0000
0000
0010
1000
0000
0010
0000
,
0110
0000
1000
0100
0010
0001
1000
0010
,
0100
0000
0001
1000
0100
0010
0001
0010
,
0011
0100
1000
0010
,
1000
0100
1000
0100
1000
0100
1000
0100
1000
0000
1100
0000
0100
0000
0000
0000
,
1010
0000
1000
0000
0010
0000
0000
0010
0100
0000
0001
0000
0001
0000
0000
0001
,
1000
0000
0100
0000
0100
0000
0000
1000
0010
0000
0100
0000
0100
0000
0000
1000
,
0100
0000
0001
0000
0001
0000
0000
1000
0001
0000
1000
0000
1000
0000
0000
0010
,
1000
0000
1000
0000
0100
0000
0000
0100
0010
0000
0001
0000
0010
0000
0100
0000
,
1000
0000
0010
0000
0100
0000
0000
0001
0000
1000
0001
0000
1000
0000
0000
0100
,
0000
0010
0001
0000
0010
0000
0000
0100
0000
1000
0010
0000
1000
0000
0000
0001
,
0100
0000
0001
0000
0100
0000
0000
1000
0100
0000
1000
0000
0100
0000
0010
0000
,
1000
0010
1000
0010
1000
0010
1000
0010
1000
0000
0010
0000
1000
0000
1000
0000
,
0001
0000
0100
0000
0001
0100
0000
0100
0000
0000
0100
0000
0001
0010
0000
0100
,
0000
0000
1000
0000
0001
1000
0000
1000
0000
0000
0010
0000
0100
0001
0000
0001
,
0000
0000
1000
0000
0100
0010
0000
0100
0000
0000
0100
0000
1000
0010
0000
0010
,
0000
0000
1000
0000
0001
0100
0000
0001
0000
0000
0100
0000
1000
0000
0100
0000
,
0101
0000
0001
0000
1000
0000
0000
0001
1000
0000
0100
0000
0010
0000
0000
0001
,
0010
0000
0100
0000
0100
0000
0000
0010
0100
0000
0100
0000
0100
0000
0000
1000
,
0010
0000
0000
1000
0001
0000
0000
1000
0100
0000
0000
1000
0001
0000
0000
1000
,
0010
0000
1000
0000
0010
0000
1000
0000
0010
0100
0010
0100
0010
0000
0000
0000
,
0102
0000
0000
0000
,
0000
0000
2000
3003
,
0110
0000
1001
0000
0000
0100
1000
0000
,
0010
0000
0100
0000
0011
0000
0000
1000
,
1100
0000
0010
0000
0101
0000
0000
0100
,
0011
0000
1000
0000
0101
0000
0000
1000
,
0001
0010
0100
2100
,
0000
0100
0000
0000
0000
0000
0000
0000
,
3010
0100
1010
1002
,
0000
0010
0000
0000
0000
0000
0000
0000
,
0003
0100
0001
0012
,
0000
1000
0000
0000
0000
0000
0000
0000
,
0000
0003
0000
0000
0010
0000
0000
0000
0110
0000
0000
0000
0102
0000
0000
0000
,
0000
1000
0000
0000
0000
0000
0003
0000
,
0100
0000
0000
0000
0100
0000
0001
1000
0001
0000
0000
0000
1000
0000
0100
1000
,
0100
0000
1000
0000
0010
0000
0100
0000
0001
0000
1000
0000
0001
0000
0000
0001
,
0010
0000
0100
0000
1000
0000
0010
0000
0100
0000
0001
0000
0010
0000
0001
0010
,
0001
0000
0010
0000
0100
0000
0010
0000
0001
0000
0100
0000
1000
0000
0000
1000
,
0100
0010
1000
0001
0010
0100
1000
0010
,
1000
0100
1000
0010
1000
0100
0010
0001
,
0100
0001
0010
0001
0100
0010
0110
0000
,
1001
0000
0000
0000
0110
0000
0000
0000
1001
0000
0000
0000
0001
0100
0001
0100
,
0001
0100
0001
0100
0001
0000
1000
0000
0010
0000
1000
0000
0100
0000
0100
0010
,
0001
0000
0010
0000
0100
0000
1000
0000
0001
0000
0100
0000
1000
0000
0000
1000
,
0100
0000
0010
0000
1000
0000
0100
0000
0010
0000
0001
0000
1000
0000
0100
1000
,
0100
0000
0010
0000
0001
0000
0100
0000
0010
0000
1000
0000
0001
0000
0000
0001
,
0010
0000
0100
0000
0001
0000
0100
0000
0010
0000
0001
0000
0010
0000
0000
0001
,
0010
0000
0100
0000
1000
0000
0010
0000
0100
0000
1000
0000
0100
0000
0000
1000
,
0100
0000
0010
0000
1000
0000
0010
0000
1000
0000
0100
0000
0010
0000
0001
0010
,
0001
0000
0010
0100
0010
0000
0100
1000
0100
0000
1000
0010
1000
0000
0010
0000
,
0100
0000
1000
0000
0100
0001
0100
0001
0100
0000
0001
0000
2000
0000
0000
0010
,
0000
0000
0000
0000
3000
0000
0001
0000
0100
0000
0010
0000
0020
0000
0000
0100
,
0000
0000
0000
0000
0030
0000
0000
0000
0100
0000
0010
0000
1010
0000
0000
1001
;
