#TITLE:HOUSE NATION;
#SUBTITLE:;
#ARTIST:ravex;
#TITLETRANSLIT:;
#SUBTITLETRANSLIT:;
#ARTISTTRANSLIT:;
#CREDIT:;
#BANNER:HOUSE NATION-bn.png;
#BACKGROUND:Title Card-bg.png;
#LYRICSPATH:;
#CDTITLE:;
#MUSIC:HOUSE NATION.mp3;
#OFFSET:-0.040;
#SAMPLESTART:13.140;
#SAMPLELENGTH:12.000;
#SELECTABLE:YES;
#BPMS:0.000=128.030;
#STOPS:;
#BGCHANGES:0.000=Black-bg.png=1.000=1=0=1,
4.000=HOUSE NATION-bg.png=1.000=0=0=1,
4.250=Black-bg.png=1.000=0=0=1,
4.500=HOUSE NATION-bg.png=1.000=0=0=1,
5.000=Black-bg.png=1.000=0=0=1,
5.750=HOUSE NATION-bg.png=1.000=0=0=1,
5.875=Black-bg.png=1.000=0=0=1,
6.000=HOUSE NATION-bg.png=1.000=0=0=1,
6.250=Black-bg.png=1.000=0=0=1,
6.500=HOUSE NATION-bg.png=1.000=0=0=1,
7.000=Black-bg.png=1.000=0=0=1,
7.500=HOUSE NATION-bg.png=1.000=0=0=1,
7.750=Black-bg.png=1.000=0=0=1,
8.000=HOUSE NATION-bg.png=1.000=0=0=1,
8.250=Black-bg.png=1.000=0=0=1,
8.500=HOUSE NATION-bg.png=1.000=0=0=1,
9.000=Black-bg.png=1.000=0=0=1,
9.750=HOUSE NATION-bg.png=1.000=0=0=1,
9.875=Black-bg.png=1.000=0=0=1,
10.000=HOUSE NATION-bg.png=1.000=0=0=1,
10.250=Black-bg.png=1.000=0=0=1,
10.500=HOUSE NATION-bg.png=1.000=0=0=1,
10.750=Black-bg.png=1.000=0=0=1,
11.000=HOUSE NATION-bg.png=1.000=0=0=1,
11.250=Black-bg.png=1.000=0=0=1,
12.000=HOUSE NATION-bg.png=1.000=0=0=1,
12.125=Black-bg.png=1.000=0=0=1,
12.250=HOUSE NATION-bg.png=1.000=0=0=1,
12.375=Black-bg.png=1.000=0=0=1,
12.500=HOUSE NATION-bg.png=1.000=0=0=1,
12.625=Black-bg.png=1.000=0=0=1,
12.750=HOUSE NATION-bg.png=1.000=0=0=1,
12.875=Black-bg.png=1.000=0=0=1,
13.000=HOUSE NATION-bg.png=1.000=0=0=1,
13.750=Black-bg.png=1.000=0=0=1,
14.000=HOUSE NATION-bg.png=1.000=0=0=1,
14.250=Black-bg.png=1.000=0=0=1,
14.500=HOUSE NATION-bg.png=1.000=0=0=1,
14.750=Black-bg.png=1.000=0=0=1,
15.250=HOUSE NATION-bg.png=1.000=0=0=1,
15.750=Black-bg.png=1.000=0=0=1,
16.000=HOUSE NATION-bg.png=1.000=0=0=1,
16.750=Black-bg.png=1.000=0=0=1,
17.000=HOUSE NATION-bg.png=1.000=0=0=1,
17.250=Black-bg.png=1.000=0=0=1,
17.500=HOUSE NATION-bg.png=1.000=0=0=1,
17.625=Black-bg.png=1.000=0=0=1,
17.750=HOUSE NATION-bg.png=1.000=0=0=1,
17.875=Black-bg.png=1.000=0=0=1,
18.000=HOUSE NATION-bg.png=1.000=0=0=1,
18.250=Black-bg.png=1.000=0=0=1,
18.500=HOUSE NATION-bg.png=1.000=0=0=1,
18.750=Black-bg.png=1.000=0=0=1,
19.000=HOUSE NATION-bg.png=1.000=0=0=1,
19.167=Black-bg.png=1.000=0=0=1,
19.333=HOUSE NATION-bg.png=1.000=0=0=1,
19.500=Black-bg.png=1.000=0=0=1,
19.667=HOUSE NATION-bg.png=1.000=0=0=1,
19.833=Black-bg.png=1.000=0=0=1,
20.000=HOUSE NATION-bg.png=1.000=0=0=1,
20.250=Black-bg.png=1.000=0=0=1,
20.500=HOUSE NATION-bg.png=1.000=0=0=1,
21.000=Black-bg.png=1.000=0=0=1,
21.750=HOUSE NATION-bg.png=1.000=0=0=1,
21.875=Black-bg.png=1.000=0=0=1,
22.000=HOUSE NATION-bg.png=1.000=0=0=1,
22.250=Black-bg.png=1.000=0=0=1,
22.500=HOUSE NATION-bg.png=1.000=0=0=1,
23.000=Black-bg.png=1.000=0=0=1,
23.500=HOUSE NATION-bg.png=1.000=0=0=1,
23.750=Black-bg.png=1.000=0=0=1,
24.000=HOUSE NATION-bg.png=1.000=0=0=1,
24.500=Black-bg.png=1.000=0=0=1,
25.000=HOUSE NATION-bg.png=1.000=0=0=1,
25.500=Black-bg.png=1.000=0=0=1,
25.750=HOUSE NATION-bg.png=1.000=0=0=1,
26.000=Black-bg.png=1.000=0=0=1,
26.250=HOUSE NATION-bg.png=1.000=0=0=1,
26.500=Black-bg.png=1.000=0=0=1,
26.750=HOUSE NATION-bg.png=1.000=0=0=1,
27.000=Black-bg.png=1.000=0=0=1,
27.250=HOUSE NATION-bg.png=1.000=0=0=1,
27.500=Black-bg.png=1.000=0=0=1,
27.750=HOUSE NATION-bg.png=1.000=0=0=1,
28.000=-random-=1.000=0=0=1,
60.000=HOUSE NATION-bg.png=1.000=0=0=1,
60.250=Black-bg.png=1.000=0=0=1,
60.500=HOUSE NATION-bg.png=1.000=0=0=1,
61.000=Black-bg.png=1.000=0=0=1,
61.250=HOUSE NATION-bg.png=1.000=0=0=1,
61.500=Black-bg.png=1.000=0=0=1,
62.000=HOUSE NATION-bg.png=1.000=0=0=1,
62.250=Black-bg.png=1.000=0=0=1,
62.500=HOUSE NATION-bg.png=1.000=0=0=1,
63.000=Black-bg.png=1.000=0=0=1,
63.250=HOUSE NATION-bg.png=1.000=0=0=1,
64.000=Black-bg.png=1.000=0=0=1,
64.500=HOUSE NATION-bg.png=1.000=0=0=1,
65.000=Black-bg.png=1.000=0=0=1,
65.500=HOUSE NATION-bg.png=1.000=0=0=1,
66.000=Black-bg.png=1.000=0=0=1,
66.500=HOUSE NATION-bg.png=1.000=0=0=1,
67.000=Black-bg.png=1.000=0=0=1,
68.000=-random-=1.000=0=0=1,
82.000=HOUSE NATION-bg.png=1.000=0=0=1,
82.500=-random-=1.000=0=0=1,
82.750=HOUSE NATION-bg.png=1.000=0=0=1,
83.500=Black-bg.png=1.000=0=0=1,
84.000=-random-=1.000=0=0=1,
96.000=HOUSE NATION-bg.png=1.000=0=0=1,
96.500=-random-=1.000=0=0=1,
97.000=HOUSE NATION-bg.png=1.000=0=0=1,
97.500=-random-=1.000=0=0=1,
98.000=HOUSE NATION-bg.png=1.000=0=0=1,
98.500=Black-bg.png=1.000=0=0=1,
98.750=HOUSE NATION-bg.png=1.000=0=0=1,
99.250=Black-bg.png=1.000=0=0=1,
99.500=HOUSE NATION-bg.png=1.000=0=0=1,
99.750=Black-bg.png=1.000=0=0=1,
100.000=-random-=1.000=0=0=1,
109.000=HOUSE NATION-bg.png=1.000=0=0=1,
110.000=-random-=1.000=0=0=1,
111.000=HOUSE NATION-bg.png=1.000=0=0=1,
112.000=-random-=1.000=0=0=1,
113.000=HOUSE NATION-bg.png=1.000=0=0=1,
114.000=-random-=1.000=0=0=1,
116.000=-random-=1.000=0=0=1,
123.500=HOUSE NATION-bg.png=1.000=0=0=1,
124.000=-random-=1.000=0=0=1,
124.500=HOUSE NATION-bg.png=1.000=0=0=1,
125.000=-random-=1.000=0=0=1,
125.500=HOUSE NATION-bg.png=1.000=0=0=1,
126.000=-random-=1.000=0=0=1,
126.500=HOUSE NATION-bg.png=1.000=0=0=1,
127.000=-random-=1.000=0=0=1,
127.500=HOUSE NATION-bg.png=1.000=0=0=1,
127.750=-random-=1.000=0=0=1,
128.000=HOUSE NATION-bg.png=1.000=0=0=1,
128.250=-random-=1.000=0=0=1,
128.500=HOUSE NATION-bg.png=1.000=0=0=1,
128.750=-random-=1.000=0=0=1,
129.000=HOUSE NATION-bg.png=1.000=0=0=1,
132.000=-random-=1.000=0=0=1,
141.000=HOUSE NATION-bg.png=1.000=0=0=1,
142.000=-random-=1.000=0=0=1,
143.000=HOUSE NATION-bg.png=1.000=0=0=1,
144.000=-random-=1.000=0=0=1,
145.000=HOUSE NATION-bg.png=1.000=0=0=1,
146.000=-random-=1.000=0=0=1,
156.000=HOUSE NATION-bg.png=1.000=0=0=1,
156.500=Black-bg.png=1.000=0=0=1,
158.000=HOUSE NATION-bg.png=1.000=0=0=1,
158.500=Black-bg.png=1.000=0=0=1,
160.000=HOUSE NATION-bg.png=1.000=0=0=1,
160.500=Black-bg.png=1.000=0=0=1,
161.000=HOUSE NATION-bg.png=1.000=0=0=1,
161.250=Black-bg.png=1.000=0=0=1,
161.500=HOUSE NATION-bg.png=1.000=0=0=1,
161.750=Black-bg.png=1.000=0=0=1,
162.000=HOUSE NATION-bg.png=1.000=0=0=1,
162.500=Black-bg.png=1.000=0=0=1,
162.750=HOUSE NATION-bg.png=1.000=0=0=1,
163.250=Black-bg.png=1.000=0=0=1,
163.500=HOUSE NATION-bg.png=1.000=0=0=1,
164.000=-random-=1.000=0=0=1,
195.000=HOUSE NATION-bg.png=1.000=0=0=1,
196.000=-random-=1.000=0=0=1,
224.000=HOUSE NATION-bg.png=1.000=0=0=1,
228.000=Black-bg.png=1.000=1=0=1,
99999=-nosongbg-=1.000=0=0=0 // don't automatically add -songbackground-
;

//---------------dance-single - NEMESetup----------------
#NOTES:
     dance-single:
     NEMESetup:
     Hard:
     7:
     0.452,0.490,0.396,0.189,0.056: // measure 1
0000
0000
0000
0000
,  // measure 2
1000
0000
1000
0000
0000
0000
0000
0100
1000
0000
1000
0000
0000
0000
0110
0000
,  // measure 3
1000
0000
1000
0000
0001
0000
0000
1000
0001
0000
0100
0000
0100
0000
0000
0000
,  // measure 4
0001
0100
0001
0100
0020
0000
0000
0000
1030
0000
1000
0000
0000
1000
0000
0000
,  // measure 5
1000
0000
0000
0001
1000
0000
1000
0001
0010
0000
0010
0000
0200
0000
0000
0000
,  // measure 6
1300
0000
0010
0000
0000
0000
0000
0100
0001
0000
0010
0000
0000
0000
0100
0000
,  // measure 7
0010
0100
1000
0100
0001
0100
0100
0000
,  // measure 8
1001
1000
0000
0001
0000
0100
0010
0100
,  // measure 9
0002
0010
1003
1001
,  // measure 10
0001
0010
0000
0001
0000
0200
0000
0000
,  // measure 11
0310
0010
0110
0100
,  // measure 12
0010
1000
0000
0001
0000
0010
0100
1000
,  // measure 13
0200
0001
1300
1100
,  // measure 14
0100
0100
0000
0010
0000
0001
0000
0001
,  // measure 15
1000
1000
2000
0000
0020
0000
3030
0000
,  // measure 16
0100
0000
0010
0000
0000
0010
0000
0000
0100
0000
0010
0000
0000
0010
0000
0000
,  // measure 17
0100
0010
0100
0010
0100
0010
0200
0000
,  // measure 18
0301
1000
1010
0000
0100
0000
0001
0100
,  // measure 19
0001
0001
0001
0000
1000
0000
1001
0000
,  // measure 20
1000
1100
1000
0110
,  // measure 21
1001
0000
0000
0000
0100
0000
0000
0000
0001
0000
0100
2000
0000
0000
3100
0000
,  // measure 22
0000
0001
0011
0000
0100
0000
1000
0100
,  // measure 23
1000
1000
1000
0000
0001
0000
1001
0000
,  // measure 24
0001
0101
0001
0110
,  // measure 25
1000
0000
0001
0000
1000
0000
0001
0000
0110
0000
0000
1001
0000
0000
0110
0000
,  // measure 26
1001
1000
0001
0001
1000
0000
0100
0000
,  // measure 27
0100
0010
0001
0001
0020
0000
0130
0000
,  // measure 28
0010
0010
0100
0100
1000
0000
0001
0000
,  // measure 29
0001
1000
0010
0000
0100
0000
0110
0000
,  // measure 30
1000
0000
1000
0100
0001
0000
0100
0000
,  // measure 31
1000
0001
0010
0000
0100
0000
0100
1000
,  // measure 32
0100
1000
0100
0001
0100
0001
0100
0001
,  // measure 33
0100
1000
0020
0000
0000
0000
0030
0000
,  // measure 34
0110
0010
0100
0100
0001
0000
1000
0100
,  // measure 35
0000
0001
0100
1000
0020
0000
0130
0000
,  // measure 36
1000
0001
1000
0001
1000
1000
0100
0100
,  // measure 37
0010
0000
0110
0000
0010
0001
1100
0000
,  // measure 38
0010
0001
0010
0001
1000
1000
0100
0000
,  // measure 39
1000
0011
1000
0100
,  // measure 40
2001
3010
1002
0013
,  // measure 41
1001
0000
0000
0000
1001
0000
0100
0000
1100
0000
0000
0101
0000
0000
0110
0000
,  // measure 42
1001
0001
0000
1000
0000
0100
1000
0100
,  // measure 43
0120
0100
0031
0011
,  // measure 44
1000
0010
0000
1000
0000
0200
0001
0300
,  // measure 45
0110
0011
1100
0100
,  // measure 46
1000
0010
0000
1000
0000
0100
0001
0100
,  // measure 47
0020
0001
0130
1100
,  // measure 48
0100
0100
0000
0010
0000
0100
0000
1000
,  // measure 49
0001
0001
0002
0000
1003
0000
0110
0000
,  // measure 50
1001
1000
0000
0001
0000
0010
0001
0010
,  // measure 51
0210
0010
1300
1100
,  // measure 52
0001
0100
0000
0001
0000
0020
1000
0030
,  // measure 53
0110
1100
0011
0010
,  // measure 54
0001
0100
0000
0001
0000
0010
1000
0010
,  // measure 55
0200
1000
0310
0011
,  // measure 56
0010
0010
0000
0100
0000
0010
0000
0001
,  // measure 57
0200
0000
0300
0000
,  // measure 58
0110
0000
0000
0000
;

//---------------dance-single - NEMESetup----------------
#NOTES:
     dance-single:
     NEMESetup:
     Beginner:
     2:
     0.152,0.196,0.077,0.043,0.000:
0000
0000
0000
0000
,
1000
0000
0000
0000
,
1000
0000
0000
0000
,
0002
0003
0001
0000
,
0001
0000
0000
0100
,
0100
0000
0000
0000
,
0100
0000
0010
0000
,
1001
0000
0000
0000
,
0001
0000
0001
0000
,
1000
0000
0000
0000
,
1000
0000
1000
0000
,
0001
0000
0000
0000
,
0010
0000
0010
0000
,
0100
0000
0000
0000
,
0200
0000
0300
0000
,
0100
0000
0100
0000
,
0010
0010
0010
0000
,
0110
0000
1000
0000
,
0001
0000
0100
0000
,
0001
0000
0000
0000
,
0001
0000
1000
1000
,
0000
0000
0010
0000
,
0010
0000
0100
0000
,
1000
0000
0000
0000
,
1000
0000
0001
0001
,
0001
0000
1000
0000
,
0001
0000
1000
0000
,
0100
0000
0010
0000
,
0100
0000
0010
0000
,
1000
0000
0001
0000
,
1000
0000
0001
0000
,
0001
0001
0001
0001
,
0002
0000
0003
0000
,
0010
0000
0100
0000
,
0010
0000
0100
0000
,
1000
0000
0001
0000
,
1000
0000
0001
0000
,
0100
0000
0010
0000
,
0100
0000
0010
0000
,
0110
0000
1001
0000
,
0110
0000
1001
0000
,
1001
0000
1000
0000
,
0010
0010
0010
0000
,
1000
0000
0001
0000
,
0100
0100
0100
0000
,
1000
0000
0001
0000
,
0010
0010
0010
0000
,
0200
0000
0300
0000
,
1000
1000
1000
0000
,
1001
0000
0001
0000
,
1000
1000
1000
0000
,
0010
0000
0100
0000
,
0001
0001
0001
0000
,
0010
0000
0100
0000
,
1000
1000
1000
0000
,
0002
0000
0003
0000
,
0100
0000
0000
0000
,
0110
0000
0000
0000
;

//---------------dance-single - NEMESetup----------------
#NOTES:
     dance-single:
     NEMESetup:
     Easy:
     4:
     0.300,0.319,0.181,0.241,0.000:
0000
0000
0000
0000
,
1000
0000
0001
0000
,
1000
0000
0100
0000
,
0020
0030
0010
0000
,
1000
0000
1000
0001
,
1000
0000
0100
0000
,
0010
0000
0100
0100
,
1001
0000
0001
0100
,
0020
0100
0100
0130
,
1000
0000
0001
1000
,
0200
0010
0310
0000
,
1000
0000
0001
1000
,
0002
1000
1000
1003
,
1000
0000
0010
0000
,
0100
0010
0020
0030
,
2000
0000
3200
0000
,
2300
0001
0002
3003
,
1001
1000
0001
1000
,
0001
1000
0001
0001
,
0100
0010
0100
0010
,
0100
0010
2000
0000
,
3001
1000
0001
1000
,
0001
1000
0001
0001
,
0010
0100
0010
0100
,
0020
0000
0100
0130
,
1001
0100
0001
0100
,
1000
0100
0001
0100
,
0010
2000
3010
0200
,
0301
0020
0130
0001
,
0100
1000
0100
0010
,
0100
1000
0100
0010
,
0001
0011
0001
0011
,
0001
0002
0003
0000
,
1001
0001
1000
0001
,
1000
0001
1000
0001
,
0100
0020
1030
0002
,
0103
2000
3100
0020
,
1030
0100
0010
0100
,
1000
0100
0010
0001
,
0011
0000
1100
0000
,
0101
0010
0110
1001
,
1100
0001
0100
0010
,
2000
0001
3001
1001
,
1000
0001
0100
0010
,
0200
0010
0310
0110
,
0001
1000
0001
0010
,
0200
1000
1300
1100
,
1000
0001
0100
0010
,
0200
0010
0310
0000
,
1001
0001
1000
0010
,
0020
1000
1030
1010
,
1000
0001
0100
0001
,
0002
0010
0013
0011
,
0001
1000
0100
0010
,
0200
0010
0310
0110
,
0100
1000
0010
0100
,
0202
0000
0303
0000
,
1001
0000
0000
0000
;

//---------------dance-single - NEMESetup----------------
#NOTES:
     dance-single:
     NEMESetup:
     Medium:
     6:
     0.376,0.368,0.370,0.138,0.013: // measure 1
0000
0000
0000
0000
,  // measure 2
1000
1000
0000
0000
0001
0001
0000
0000
,  // measure 3
1000
1000
0000
0000
0001
0001
0001
0000
,  // measure 4
2000
0000
3010
0000
0100
0100
0000
0000
,  // measure 5
1000
0000
0001
0000
0100
0001
1000
0000
,  // measure 6
0001
0000
0011
0000
1000
1000
0000
0001
,  // measure 7
0100
0000
0001
0000
1000
0010
0100
0001
,  // measure 8
1001
0000
0100
0000
1000
0000
0010
0100
,  // measure 9
0020
1000
0130
0101
,  // measure 10
1000
0001
1000
0100
,  // measure 11
0020
0001
0130
1100
,  // measure 12
0100
0000
0010
0000
0001
0000
0010
0001
,  // measure 13
0200
0010
0301
0011
,  // measure 14
1000
0001
0100
0010
,  // measure 15
1000
0010
2000
0000
0002
0000
3003
0000
,  // measure 16
1000
0000
0001
0000
,  // measure 17
1000
1000
1000
1002
,  // measure 18
1003
0110
1000
0101
,  // measure 19
1000
0000
0011
0000
0100
0000
0001
0010
,  // measure 20
0100
0110
1000
0101
,  // measure 21
1000
0000
0000
0000
0011
0000
0000
0000
0001
0000
0000
0001
0000
0000
0100
0000
,  // measure 22
0010
0110
0001
1010
,  // measure 23
0001
0000
1100
0000
0001
0000
0001
0100
,  // measure 24
0010
1010
0001
1100
,  // measure 25
0010
0000
0000
0000
0110
0000
0000
0000
1000
0000
0000
1000
0000
0000
1000
0000
,  // measure 26
1001
0000
0001
0100
0010
0000
1000
0000
,  // measure 27
0100
0000
0010
0001
1000
0000
0001
0000
,  // measure 28
0100
0101
1000
1010
,  // measure 29
0010
0110
0001
1100
,  // measure 30
0001
0000
1000
0010
0100
0000
0001
0000
,  // measure 31
1000
0001
0010
0000
0100
0000
1000
0010
,  // measure 32
0000
0110
0000
0001
0000
1001
0000
0001
,  // measure 33
0100
0010
0200
0000
0000
0000
0300
0000
,  // measure 34
1000
0000
0100
0010
0001
0000
1000
0000
,  // measure 35
0001
0000
0100
0010
1000
0000
0100
0000
,  // measure 36
1000
1001
0100
0011
,  // measure 37
1000
1100
0010
0101
,  // measure 38
0100
0010
1000
0000
0001
0000
0100
0000
,  // measure 39
0001
1000
1000
1000
,  // measure 40
0110
0000
1001
0000
,  // measure 41
0011
0000
0000
0000
1100
0000
0000
0000
0110
0000
0000
0100
0000
0000
0010
0000
,  // measure 42
1001
0001
0000
1000
0000
0010
0000
0100
,  // measure 43
0002
0100
0013
1010
,  // measure 44
1000
0100
0000
0010
0000
0001
0000
1000
,  // measure 45
0020
0100
0031
0011
,  // measure 46
1000
0100
0000
0010
0000
0001
1000
0010
,  // measure 47
2000
0100
3010
1010
,  // measure 48
1000
1000
0000
0001
0000
0100
0000
0010
,  // measure 49
0200
0010
0010
0000
0310
0000
0000
0000
,  // measure 50
0110
0010
0000
1000
0000
0010
0100
0000
,  // measure 51
0002
0010
0103
0101
,  // measure 52
0001
1000
0000
0010
0000
0010
1000
0000
,  // measure 53
0200
0010
1300
1100
,  // measure 54
1000
0001
0000
1000
0000
1000
0010
0100
,  // measure 55
0002
0010
1003
1001
,  // measure 56
1000
1000
0000
0010
0000
0100
0000
0001
,  // measure 57
0002
0000
0003
0000
,  // measure 58
1001
0000
0000
0000
;

//---------------dance-single - NEMESetup----------------
#NOTES:
     dance-single:
     NEMESetup:
     Challenge:
     9:
     0.581,0.637,0.576,0.353,0.103: // measure 1
0000
0000
0000
0000
,  // measure 2
1000
0000
1000
0000
1100
0000
0000
0001
1000
0000
1100
0000
1000
0000
0110
0000
,  // measure 3
0001
0000
0001
0000
0101
0000
0000
1000
0001
0000
0100
0000
0100
0000
0000
0000
,  // measure 4
0001
1000
0001
0001
0020
0000
0030
0100
0010
0000
0010
0000
0000
0010
0000
0000
,  // measure 5
0010
0000
0000
0000
0000
0000
0000
0000
0000
0001
0000
0000
0010
0000
0000
0000
0000
0000
0001
0000
0000
1000
0000
0000
0010
0000
0000
0000
0000
0000
0010
0000
0000
0000
0000
0000
1000
0000
0000
0000
0100
0000
0000
0000
0010
0000
0000
0000
,  // measure 6
0001
0000
0021
0000
0130
0000
0000
0100
1000
0000
1020
0000
0030
0000
0100
0000
,  // measure 7
0110
0000
0010
0000
0100
0000
0001
1000
0100
1000
0100
0010
0001
0100
0001
1000
,  // measure 8
0010
0100
0110
1000
0100
0010
0011
0001
,  // measure 9
0202
0010
1000
1313
,  // measure 10
0100
1000
1100
0010
1000
0001
0011
0000
,  // measure 11
2000
0200
0001
3300
,  // measure 12
1000
0001
1001
0100
0010
0001
0101
0100
,  // measure 13
0220
1000
0001
1331
,  // measure 14
0100
0100
0000
0010
0000
0100
0000
0001
,  // measure 15
1000
1000
2000
0000
0002
0020
3033
0000
,  // measure 16
1000
0000
0010
0000
0100
0010
0000
0000
1000
0000
0010
0000
0100
0010
0000
0000
,  // measure 17
1000
0000
0010
0000
1000
0000
0010
0000
2000
0000
0020
0000
0001
3030
0000
0000
,  // measure 18
1000
0100
0110
0000
0100
0000
0001
0100
,  // measure 19
1000
1000
1000
0000
0001
0000
0110
0000
,  // measure 20
1001
1100
0001
0110
,  // measure 21
1001
0000
0000
0000
1100
0000
0000
0000
0001
0000
0200
0002
0000
0000
0010
0303
,  // measure 22
0000
0100
0110
0000
0100
0000
1000
0100
,  // measure 23
0001
0001
0001
0000
1000
0000
0110
0000
,  // measure 24
1001
0101
1000
0110
,  // measure 25
0001
0000
0001
0000
0100
0000
0100
0000
1001
0000
0100
0010
0000
0000
0110
0000
,  // measure 26
1001
0001
0010
1000
0001
0100
1000
0001
,  // measure 27
1000
0010
0100
1000
0001
0010
0100
0001
,  // measure 28
0010
1000
0002
0103
1000
0100
0020
0031
,  // measure 29
0100
1000
0002
0013
1000
0001
0010
1000
,  // measure 30
0010
0100
1000
0010
0001
1000
0100
0001
,  // measure 31
0010
1000
0001
0100
1000
0100
0001
0101
,  // measure 32
0100
0110
0100
1100
0100
0110
0100
0001
,  // measure 33
2000
0020
0002
0000
0000
3033
0000
0000
,  // measure 34
1001
1000
0100
0001
1000
0010
0001
1000
,  // measure 35
0001
0100
0010
0001
1000
0100
0010
1000
,  // measure 36
0100
0001
2000
3010
0001
0010
0200
1300
,  // measure 37
0010
0001
2000
3100
0001
1000
0100
0001
,  // measure 38
0100
0010
0001
0100
1000
0001
0010
1000
,  // measure 39
0100
0010
1000
0001
0100
1000
0010
0100
,  // measure 40
2002
0000
0110
3003
,  // measure 41
1001
0000
0000
0000
1000
0000
0001
0000
0101
0000
0000
1100
0000
0000
0110
0000
,  // measure 42
1001
0001
0101
0010
1000
0001
1001
1000
,  // measure 43
2200
0010
0001
3311
,  // measure 44
1000
0100
0101
0100
1000
0001
0011
0000
,  // measure 45
0001
0000
0000
0100
0001
0000
0000
1000
0001
0000
0000
0100
0001
0000
0001
0000
,  // measure 46
0100
1000
1100
0100
0001
0010
1010
0010
,  // measure 47
0220
1000
0001
1331
,  // measure 48
0100
0100
0000
0010
0000
0100
0000
0100
,  // measure 49
1000
2000
0002
0000
3013
0000
1001
0000
,  // measure 50
0110
0100
0101
0001
1000
0100
1100
0001
,  // measure 51
0202
0010
1000
1313
,  // measure 52
0001
1000
1010
0010
0100
0001
1001
0100
,  // measure 53
0020
0200
0001
0330
,  // measure 54
0100
0001
0101
0001
0010
1000
1010
0010
,  // measure 55
0220
0001
1000
1331
,  // measure 56
0100
0100
0000
0010
0000
0100
0000
0100
,  // measure 57
1000
2000
0002
0000
0010
0000
3003
0000
,  // measure 58
0110
0000
0000
0000
;
