#TITLE:HELL SCAPER;
#SUBTITLE:-Last Escape Remix-;
#ARTIST:DJ TECHNORCH fw. GUHROOVY;
#TITLETRANSLIT:;
#SUBTITLETRANSLIT:;
#ARTISTTRANSLIT:;
#CREDIT:;
#BANNER:HELL SCAPER -Last Escape Remix-bn.png;
#BACKGROUND:Title Card-bg.png;
#LYRICSPATH:;
#CDTITLE:NEMESetupLOGO.PNG;
#MUSIC:HELL SCAPER -Last Escape Remix- .mp3;
#OFFSET:-9.103;
#SAMPLESTART:72.760;
#SAMPLELENGTH:12.000;
#SELECTABLE:YES;
#DISPLAYBPM:180.000;
#BPMS:0.000=180.020;
#STOPS:168.000=5.080
,171.000=0.440
,171.500=1.180
;
#BGCHANGES:0.000=Black-bg.png=1.000=1=0=1,
4.000=HELL SCAPER -Last Escape Remix-bg.png=1.000=0=0=1,
8.000=-random-=1.000=0=0=1,
14.000=HELL SCAPER -Last Escape Remix-bg.png=1.000=0=0=1,
14.500=-random-=1.000=0=0=1,
15.000=HELL SCAPER -Last Escape Remix-bg.png=1.000=0=0=1,
16.000=-random-=1.000=0=0=1,
22.000=HELL SCAPER -Last Escape Remix-bg.png=1.000=0=0=1,
22.250=-random-=1.000=0=0=1,
22.500=HELL SCAPER -Last Escape Remix-bg.png=1.000=0=0=1,
22.750=-random-=1.000=0=0=1,
23.000=HELL SCAPER -Last Escape Remix-bg.png=1.000=0=0=1,
24.000=-random-=1.000=0=0=1,
30.000=HELL SCAPER -Last Escape Remix-bg.png=1.000=0=0=1,
30.500=-random-=1.000=0=0=1,
31.000=HELL SCAPER -Last Escape Remix-bg.png=1.000=0=0=1,
32.000=-random-=1.000=0=0=1,
36.000=HELL SCAPER -Last Escape Remix-bg.png=1.000=0=0=1,
40.000=-random-=1.000=0=0=1,
44.000=HELL SCAPER -Last Escape Remix-bg.png=1.000=0=0=1,
44.250=Black-bg.png=1.000=0=0=1,
44.500=HELL SCAPER -Last Escape Remix-bg.png=1.000=0=0=1,
44.625=Black-bg.png=1.000=0=0=1,
44.750=HELL SCAPER -Last Escape Remix-bg.png=1.000=0=0=1,
44.875=Black-bg.png=1.000=0=0=1,
45.000=HELL SCAPER -Last Escape Remix-bg.png=1.000=0=0=1,
45.125=Black-bg.png=1.000=0=0=1,
45.250=HELL SCAPER -Last Escape Remix-bg.png=1.000=0=0=1,
45.375=Black-bg.png=1.000=0=0=1,
45.500=HELL SCAPER -Last Escape Remix-bg.png=1.000=0=0=1,
45.625=Black-bg.png=1.000=0=0=1,
45.750=HELL SCAPER -Last Escape Remix-bg.png=1.000=0=0=1,
45.875=Black-bg.png=1.000=0=0=1,
46.000=HELL SCAPER -Last Escape Remix-bg.png=1.000=0=0=1,
46.500=Black-bg.png=1.000=0=0=1,
47.000=HELL SCAPER -Last Escape Remix-bg.png=1.000=0=0=1,
48.000=-random-=1.000=0=0=1,
52.000=HELL SCAPER -Last Escape Remix-bg.png=1.000=0=0=1,
52.375=Black-bg.png=1.000=0=0=1,
52.750=HELL SCAPER -Last Escape Remix-bg.png=1.000=0=0=1,
53.000=Black-bg.png=1.000=0=0=1,
53.250=HELL SCAPER -Last Escape Remix-bg.png=1.000=0=0=1,
53.500=Black-bg.png=1.000=0=0=1,
53.750=HELL SCAPER -Last Escape Remix-bg.png=1.000=0=0=1,
53.875=Black-bg.png=1.000=0=0=1,
54.000=HELL SCAPER -Last Escape Remix-bg.png=1.000=0=0=1,
54.500=Black-bg.png=1.000=0=0=1,
55.000=HELL SCAPER -Last Escape Remix-bg.png=1.000=0=0=1,
56.000=-random-=1.000=0=0=1,
60.000=HELL SCAPER -Last Escape Remix-bg.png=1.000=0=0=1,
60.125=Black-bg.png=1.000=0=0=1,
60.250=HELL SCAPER -Last Escape Remix-bg.png=1.000=0=0=1,
60.375=Black-bg.png=1.000=0=0=1,
60.500=HELL SCAPER -Last Escape Remix-bg.png=1.000=0=0=1,
60.625=Black-bg.png=1.000=0=0=1,
60.750=HELL SCAPER -Last Escape Remix-bg.png=1.000=0=0=1,
60.875=Black-bg.png=1.000=0=0=1,
61.000=HELL SCAPER -Last Escape Remix-bg.png=1.000=0=0=1,
61.250=Black-bg.png=1.000=0=0=1,
61.500=HELL SCAPER -Last Escape Remix-bg.png=1.000=0=0=1,
61.750=Black-bg.png=1.000=0=0=1,
62.000=HELL SCAPER -Last Escape Remix-bg.png=1.000=0=0=1,
62.500=Black-bg.png=1.000=0=0=1,
63.000=HELL SCAPER -Last Escape Remix-bg.png=1.000=0=0=1,
64.000=-random-=1.000=0=0=1,
68.000=HELL SCAPER -Last Escape Remix-bg.png=1.000=0=0=1,
71.000=HELL SCAPER -Last Escape Remix-bg.png=1.000=0=0=1,
71.250=Black-bg.png=1.000=0=0=1,
71.500=HELL SCAPER -Last Escape Remix-bg.png=1.000=0=0=1,
71.750=Black-bg.png=1.000=0=0=1,
72.000=HELL SCAPER -Last Escape Remix-bg.png=1.000=0=0=1,
72.500=-random-=1.000=0=0=1,
94.000=HELL SCAPER -Last Escape Remix-bg.png=1.000=0=0=1,
94.500=Black-bg.png=1.000=0=0=1,
94.750=HELL SCAPER -Last Escape Remix-bg.png=1.000=0=0=1,
95.250=Black-bg.png=1.000=0=0=1,
95.500=HELL SCAPER -Last Escape Remix-bg.png=1.000=0=0=1,
96.000=-random-=1.000=0=0=1,
100.000=HELL SCAPER -Last Escape Remix-bg.png=1.000=0=0=1,
104.000=-random-=1.000=0=0=1,
126.000=HELL SCAPER -Last Escape Remix-bg.png=1.000=0=0=1,
126.500=Black-bg.png=1.000=0=0=1,
126.750=HELL SCAPER -Last Escape Remix-bg.png=1.000=0=0=1,
127.250=Black-bg.png=1.000=0=0=1,
127.500=HELL SCAPER -Last Escape Remix-bg.png=1.000=0=0=1,
128.000=-random-=1.000=0=0=1,
136.000=HELL SCAPER -Last Escape Remix-bg.png=1.000=0=0=1,
136.250=Black-bg.png=1.000=0=0=1,
136.500=HELL SCAPER -Last Escape Remix-bg.png=1.000=0=0=1,
136.750=Black-bg.png=1.000=0=0=1,
137.000=HELL SCAPER -Last Escape Remix-bg.png=1.000=0=0=1,
137.250=Black-bg.png=1.000=0=0=1,
137.500=HELL SCAPER -Last Escape Remix-bg.png=1.000=0=0=1,
137.750=Black-bg.png=1.000=0=0=1,
138.000=HELL SCAPER -Last Escape Remix-bg.png=1.000=0=0=1,
138.250=Black-bg.png=1.000=0=0=1,
138.500=HELL SCAPER -Last Escape Remix-bg.png=1.000=0=0=1,
138.750=Black-bg.png=1.000=0=0=1,
139.000=HELL SCAPER -Last Escape Remix-bg.png=1.000=0=0=1,
139.250=Black-bg.png=1.000=0=0=1,
139.500=HELL SCAPER -Last Escape Remix-bg.png=1.000=0=0=1,
139.750=Black-bg.png=1.000=0=0=1,
140.000=HELL SCAPER -Last Escape Remix-bg.png=1.000=0=0=1,
140.250=Black-bg.png=1.000=0=0=1,
140.500=HELL SCAPER -Last Escape Remix-bg.png=1.000=0=0=1,
140.750=Black-bg.png=1.000=0=0=1,
141.000=HELL SCAPER -Last Escape Remix-bg.png=1.000=0=0=1,
141.250=Black-bg.png=1.000=0=0=1,
141.500=HELL SCAPER -Last Escape Remix-bg.png=1.000=0=0=1,
141.750=Black-bg.png=1.000=0=0=1,
142.000=HELL SCAPER -Last Escape Remix-bg.png=1.000=0=0=1,
142.250=Black-bg.png=1.000=0=0=1,
142.500=HELL SCAPER -Last Escape Remix-bg.png=1.000=0=0=1,
142.750=Black-bg.png=1.000=0=0=1,
143.000=HELL SCAPER -Last Escape Remix-bg.png=1.000=0=0=1,
143.250=Black-bg.png=1.000=0=0=1,
143.500=HELL SCAPER -Last Escape Remix-bg.png=1.000=0=0=1,
143.750=Black-bg.png=1.000=0=0=1,
144.000=HELL SCAPER -Last Escape Remix-bg.png=1.000=0=0=1,
144.250=Black-bg.png=1.000=0=0=1,
144.500=HELL SCAPER -Last Escape Remix-bg.png=1.000=0=0=1,
144.750=Black-bg.png=1.000=0=0=1,
145.000=HELL SCAPER -Last Escape Remix-bg.png=1.000=0=0=1,
145.250=Black-bg.png=1.000=0=0=1,
145.500=HELL SCAPER -Last Escape Remix-bg.png=1.000=0=0=1,
145.750=Black-bg.png=1.000=0=0=1,
146.000=HELL SCAPER -Last Escape Remix-bg.png=1.000=0=0=1,
146.250=Black-bg.png=1.000=0=0=1,
146.500=HELL SCAPER -Last Escape Remix-bg.png=1.000=0=0=1,
146.750=Black-bg.png=1.000=0=0=1,
147.000=HELL SCAPER -Last Escape Remix-bg.png=1.000=0=0=1,
147.250=Black-bg.png=1.000=0=0=1,
147.500=HELL SCAPER -Last Escape Remix-bg.png=1.000=0=0=1,
147.750=Black-bg.png=1.000=0=0=1,
148.000=HELL SCAPER -Last Escape Remix-bg.png=1.000=0=0=1,
148.250=Black-bg.png=1.000=0=0=1,
148.500=HELL SCAPER -Last Escape Remix-bg.png=1.000=0=0=1,
148.750=Black-bg.png=1.000=0=0=1,
149.000=HELL SCAPER -Last Escape Remix-bg.png=1.000=0=0=1,
149.250=Black-bg.png=1.000=0=0=1,
149.500=HELL SCAPER -Last Escape Remix-bg.png=1.000=0=0=1,
149.750=Black-bg.png=1.000=0=0=1,
150.000=HELL SCAPER -Last Escape Remix-bg.png=1.000=0=0=1,
150.250=Black-bg.png=1.000=0=0=1,
150.500=HELL SCAPER -Last Escape Remix-bg.png=1.000=0=0=1,
150.750=Black-bg.png=1.000=0=0=1,
151.000=HELL SCAPER -Last Escape Remix-bg.png=1.000=0=0=1,
151.250=Black-bg.png=1.000=0=0=1,
151.500=HELL SCAPER -Last Escape Remix-bg.png=1.000=0=0=1,
151.750=Black-bg.png=1.000=0=0=1,
152.000=HELL SCAPER -Last Escape Remix-bg.png=1.000=0=0=1,
152.250=Black-bg.png=1.000=0=0=1,
152.500=HELL SCAPER -Last Escape Remix-bg.png=1.000=0=0=1,
152.625=Black-bg.png=1.000=0=0=1,
152.750=HELL SCAPER -Last Escape Remix-bg.png=1.000=0=0=1,
152.875=Black-bg.png=1.000=0=0=1,
153.000=HELL SCAPER -Last Escape Remix-bg.png=1.000=0=0=1,
153.250=Black-bg.png=1.000=0=0=1,
153.500=HELL SCAPER -Last Escape Remix-bg.png=1.000=0=0=1,
153.625=Black-bg.png=1.000=0=0=1,
153.750=HELL SCAPER -Last Escape Remix-bg.png=1.000=0=0=1,
153.875=Black-bg.png=1.000=0=0=1,
154.000=HELL SCAPER -Last Escape Remix-bg.png=1.000=0=0=1,
154.250=Black-bg.png=1.000=0=0=1,
154.500=HELL SCAPER -Last Escape Remix-bg.png=1.000=0=0=1,
154.625=Black-bg.png=1.000=0=0=1,
154.750=HELL SCAPER -Last Escape Remix-bg.png=1.000=0=0=1,
154.875=Black-bg.png=1.000=0=0=1,
155.000=HELL SCAPER -Last Escape Remix-bg.png=1.000=0=0=1,
155.250=Black-bg.png=1.000=0=0=1,
155.500=HELL SCAPER -Last Escape Remix-bg.png=1.000=0=0=1,
155.625=Black-bg.png=1.000=0=0=1,
155.750=HELL SCAPER -Last Escape Remix-bg.png=1.000=0=0=1,
155.875=Black-bg.png=1.000=0=0=1,
156.000=HELL SCAPER -Last Escape Remix-bg.png=1.000=0=0=1,
156.250=Black-bg.png=1.000=0=0=1,
156.500=HELL SCAPER -Last Escape Remix-bg.png=1.000=0=0=1,
156.625=Black-bg.png=1.000=0=0=1,
156.750=HELL SCAPER -Last Escape Remix-bg.png=1.000=0=0=1,
156.875=Black-bg.png=1.000=0=0=1,
157.000=HELL SCAPER -Last Escape Remix-bg.png=1.000=0=0=1,
157.250=Black-bg.png=1.000=0=0=1,
157.500=HELL SCAPER -Last Escape Remix-bg.png=1.000=0=0=1,
157.625=Black-bg.png=1.000=0=0=1,
157.750=HELL SCAPER -Last Escape Remix-bg.png=1.000=0=0=1,
157.875=Black-bg.png=1.000=0=0=1,
158.000=HELL SCAPER -Last Escape Remix-bg.png=1.000=0=0=1,
158.250=Black-bg.png=1.000=0=0=1,
158.500=HELL SCAPER -Last Escape Remix-bg.png=1.000=0=0=1,
158.625=Black-bg.png=1.000=0=0=1,
158.750=HELL SCAPER -Last Escape Remix-bg.png=1.000=0=0=1,
158.875=Black-bg.png=1.000=0=0=1,
159.000=HELL SCAPER -Last Escape Remix-bg.png=1.000=0=0=1,
159.250=Black-bg.png=1.000=0=0=1,
159.500=HELL SCAPER -Last Escape Remix-bg.png=1.000=0=0=1,
159.625=Black-bg.png=1.000=0=0=1,
159.750=HELL SCAPER -Last Escape Remix-bg.png=1.000=0=0=1,
159.875=Black-bg.png=1.000=0=0=1,
160.000=HELL SCAPER -Last Escape Remix-bg.png=1.000=0=0=1,
160.500=Black-bg.png=1.000=0=0=1,
161.000=HELL SCAPER -Last Escape Remix-bg.png=1.000=0=0=1,
161.500=Black-bg.png=1.000=0=0=1,
162.000=HELL SCAPER -Last Escape Remix-bg.png=1.000=0=0=1,
162.500=Black-bg.png=1.000=0=0=1,
163.000=HELL SCAPER -Last Escape Remix-bg.png=1.000=0=0=1,
163.500=Black-bg.png=1.000=0=0=1,
164.000=HELL SCAPER -Last Escape Remix-bg.png=1.000=0=0=1,
164.125=Black-bg.png=1.000=0=0=1,
164.250=HELL SCAPER -Last Escape Remix-bg.png=1.000=0=0=1,
164.375=Black-bg.png=1.000=0=0=1,
164.500=HELL SCAPER -Last Escape Remix-bg.png=1.000=0=0=1,
164.625=Black-bg.png=1.000=0=0=1,
164.750=HELL SCAPER -Last Escape Remix-bg.png=1.000=0=0=1,
164.875=Black-bg.png=1.000=0=0=1,
165.000=HELL SCAPER -Last Escape Remix-bg.png=1.000=0=0=1,
165.125=Black-bg.png=1.000=0=0=1,
165.250=HELL SCAPER -Last Escape Remix-bg.png=1.000=0=0=1,
165.375=Black-bg.png=1.000=0=0=1,
165.500=HELL SCAPER -Last Escape Remix-bg.png=1.000=0=0=1,
165.625=Black-bg.png=1.000=0=0=1,
165.750=HELL SCAPER -Last Escape Remix-bg.png=1.000=0=0=1,
165.875=Black-bg.png=1.000=0=0=1,
166.000=HELL SCAPER -Last Escape Remix-bg.png=1.000=0=0=1,
166.125=Black-bg.png=1.000=0=0=1,
166.250=HELL SCAPER -Last Escape Remix-bg.png=1.000=0=0=1,
166.375=Black-bg.png=1.000=0=0=1,
166.500=HELL SCAPER -Last Escape Remix-bg.png=1.000=0=0=1,
166.625=Black-bg.png=1.000=0=0=1,
166.750=HELL SCAPER -Last Escape Remix-bg.png=1.000=0=0=1,
166.875=Black-bg.png=1.000=0=0=1,
167.000=HELL SCAPER -Last Escape Remix-bg.png=1.000=0=0=1,
167.125=Black-bg.png=1.000=0=0=1,
167.250=HELL SCAPER -Last Escape Remix-bg.png=1.000=0=0=1,
167.375=Black-bg.png=1.000=0=0=1,
167.500=HELL SCAPER -Last Escape Remix-bg.png=1.000=0=0=1,
167.625=Black-bg.png=1.000=0=0=1,
167.750=HELL SCAPER -Last Escape Remix-bg.png=1.000=0=0=1,
167.875=Black-bg.png=1.000=0=0=1,
168.000=HELL SCAPER -Last Escape Remix-bg.png=1.000=0=0=1,
168.500=Black-bg.png=1.000=0=0=1,
169.000=HELL SCAPER -Last Escape Remix-bg.png=1.000=0=0=1,
169.500=Black-bg.png=1.000=0=0=1,
170.000=HELL SCAPER -Last Escape Remix-bg.png=1.000=0=0=1,
170.500=Black-bg.png=1.000=0=0=1,
171.000=HELL SCAPER -Last Escape Remix-bg.png=1.000=0=0=1,
171.250=Black-bg.png=1.000=0=0=1,
171.500=HELL SCAPER -Last Escape Remix-bg.png=1.000=0=0=1,
172.000=-random-=1.000=0=0=1,
220.000=HELL SCAPER -Last Escape Remix-bg.png=1.000=0=0=1,
220.500=-random-=1.000=0=0=1,
221.000=HELL SCAPER -Last Escape Remix-bg.png=1.000=0=0=1,
221.500=-random-=1.000=0=0=1,
222.000=HELL SCAPER -Last Escape Remix-bg.png=1.000=0=0=1,
222.500=-random-=1.000=0=0=1,
223.000=HELL SCAPER -Last Escape Remix-bg.png=1.000=0=0=1,
223.500=-random-=1.000=0=0=1,
224.000=HELL SCAPER -Last Escape Remix-bg.png=1.000=0=0=1,
224.500=-random-=1.000=0=0=1,
225.000=HELL SCAPER -Last Escape Remix-bg.png=1.000=0=0=1,
225.500=-random-=1.000=0=0=1,
226.000=HELL SCAPER -Last Escape Remix-bg.png=1.000=0=0=1,
226.500=-random-=1.000=0=0=1,
227.000=HELL SCAPER -Last Escape Remix-bg.png=1.000=0=0=1,
227.500=-random-=1.000=0=0=1,
228.000=HELL SCAPER -Last Escape Remix-bg.png=1.000=0=0=1,
228.250=-random-=1.000=0=0=1,
228.500=HELL SCAPER -Last Escape Remix-bg.png=1.000=0=0=1,
228.750=-random-=1.000=0=0=1,
229.000=HELL SCAPER -Last Escape Remix-bg.png=1.000=0=0=1,
229.250=-random-=1.000=0=0=1,
229.500=HELL SCAPER -Last Escape Remix-bg.png=1.000=0=0=1,
229.750=-random-=1.000=0=0=1,
230.000=HELL SCAPER -Last Escape Remix-bg.png=1.000=0=0=1,
230.250=-random-=1.000=0=0=1,
230.500=HELL SCAPER -Last Escape Remix-bg.png=1.000=0=0=1,
230.750=-random-=1.000=0=0=1,
231.000=HELL SCAPER -Last Escape Remix-bg.png=1.000=0=0=1,
231.250=-random-=1.000=0=0=1,
231.500=HELL SCAPER -Last Escape Remix-bg.png=1.000=0=0=1,
231.750=-random-=1.000=0=0=1,
232.000=HELL SCAPER -Last Escape Remix-bg.png=1.000=0=0=1,
235.000=HELL SCAPER -Last Escape Remix-bg.png=1.000=0=0=1,
235.125=Black-bg.png=1.000=0=0=1,
235.250=HELL SCAPER -Last Escape Remix-bg.png=1.000=0=0=1,
235.375=Black-bg.png=1.000=0=0=1,
235.500=HELL SCAPER -Last Escape Remix-bg.png=1.000=0=0=1,
235.625=Black-bg.png=1.000=0=0=1,
235.750=HELL SCAPER -Last Escape Remix-bg.png=1.000=0=0=1,
235.875=Black-bg.png=1.000=0=0=1,
236.000=HELL SCAPER -Last Escape Remix-bg.png=1.000=0=0=1,
236.125=-random-=1.000=0=0=1,
264.000=HELL SCAPER -Last Escape Remix-bg.png=1.000=0=0=1,
266.500=HELL SCAPER -Last Escape Remix-bg.png=1.000=0=0=1,
266.625=Black-bg.png=1.000=0=0=1,
266.750=HELL SCAPER -Last Escape Remix-bg.png=1.000=0=0=1,
266.875=Black-bg.png=1.000=0=0=1,
267.000=HELL SCAPER -Last Escape Remix-bg.png=1.000=0=0=1,
268.000=-random-=1.000=0=0=1,
292.000=HELL SCAPER -Last Escape Remix-bg.png=1.000=0=0=1,
292.125=Black-bg.png=1.000=0=0=1,
292.250=HELL SCAPER -Last Escape Remix-bg.png=1.000=0=0=1,
292.375=Black-bg.png=1.000=0=0=1,
292.500=HELL SCAPER -Last Escape Remix-bg.png=1.000=0=0=1,
292.625=Black-bg.png=1.000=0=0=1,
292.750=HELL SCAPER -Last Escape Remix-bg.png=1.000=0=0=1,
292.875=Black-bg.png=1.000=0=0=1,
293.000=HELL SCAPER -Last Escape Remix-bg.png=1.000=0=0=1,
293.125=Black-bg.png=1.000=0=0=1,
293.250=HELL SCAPER -Last Escape Remix-bg.png=1.000=0=0=1,
293.375=Black-bg.png=1.000=0=0=1,
293.500=HELL SCAPER -Last Escape Remix-bg.png=1.000=0=0=1,
293.625=Black-bg.png=1.000=0=0=1,
293.750=HELL SCAPER -Last Escape Remix-bg.png=1.000=0=0=1,
293.875=Black-bg.png=1.000=0=0=1,
294.000=HELL SCAPER -Last Escape Remix-bg.png=1.000=0=0=1,
294.125=Black-bg.png=1.000=0=0=1,
294.250=HELL SCAPER -Last Escape Remix-bg.png=1.000=0=0=1,
294.375=Black-bg.png=1.000=0=0=1,
294.500=HELL SCAPER -Last Escape Remix-bg.png=1.000=0=0=1,
294.625=Black-bg.png=1.000=0=0=1,
294.750=HELL SCAPER -Last Escape Remix-bg.png=1.000=0=0=1,
294.875=Black-bg.png=1.000=0=0=1,
295.000=HELL SCAPER -Last Escape Remix-bg.png=1.000=0=0=1,
295.125=Black-bg.png=1.000=0=0=1,
295.250=HELL SCAPER -Last Escape Remix-bg.png=1.000=0=0=1,
295.375=Black-bg.png=1.000=0=0=1,
295.500=HELL SCAPER -Last Escape Remix-bg.png=1.000=0=0=1,
295.625=Black-bg.png=1.000=0=0=1,
295.750=HELL SCAPER -Last Escape Remix-bg.png=1.000=0=0=1,
295.875=Black-bg.png=1.000=0=0=1,
296.000=HELL SCAPER -Last Escape Remix-bg.png=1.000=0=0=1,
300.000=HELL SCAPER -Last Escape Remix-bg.png=1.000=0=0=1,
300.250=Black-bg.png=1.000=0=0=1,
300.500=HELL SCAPER -Last Escape Remix-bg.png=1.000=0=0=1,
300.750=Black-bg.png=1.000=0=0=1,
301.000=HELL SCAPER -Last Escape Remix-bg.png=1.000=0=0=1,
301.250=Black-bg.png=1.000=0=0=1,
301.500=HELL SCAPER -Last Escape Remix-bg.png=1.000=0=0=1,
301.750=Black-bg.png=1.000=0=0=1,
302.000=HELL SCAPER -Last Escape Remix-bg.png=1.000=0=0=1,
302.500=Black-bg.png=1.000=0=0=1,
303.500=HELL SCAPER -Last Escape Remix-bg.png=1.000=0=0=1,
304.000=Black-bg.png=1.000=0=0=1,
304.500=HELL SCAPER -Last Escape Remix-bg.png=1.000=0=0=1,
305.000=Black-bg.png=1.000=0=0=1,
305.500=HELL SCAPER -Last Escape Remix-bg.png=1.000=0=0=1,
305.750=Black-bg.png=1.000=0=0=1,
306.000=HELL SCAPER -Last Escape Remix-bg.png=1.000=0=0=1,
306.250=Black-bg.png=1.000=0=0=1,
306.500=HELL SCAPER -Last Escape Remix-bg.png=1.000=0=0=1,
306.750=Black-bg.png=1.000=0=0=1,
307.000=HELL SCAPER -Last Escape Remix-bg.png=1.000=0=0=1,
307.250=Black-bg.png=1.000=0=0=1,
307.500=HELL SCAPER -Last Escape Remix-bg.png=1.000=0=0=1,
307.750=Black-bg.png=1.000=0=0=1,
308.000=HELL SCAPER -Last Escape Remix-bg.png=1.000=0=0=1,
308.250=Black-bg.png=1.000=0=0=1,
308.500=HELL SCAPER -Last Escape Remix-bg.png=1.000=0=0=1,
308.750=Black-bg.png=1.000=0=0=1,
309.000=HELL SCAPER -Last Escape Remix-bg.png=1.000=0=0=1,
309.250=Black-bg.png=1.000=0=0=1,
309.500=HELL SCAPER -Last Escape Remix-bg.png=1.000=0=0=1,
309.750=Black-bg.png=1.000=0=0=1,
310.000=HELL SCAPER -Last Escape Remix-bg.png=1.000=0=0=1,
310.500=Black-bg.png=1.000=0=0=1,
311.000=HELL SCAPER -Last Escape Remix-bg.png=1.000=0=0=1,
311.250=Black-bg.png=1.000=0=0=1,
311.500=HELL SCAPER -Last Escape Remix-bg.png=1.000=0=0=1,
312.000=Black-bg.png=1.000=0=0=1,
312.500=HELL SCAPER -Last Escape Remix-bg.png=1.000=0=0=1,
313.000=Black-bg.png=1.000=0=0=1,
313.500=HELL SCAPER -Last Escape Remix-bg.png=1.000=0=0=1,
313.750=Black-bg.png=1.000=0=0=1,
314.000=HELL SCAPER -Last Escape Remix-bg.png=1.000=0=0=1,
314.250=Black-bg.png=1.000=0=0=1,
314.500=HELL SCAPER -Last Escape Remix-bg.png=1.000=0=0=1,
314.750=Black-bg.png=1.000=0=0=1,
315.000=HELL SCAPER -Last Escape Remix-bg.png=1.000=0=0=1,
315.250=Black-bg.png=1.000=0=0=1,
315.500=HELL SCAPER -Last Escape Remix-bg.png=1.000=0=0=1,
315.750=Black-bg.png=1.000=0=0=1,
316.000=HELL SCAPER -Last Escape Remix-bg.png=1.000=0=0=1,
316.500=Black-bg.png=1.000=0=0=1,
317.000=HELL SCAPER -Last Escape Remix-bg.png=1.000=0=0=1,
317.500=Black-bg.png=1.000=0=0=1,
318.000=HELL SCAPER -Last Escape Remix-bg.png=1.000=0=0=1,
318.500=Black-bg.png=1.000=0=0=1,
319.000=HELL SCAPER -Last Escape Remix-bg.png=1.000=0=0=1,
319.500=Black-bg.png=1.000=0=0=1,
320.000=HELL SCAPER -Last Escape Remix-bg.png=1.000=0=0=1,
324.000=-random-=1.000=0=0=1,
330.250=HELL SCAPER -Last Escape Remix-bg.png=1.000=0=0=1,
331.000=-random-=1.000=0=0=1,
338.250=HELL SCAPER -Last Escape Remix-bg.png=1.000=0=0=1,
339.000=-random-=1.000=0=0=1,
346.250=HELL SCAPER -Last Escape Remix-bg.png=1.000=0=0=1,
347.000=-random-=1.000=0=0=1,
348.000=HELL SCAPER -Last Escape Remix-bg.png=1.000=0=0=1,
348.500=-random-=1.000=0=0=1,
349.000=HELL SCAPER -Last Escape Remix-bg.png=1.000=0=0=1,
349.500=-random-=1.000=0=0=1,
350.000=HELL SCAPER -Last Escape Remix-bg.png=1.000=0=0=1,
350.125=-random-=1.000=0=0=1,
350.250=HELL SCAPER -Last Escape Remix-bg.png=1.000=0=0=1,
350.375=-random-=1.000=0=0=1,
350.500=HELL SCAPER -Last Escape Remix-bg.png=1.000=0=0=1,
350.625=-random-=1.000=0=0=1,
350.750=HELL SCAPER -Last Escape Remix-bg.png=1.000=0=0=1,
350.875=-random-=1.000=0=0=1,
351.000=HELL SCAPER -Last Escape Remix-bg.png=1.000=0=0=1,
351.125=-random-=1.000=0=0=1,
351.250=HELL SCAPER -Last Escape Remix-bg.png=1.000=0=0=1,
351.375=-random-=1.000=0=0=1,
351.500=HELL SCAPER -Last Escape Remix-bg.png=1.000=0=0=1,
351.750=-random-=1.000=0=0=1,
352.000=HELL SCAPER -Last Escape Remix-bg.png=1.000=0=0=1,
352.250=-random-=1.000=0=0=1,
352.500=HELL SCAPER -Last Escape Remix-bg.png=1.000=0=0=1,
352.750=-random-=1.000=0=0=1,
353.000=HELL SCAPER -Last Escape Remix-bg.png=1.000=0=0=1,
353.250=-random-=1.000=0=0=1,
353.500=HELL SCAPER -Last Escape Remix-bg.png=1.000=0=0=1,
354.000=-random-=1.000=0=0=1,
354.250=HELL SCAPER -Last Escape Remix-bg.png=1.000=0=0=1,
354.750=-random-=1.000=0=0=1,
355.000=HELL SCAPER -Last Escape Remix-bg.png=1.000=0=0=1,
355.500=-random-=1.000=0=0=1,
356.000=HELL SCAPER -Last Escape Remix-bg.png=1.000=0=0=1,
372.000=Black-bg.png=1.000=0=0=1,
99999=-nosongbg-=1.000=0=0=0 // don't automatically add -songbackground-
;

//---------------dance-single - NEMESetup----------------
#NOTES:
     dance-single:
     NEMESetup:
     Hard:
     9:
     0.627,0.685,0.337,0.211,0.193:
0000
0000
0000
0000
,
0002
0000
0003
0000
,
1001
1000
0001
1000
,
0001
0100
0001
0100
0001
1000
1002
0000
,
1003
0001
1000
0001
,
1000
0100
1000
0100
1000
0010
0210
0000
,
0301
1000
0001
1000
,
0100
0010
0100
0010
0001
1000
1200
0000
,
1300
0001
0100
0010
,
0120
0100
0000
1000
0000
0001
0030
1000
,
1010
0001
1000
0100
,
1000
0100
0010
0001
0100
0000
1100
0000
,
0001
1000
0010
0100
,
0001
0000
0000
0001
0000
1000
0000
1000
0100
0000
0000
0000
0110
0000
0000
0000
,
0001
1000
0010
0100
,
0001
0100
1000
0100
0001
0000
1100
0000
,
0001
1000
0010
0100
,
0022
0000
0000
0000
0030
0000
1000
1000
,
1003
0100
0000
0010
0000
0001
0100
1000
,
0000
0100
0000
0001
1000
0100
0010
0001
,
0000
1000
0000
1000
0000
0001
0100
0010
,
0000
1000
0000
0001
0000
0100
1000
0100
,
0000
0001
0000
1000
0000
0100
0000
0010
,
0000
0000
0001
0000
0000
0000
0010
0000
0110
0000
0000
1001
0000
0000
0100
0000
,
1100
0100
0000
1000
0000
0001
0000
0100
,
0000
0102
0000
0100
0000
0103
0001
0100
,
0010
1000
0000
0100
0000
1000
0010
0001
,
0000
0010
0000
1000
0001
0010
0100
1000
,
0000
0001
0000
0001
0000
1000
0010
0100
,
0000
0001
0000
1000
0000
0010
0001
0010
,
0000
1000
0000
0001
0000
0010
0000
0100
,
0000
0000
1000
0000
0000
0000
0100
0000
0110
0000
0000
1001
0000
0000
0010
0000
,
0011
0010
0000
0001
0000
1000
0000
0010
,
2000
0000
0100
0100
0100
0000
3001
0000
,
1000
0100
1000
0100
0001
0100
0001
0100
,
1000
0010
1000
0010
0001
0010
0001
0010
,
0100
1000
0100
1000
0100
0001
0100
0001
,
0010
1000
0010
1000
0010
0001
0010
0001
,
1000
0000
0000
1000
0100
0000
0000
0100
0001
0000
0000
0001
1000
0000
0000
1000
,
0010
0000
0000
0010
0001
0000
0000
0001
0100
0000
0000
0100
1000
0000
0000
1000
,
0100
0001
0010
1000
0010
0001
0100
1000
,
0100
0001
0010
1000
0010
0001
0100
0010
,
2002
3003
0001
0000
0100
0000
1010
1001
,
1100
0000
0100
0000
1000
0000
0100
0000
0010
0001
0000
0010
0001
0000
0100
0000
,
0001
0001
0001
0200
0000
0000
0300
0000
,
0001
0000
0100
0000
0001
0000
0100
0000
0010
1000
0000
0010
1000
0000
0100
0000
,
1000
1000
1000
0200
0000
0000
0300
0000
,
0110
0000
0100
0000
0010
0000
0100
0000
1000
0100
0000
1000
0100
0000
0010
0000
,
0100
0100
0100
0020
0000
0000
0030
0000
,
0100
0000
0010
0000
0100
0000
0010
0000
0001
0100
0000
0001
0100
0000
0010
0000
,
0100
0100
0100
0020
0000
0000
0030
0000
,
0101
0000
0100
0000
1000
0000
0100
0000
0001
0010
0000
0001
0010
0000
0100
0000
,
1000
0000
1000
0000
1000
0000
0001
0000
0000
0001
0000
0000
0001
0000
0000
0000
,
1000
0000
0100
0000
0001
0000
0100
0000
1000
0010
0000
1000
0010
0000
0100
0000
,
0001
0000
0001
0000
0001
0000
1000
0000
0000
1000
0000
0000
1000
0000
0000
0000
,
0200
0000
0000
0000
1000
0000
0000
0000
0010
0000
0000
0010
0300
0000
0010
0000
,
0002
0000
1000
0000
1000
0000
0100
0000
0000
0100
0000
0000
0103
0000
0000
0000
,
0010
1000
0001
0100
0010
1000
0001
0100
,
0220
0000
0000
0000
0000
0000
0000
0000
0330
0000
0000
0000
0001
1000
0001
0000
,
0101
0000
0100
0000
0010
0000
1000
0000
0100
0010
0000
0001
1000
0000
0100
0000
,
1000
0000
0100
0000
0001
0000
0100
0000
0000
0100
0000
0000
0100
0000
0000
0000
,
1000
0000
0010
0000
0100
0000
0001
0000
0100
0010
0000
1000
0001
0000
0100
0000
,
1000
0000
0100
0000
0001
0000
0100
0000
0000
0100
0000
0000
0100
0000
0000
0000
,
0010
0000
1000
0000
0001
0000
0100
0000
1000
0100
0000
0100
0001
0000
0010
0000
,
1000
0000
0010
0000
0001
0000
0010
0000
0000
0010
0000
0000
0010
0000
0000
0000
,
0100
0000
0001
0000
1000
0000
0010
0000
0001
0010
0000
0010
1000
0000
0010
0000
,
0002
0000
0000
0000
0000
0000
0200
0000
0303
0000
0001
0100
0001
0000
0000
0000
,
1010
0010
0100
0010
1000
1000
1000
0100
,
0001
0001
0001
0100
0010
0001
1000
0001
,
0100
0010
1000
0100
0001
0001
0001
0100
,
0010
0010
0010
0001
0100
1000
0100
0010
,
1000
0010
0001
1000
0001
0001
0001
1000
,
0100
0100
0100
0010
1000
0100
0001
0100
,
0001
0100
1000
0001
1000
1000
1000
0010
,
2001
0100
0002
3003
,
1001
0001
1000
1000
1001
0000
0000
0011
,
0000
1100
0000
0001
0101
0100
0001
0001
,
1001
1000
0001
0001
1001
0000
1000
0010
,
0000
1010
0000
0101
0100
0100
0010
0010
,
0110
1000
1100
0001
,
0202
0000
0000
0303
,
1010
0000
1000
0000
0100
0000
0001
0000
1000
0010
0000
0010
0001
0000
0100
0000
,
0010
0000
0010
0000
0010
0000
1000
0000
0000
0200
0000
0000
1300
0000
0000
0000
,
1100
0000
1000
0000
0001
0000
0010
0000
0100
1000
0000
1000
0010
0000
0001
0000
,
1000
0000
1000
0000
1000
0000
0100
0000
0000
0002
0000
0000
0103
0000
0000
0000
,
0101
0000
0001
0000
1000
0000
0100
0000
0010
0100
0000
0100
1000
0000
0001
0000
,
0100
0000
0100
0000
0100
0000
0010
0000
0000
0002
0000
0000
0013
0000
0000
0000
,
0011
0000
0010
0000
1000
0000
0001
0000
0100
1000
0000
1000
0100
0000
0010
0000
,
1010
0000
1000
0000
1000
0000
1001
0000
0000
1000
0000
0000
0110
0000
0000
0000
,
0102
0000
0000
0000
,
0000
0000
0000
0000
,
0000
0000
0000
0000
0000
0000
0000
2000
0000
0000
0000
0000
0000
0000
0000
0000
,
0000
0000
3003
0000
,
0110
0000
0000
0000
;

//---------------dance-single - NEMESetup----------------
#NOTES:
     dance-single:
     NEMESetup:
     Beginner:
     2:
     0.184,0.326,0.140,0.189,0.000:
0000
0000
0000
0000
,
0000
0000
0000
0000
,
1001
0000
0000
0000
,
0001
0000
0001
0001
,
0000
0000
0000
0000
,
1000
0000
1000
1000
,
0000
0000
0000
0000
,
0010
0000
0010
0010
,
0000
0000
0000
0000
,
0200
0000
0300
0000
,
0110
0000
0000
0000
,
0002
0000
0003
0001
,
0000
0000
0000
0000
,
0200
0000
0300
0100
,
0000
0000
0000
0000
,
2000
0000
3000
1000
,
0000
0000
0000
0000
,
0020
0000
0000
0030
,
0010
0000
0010
0000
,
1000
0000
1000
0000
,
0001
0000
0001
0000
,
1000
0000
1000
0000
,
0100
0000
0100
0000
,
0010
0000
0020
0030
,
0010
0000
0010
0000
,
0002
0000
0003
0000
,
1001
0000
1000
0000
,
1000
0000
0001
0000
,
0001
0000
0100
0000
,
0010
0000
0010
0000
,
1000
0000
0100
0000
,
0100
0000
2000
3000
,
1000
0000
1000
0000
,
0002
0000
0000
0003
,
2002
0000
0000
0000
,
0000
0000
3003
0000
,
0220
0000
0000
0000
,
0000
0000
0330
0000
,
1000
0000
1000
0000
,
1000
0000
1000
0000
,
0100
0100
0100
0100
,
0100
0100
0100
0000
,
0220
0000
0330
0000
,
0001
0000
0001
0000
,
1000
0000
1000
0000
,
0010
0000
0000
0000
,
0100
0000
0000
0000
,
1000
0000
0000
0000
,
0001
0000
0000
0000
,
0010
0000
0000
0000
,
0100
0000
0000
0000
,
1001
0000
1000
0000
,
0001
0000
0001
0000
,
1000
0000
1000
0000
,
0001
0000
0001
0000
,
0010
0000
0010
0000
,
0100
0000
0100
0000
,
0010
0010
0010
0010
,
0020
0000
0030
0000
,
1001
0000
0000
0000
,
0010
0000
0000
0000
,
0001
0000
0000
0000
,
1000
0000
0000
0000
,
1000
0000
0000
0000
,
0001
0000
0000
0000
,
0010
0000
0000
0000
,
0200
0000
0300
0000
,
1000
0000
0010
0000
,
0200
0000
0300
0000
,
0001
0000
0010
0000
,
0200
0000
0300
0000
,
0002
0000
0000
0000
,
0000
0000
0003
0000
,
2000
0000
0000
0000
,
3000
0000
0000
0000
,
2002
0000
3003
0000
,
1001
0000
0110
0000
,
0220
0000
0330
0000
,
0110
0000
1001
0000
,
1001
0000
0110
0000
,
2002
0000
3003
0000
,
0110
0000
0010
0000
,
0100
0100
0100
0000
,
0001
0000
1000
0000
,
0001
0001
0001
0000
,
0010
0000
0001
0000
,
1000
1000
1000
0000
,
1000
0000
0010
0000
,
0100
0100
0100
0000
,
0110
0000
0000
0000
,
0000
0000
0000
0000
,
0000
0000
0000
0000
,
0000
0000
0000
0000
,
1001
0000
0000
0000
;

//---------------dance-single - NEMESetup----------------
#NOTES:
     dance-single:
     NEMESetup:
     Easy:
     5:
     0.338,0.555,0.239,0.253,0.000:
0000
0000
0000
0000
,
0000
0000
0000
0000
,
1000
1000
1000
1000
,
0002
0000
0000
0003
,
0001
0001
0001
0001
,
2000
0000
0000
0000
,
3010
0010
0010
0010
,
0200
0000
0000
0300
,
0100
0100
0100
0100
,
0020
0000
0000
0030
,
1001
1000
1000
1000
,
0200
0000
0000
0300
,
0010
0010
0010
0010
,
0200
0000
0000
0300
,
0001
0001
0001
0001
,
0200
0000
0000
0300
,
1000
1000
1000
1000
,
0002
0000
0000
1000
,
1003
1000
0010
0010
,
0100
0100
0001
0001
,
1000
1000
0001
0001
,
0100
0100
0010
0010
,
0100
0100
0001
0001
,
1000
1000
0002
0000
,
0013
0010
0100
0100
,
2000
0000
0000
3000
,
1001
1000
0001
0001
,
0100
0100
0010
0010
,
0100
0100
1000
1000
,
0100
0100
0001
0001
,
1000
1000
0010
0010
,
0100
0100
0020
0000
,
1030
1000
0100
0100
,
0020
0000
0000
0030
,
1001
0001
0011
0001
,
1001
1000
1010
1000
,
0110
0010
1010
0010
,
0110
0100
0101
0100
,
0002
0023
0230
2300
,
3002
0023
0230
2300
,
3200
0000
0320
0000
,
0032
0000
2003
3000
,
2002
0000
0000
0000
0000
0000
3003
1001
,
0001
0000
0100
0000
,
0010
0010
0010
0000
,
1000
0000
0100
0000
,
0010
0010
0010
0000
,
0001
0000
1000
0000
,
0100
0100
0100
0000
,
1000
0000
0001
0000
,
0010
0010
0010
0000
,
0110
0000
0001
0000
,
0100
1000
0100
0000
,
0001
0000
1000
0000
,
0010
1000
0010
0000
,
0100
0100
0010
0010
,
2000
0000
0000
3000
,
0100
0100
0010
0010
,
0002
0000
0000
1003
,
1001
1000
0100
0010
,
0001
0001
0001
0000
,
1000
0001
0010
0100
,
1000
1000
1000
0000
,
0001
0100
1000
0100
,
0010
0010
0010
0000
,
1000
0001
0010
0100
,
2000
0000
0000
3000
,
1001
1000
0010
0010
,
0100
0100
0001
0001
,
1000
1000
0001
0001
,
0010
0010
0100
0100
,
2000
0000
0100
0000
,
0010
0000
0001
0000
,
3002
0000
0010
0000
,
0203
0000
0300
0000
,
1001
0000
1001
0000
1001
0000
0000
0110
,
0000
0110
0000
0000
1001
0000
1001
0000
,
1100
0000
1100
0000
1001
0000
0000
0011
,
0000
1100
0000
0022
0000
0033
0000
0000
,
0101
0000
1010
0000
,
0220
0000
0000
0330
,
1001
1000
0001
0010
,
0100
0100
1000
0010
,
0100
0001
1000
0001
,
0010
0010
0001
0100
,
1000
0100
0001
0010
,
1000
1000
0010
0100
,
1000
0001
0100
0010
,
1000
1000
1000
1000
,
1001
0000
0000
0000
,
0000
0000
0000
0000
,
0000
0000
0000
0000
,
0000
0000
0000
0000
,
0110
0000
0000
0000
;

//---------------dance-single - NEMESetup----------------
#NOTES:
     dance-single:
     NEMESetup:
     Medium:
     7:
     0.484,0.587,0.168,0.232,0.000:
0000
0000
0000
0000
,
0000
0000
0000
0000
,
1001
0001
1000
0001
,
1000
0000
0010
0010
1000
0010
1000
0000
,
0100
0010
0100
0010
,
0001
0000
1000
1000
0001
1000
0001
0000
,
0100
0001
0100
0001
,
1000
0000
0100
0100
1000
0100
1000
0000
,
0001
0100
0001
0100
,
0020
0000
0100
0130
,
0110
1000
0100
0010
,
0002
0000
0000
0010
0010
0003
0011
0000
,
1000
0100
0010
0001
,
2000
0000
0000
0010
3010
0000
1010
0000
,
1000
0100
0010
0001
,
0200
0000
0000
0010
0310
0000
0110
0000
,
0001
1000
0100
0010
,
0220
0000
0000
0000
0030
0000
0010
0010
,
0310
0001
1000
0010
,
0100
0000
0001
0000
1000
0000
0100
0010
,
0001
1000
0010
0100
,
0001
0000
0100
0000
1000
0000
1000
0100
,
0010
1000
0100
0010
,
0001
0000
1000
0000
0002
0000
1000
1000
,
1000
0003
0100
0000
1000
0000
0010
0000
,
0200
0010
0000
0010
0000
0010
0300
0010
,
0110
0010
1000
0100
,
0010
0000
0001
0000
1000
0000
0010
0100
,
0001
0100
1000
0100
,
0001
0000
0010
0000
0100
0000
1000
0010
,
0100
0010
1000
0001
,
0010
0000
0100
0000
2000
0000
0001
0001
,
3001
1000
0100
0010
,
0012
0000
1000
0103
,
1001
1000
0001
1000
0001
1000
0001
1000
,
0001
1000
0001
1000
0001
1000
0001
1000
,
0001
1000
0001
1000
0001
1000
0001
1000
,
0001
1000
0001
1000
0001
1000
0001
1000
,
0200
0320
0230
0320
,
0032
2003
3002
2003
,
3100
1000
0100
0000
0010
0001
0010
0000
,
0100
1000
0100
0010
0001
0010
0100
1000
,
1002
0000
1000
0000
1000
0003
1000
0110
,
1001
1000
0100
0010
,
0100
0100
0100
2000
0000
3000
1000
0000
,
1000
0100
0010
0001
,
1000
1000
1000
0002
0000
0003
0001
0000
,
1000
1000
0001
0001
,
0100
0100
0100
0020
0000
0030
0010
0000
,
0100
0100
0001
1000
,
0010
1000
0010
2000
0000
0000
3010
0000
,
1010
0000
1000
0000
0100
0010
0001
0000
,
0100
0000
0010
1000
0000
1000
0100
0000
,
1000
0001
0100
0001
,
1000
0000
0010
0100
0000
0010
0100
0000
,
0020
0000
0100
0000
0100
0000
0100
0030
,
2000
0000
0000
0100
0000
0000
0100
3000
,
0200
0010
0010
0310
,
0012
0000
0000
1003
,
1001
0000
1000
0000
0001
0100
0010
0000
,
1000
0000
0100
0010
0000
0010
0100
0000
,
1000
0000
0001
0000
0100
0010
1000
0000
,
0001
0000
1000
0001
0000
0001
1000
0000
,
0100
0000
0010
0000
0001
0100
1000
0000
,
0100
0000
0001
1000
0000
0100
0001
0000
,
0100
0000
1000
0000
0001
0100
0010
0000
,
2000
0000
0000
0020
0000
0000
3030
0000
,
1000
0000
1000
0000
0100
0010
0001
0000
,
0001
0010
0100
0010
0000
0010
0100
0000
,
0100
0000
1000
0000
1000
0010
0100
0000
,
0001
1000
0001
1000
0000
1000
0100
0000
,
1000
0000
0010
0000
0100
0001
1000
0000
,
0001
0010
0001
0010
0000
0100
1000
0000
,
1000
0000
0010
0000
0100
1000
0100
0000
,
0002
1000
0200
0303
,
0001
1000
0001
1000
0001
0000
0000
1010
,
0000
1001
0000
0001
0010
0001
0010
0001
,
1000
0001
1000
0001
1000
0000
0010
1000
,
0000
1001
0000
0010
0100
0010
0100
0010
,
0100
0110
1001
0110
,
2002
0000
0000
3003
,
1000
0001
1000
0001
0100
0010
0100
0000
,
0001
0000
0010
0100
0000
1000
0010
0000
,
1000
0001
1000
0001
0010
0001
0010
0000
,
0100
0000
1000
0001
0000
0100
1000
0000
,
0100
0001
0100
0001
1000
0010
1000
0010
,
0100
0000
0001
0010
0000
0100
0010
0000
,
0100
0010
0100
0010
0001
0010
0001
1000
,
0001
1000
0010
0100
0000
0010
0100
0000
,
1001
0000
0000
0000
,
0000
0000
0000
0000
,
0000
0000
0000
0000
,
0000
0000
0000
0000
,
0110
0000
0000
0000
;

//---------------dance-single - NEMESetup----------------
#NOTES:
     dance-single:
     NEMESetup:
     Challenge:
     11:
     0.764,0.881,0.449,0.225,0.404: // measure 1
0000
0000
0000
0000
,  // measure 2
0022
0000
0033
0000
,  // measure 3
1001
0010
0001
1000
,  // measure 4
0001
0000
0100
0010
0001
0000
0010
0000
1000
0000
1000
0000
2000
0000
0000
0000
,  // measure 5
3001
0100
1000
0001
,  // measure 6
1000
0000
0100
0000
0001
0010
0001
0010
0100
1000
0100
1000
0200
0000
0000
0000
,  // measure 7
0301
1000
0010
0100
,  // measure 8
1000
0000
0010
0100
0001
0000
0010
0000
0100
0000
0100
0000
0200
0000
0000
0000
,  // measure 9
1300
0001
0100
0010
,  // measure 10
0001
0000
0010
0000
1000
0100
1000
0100
0010
0001
0010
0001
0020
0000
0030
0000
,  // measure 11
1010
0001
1000
0100
,  // measure 12
1000
0000
0100
1000
0010
1000
0010
1000
0001
0000
0000
0000
1001
0000
0000
0000
,  // measure 13
0101
1000
0010
0100
,  // measure 14
0011
0000
0000
1001
0000
1000
0000
1000
0010
0000
0000
0000
0110
0000
0000
0000
,  // measure 15
1010
1000
0010
0100
,  // measure 16
0001
0100
0001
0100
0001
0000
1000
0000
1000
0000
0000
0000
1100
0000
0000
0000
,  // measure 17
0011
1000
0010
0100
,  // measure 18
0220
0000
0000
0000
0330
0000
1100
1000
,  // measure 19
1001
0001
1000
0001
0100
0001
0001
0001
,  // measure 20
0010
0100
1000
0001
1000
0100
0010
0001
,  // measure 21
0100
1000
0100
1000
0001
0010
0010
0010
,  // measure 22
1000
0100
0001
0100
0010
0100
1000
0100
,  // measure 23
0001
1000
0010
1000
0010
0100
1000
0010
,  // measure 24
0100
0000
0001
0000
0100
0000
0010
0000
1010
0000
0000
1001
0000
0000
0101
0000
,  // measure 25
1100
0100
0010
0100
0010
0100
0010
0100
,  // measure 26
0000
2100
0000
0100
0000
3100
0000
0001
,  // measure 27
0110
0010
1000
0010
0001
1000
1000
1000
,  // measure 28
0100
0001
1000
0001
0001
0010
0100
1000
,  // measure 29
0010
0001
1000
0001
0010
0100
0100
0100
,  // measure 30
0010
0001
0010
1000
0100
0010
0001
0010
,  // measure 31
0100
1000
0010
1000
0001
0010
0100
0001
,  // measure 32
1000
0000
0010
0000
0001
0000
0100
0000
0101
0000
0000
1001
0000
0000
1010
0000
,  // measure 33
0011
0001
0000
1000
0000
0010
0000
0100
,  // measure 34
0101
0000
0100
0001
0100
0000
0011
0000
,  // measure 35
1001
0001
1000
1000
1010
1000
0010
0010
,  // measure 36
0110
0010
0100
0100
0101
0100
0001
0001
,  // measure 37
0011
0001
0010
0010
0110
0010
0100
0100
,  // measure 38
1100
0100
1000
1000
1001
1000
0001
0001
,  // measure 39
1000
0000
0001
1000
0001
0000
0100
0010
0100
0000
0010
1000
0010
0000
0100
0001
,  // measure 40
0100
0000
0001
0010
0001
0000
1000
0010
1000
0000
0100
1000
0100
0000
0001
0100
,  // measure 41
0001
0001
0100
0100
1000
1000
0010
0010
,  // measure 42
0100
0001
0100
0001
0100
0010
0100
0010
0100
1000
0100
1000
0100
0001
1000
0001
,  // measure 43
2002
0000
3003
0000
0001
0000
0000
0000
2000
0000
0000
0000
0200
0000
0011
3300
,  // measure 44
1100
0000
0100
0000
0100
0000
0100
0000
0010
0001
0000
0010
0001
0000
0100
0000
,  // measure 45
1000
0000
1000
0000
1000
0000
0100
0000
0000
0100
0000
0000
0100
0000
0000
0000
,  // measure 46
0001
0000
0001
0000
0001
0000
0001
0000
1000
0010
0000
1000
0010
0000
0100
0000
,  // measure 47
0010
0000
0010
0000
0010
0000
1000
0000
0000
1000
0000
0000
1000
0000
0000
0000
,  // measure 48
0011
0000
0010
0000
0010
0000
0010
0000
0001
0100
0000
0001
0100
0000
1000
0000
,  // measure 49
0100
0000
0100
0000
0100
0000
0001
0000
0000
0001
0000
0000
0001
0000
0000
0000
,  // measure 50
1000
0000
1000
0000
1000
0000
1000
0000
0001
0010
0000
0001
0010
0000
1000
0000
,  // measure 51
0010
0000
0010
0000
0010
0000
0100
0000
0000
0100
0000
0000
0100
0000
0000
0000
,  // measure 52
1001
0000
0001
0000
1000
0000
0100
0000
0010
0001
0000
1000
0001
0000
0100
0000
,  // measure 53
0010
0000
0010
0000
0010
0000
0100
0000
0000
0100
0000
0000
0100
0000
0000
0000
,  // measure 54
0010
0000
0100
0000
1000
0000
0100
0000
0001
0010
0000
1000
0010
0000
0100
0000
,  // measure 55
0010
0000
0010
0000
0010
0000
0001
0000
0000
0001
0000
0000
0001
0000
0000
0000
,  // measure 56
1000
0010
1000
0010
0100
0001
0100
0001
,  // measure 57
0010
1000
0010
1000
0001
0100
0001
0100
,  // measure 58
1000
0100
1000
0100
1000
0100
1000
0100
0001
0100
0001
0100
0001
0100
0001
0100
,  // measure 59
0020
0000
0000
0000
0000
0000
0000
0000
0030
0000
0000
0000
0100
1000
0010
1000
,  // measure 60
1001
0000
0001
0000
0100
0000
1000
0000
0100
0001
0000
0001
1000
0000
0100
0000
,  // measure 61
1000
0000
0010
0000
0001
0000
1000
0000
0000
0100
0000
0000
0100
0000
0000
0000
,  // measure 62
0001
0000
0001
0000
0010
0000
1000
0000
0010
0001
0000
0001
1000
0000
0100
0000
,  // measure 63
0001
0000
0100
0000
1000
0000
0001
0000
0000
0100
0000
0000
0100
0000
0000
0000
,  // measure 64
0010
0000
0010
0000
0100
0000
1000
0000
0100
0001
0000
0001
0100
0000
0010
0000
,  // measure 65
1000
0000
0010
0000
0001
0000
1000
0000
0000
0100
0000
0000
0100
0000
0000
0000
,  // measure 66
0001
0000
0001
0000
1000
0000
0100
0000
0001
0100
0000
0100
1000
0000
0010
0000
,  // measure 67
0100
0001
0100
0001
0100
0001
0010
0001
0010
0001
0010
0001
0020
0000
0000
0000
,  // measure 68
0130
1000
0010
0000
0100
0000
0100
0000
0001
0100
0010
0000
1000
0000
1000
0000
,  // measure 69
0001
1000
0001
0000
0010
0000
0100
1000
0010
0000
0001
0000
1000
0000
0100
0000
,  // measure 70
0001
1000
0100
0000
0001
0000
0001
0000
0100
0010
0001
0000
0010
0000
0010
0000
,  // measure 71
0100
1000
0100
0000
0010
0000
0001
0100
0010
0000
1000
0000
0100
0000
0010
0000
,  // measure 72
1000
0010
0100
0000
1000
0000
1000
0000
0001
1000
0010
0000
0100
0000
0100
0000
,  // measure 73
0001
0100
0001
0000
1000
0000
0100
0010
0001
0000
0100
0000
0001
0000
0100
0000
,  // measure 74
0001
1000
0001
1000
0001
1000
0001
1000
0010
0100
0010
0100
0010
0100
0010
0100
,  // measure 75
0002
0000
0200
0000
1010
0303
0000
0000
,  // measure 76
1001
0000
0001
0000
2000
0000
0002
0000
0010
3003
0000
0000
0000
0000
0011
0000
,  // measure 77
0000
1100
0000
0001
0101
0100
0001
0001
,  // measure 78
1001
1000
0001
0002
2000
3003
1000
1010
,  // measure 79
0000
0101
0000
1000
1001
0001
0001
0001
,  // measure 80
1001
2000
0002
0020
,  // measure 81
0200
0000
0000
0000
0000
3333
0000
0000
,  // measure 82
1001
0000
0001
0000
0100
0000
1000
0000
0100
0001
0000
1000
0010
0000
0100
0000
,  // measure 83
0101
0000
0001
0000
0001
0000
0010
0000
0000
0002
0000
0000
1003
0000
0000
0000
,  // measure 84
1010
0000
0010
0000
0001
0000
0010
0000
1000
0100
0000
0010
0100
0000
0001
0000
,  // measure 85
0101
0000
0100
0000
0100
0000
0001
0000
0000
2000
0000
0000
3010
0000
0000
0000
,  // measure 86
0110
0000
0100
0000
1000
0000
0100
0000
0010
0100
0000
1000
0001
0000
0100
0000
,  // measure 87
0110
0000
0010
0000
0010
0000
1000
0000
0000
0002
0000
0000
0013
0000
0000
0000
,  // measure 88
0021
0000
0031
0000
1002
0000
1003
0000
0100
0010
0100
0010
0100
0010
0100
0000
,  // measure 89
1010
0000
1000
0000
0001
0000
1001
0000
0000
1010
0000
0000
0110
0000
0000
0000
,  // measure 90
0102
0000
0000
0000
,  // measure 91
0000
0000
0000
0000
,  // measure 92
0000
0000
0000
0000
0000
0000
0000
2000
0000
0000
0000
0000
0000
0000
0000
0000
,  // measure 93
0000
0000
0000
0000
,  // measure 94
3113
0000
0000
0000
;
