#TITLE:HEALEN;
#SUBTITLE:;
#ARTIST:positive-MA;
#TITLETRANSLIT:;
#SUBTITLETRANSLIT:;
#ARTISTTRANSLIT:;
#CREDIT:;
#BANNER:HEALEN-bn.png;
#BACKGROUND:Title Card-bg.png;
#LYRICSPATH:;
#CDTITLE:NEMESetupLOGO.PNG;
#MUSIC:36 - (2 Step) positive MA - HEALEN (Long Version).mp3;
#OFFSET:-7.802;
#SAMPLESTART:24.010;
#SAMPLELENGTH:12.000;
#SELECTABLE:YES;
#DISPLAYBPM:133.000;
#BPMS:0.000=133.010;
#STOPS:;
#BGCHANGES:0.000=Black-bg.png=1.000=1=0=1,
4.000=HEALEN-bg.png=1.000=1=0=1,
8.000=Black-bg.png=1.000=1=0=1,
12.000=HEALEN-bg.png=1.000=1=0=1,
16.000=Black-bg.png=1.000=1=0=1,
18.000=HEALEN-bg.png=1.000=1=0=1,
20.000=HEALEN-bg.png=1.000=1=0=1,
21.000=HEALEN-bg.png=1.000=1=0=1,
22.500=HEALEN-bg.png=1.000=1=0=1,
23.500=HEALEN-bg.png=1.000=1=0=1,
24.000=HEALEN-bg.png=1.000=1=0=1,
26.500=HEALEN-bg.png=1.000=1=0=1,
26.625=Black-bg.png=1.000=0=0=1,
26.750=HEALEN-bg.png=1.000=1=0=1,
26.875=Black-bg.png=1.000=0=0=1,
27.000=HEALEN-bg.png=1.000=1=0=1,
27.250=Black-bg.png=1.000=0=0=1,
27.500=HEALEN-bg.png=1.000=1=0=1,
28.000=HEALEN-bg.png=1.000=1=0=1,
29.000=HEALEN-bg.png=1.000=1=0=1,
30.500=HEALEN-bg.png=1.000=1=0=1,
31.500=HEALEN-bg.png=1.000=1=0=1,
32.000=HEALEN-bg.png=1.000=1=0=1,
34.500=HEALEN-bg.png=1.000=0=0=1,
34.625=Black-bg.png=1.000=0=0=1,
34.750=HEALEN-bg.png=1.000=0=0=1,
34.875=Black-bg.png=1.000=0=0=1,
35.000=HEALEN-bg.png=1.000=0=0=1,
35.250=Black-bg.png=1.000=0=0=1,
35.500=HEALEN-bg.png=1.000=0=0=1,
36.000=-random-=1.000=0=0=1,
97.500=HEALEN-bg.png=1.000=1=0=1,
100.000=-random-=1.000=0=0=1,
130.000=HEALEN-bg.png=1.000=1=0=1,
132.000=-random-=1.000=0=0=1,
161.250=HEALEN-bg.png=1.000=1=0=1,
164.000=-random-=1.000=0=0=1,
193.500=HEALEN-bg.png=1.000=1=0=1,
196.000=-random-=1.000=0=0=1,
197.500=HEALEN-bg.png=1.000=0=0=1,
197.750=-random-=1.000=0=0=1,
202.500=HEALEN-bg.png=1.000=0=0=1,
202.625=-random-=1.000=0=0=1,
202.750=HEALEN-bg.png=1.000=0=0=1,
202.875=-random-=1.000=0=0=1,
203.000=HEALEN-bg.png=1.000=0=0=1,
203.250=-random-=1.000=0=0=1,
203.500=HEALEN-bg.png=1.000=0=0=1,
204.000=-random-=1.000=0=0=1,
205.500=HEALEN-bg.png=1.000=0=0=1,
205.750=-random-=1.000=0=0=1,
210.500=HEALEN-bg.png=1.000=0=0=1,
210.625=-random-=1.000=0=0=1,
210.750=HEALEN-bg.png=1.000=0=0=1,
210.875=-random-=1.000=0=0=1,
211.000=HEALEN-bg.png=1.000=0=0=1,
211.250=-random-=1.000=0=0=1,
211.500=HEALEN-bg.png=1.000=0=0=1,
212.000=-random-=1.000=0=0=1,
213.500=HEALEN-bg.png=1.000=1=0=1,
214.500=-random-=1.000=0=0=1,
215.000=HEALEN-bg.png=1.000=0=0=1,
216.000=-random-=1.000=0=0=1,
218.500=HEALEN-bg.png=1.000=0=0=1,
218.625=-random-=1.000=0=0=1,
218.750=HEALEN-bg.png=1.000=0=0=1,
218.875=-random-=1.000=0=0=1,
219.000=HEALEN-bg.png=1.000=0=0=1,
219.250=-random-=1.000=0=0=1,
219.500=HEALEN-bg.png=1.000=0=0=1,
220.000=-random-=1.000=0=0=1,
221.500=HEALEN-bg.png=1.000=0=0=1,
222.500=-random-=1.000=0=0=1,
223.000=HEALEN-bg.png=1.000=0=0=1,
224.000=-random-=1.000=0=0=1,
224.250=HEALEN-bg.png=1.000=0=0=1,
224.750=-random-=1.000=0=0=1,
225.000=HEALEN-bg.png=1.000=0=0=1,
225.500=-random-=1.000=0=0=1,
225.750=HEALEN-bg.png=1.000=0=0=1,
226.250=-random-=1.000=0=0=1,
226.500=HEALEN-bg.png=1.000=0=0=1,
227.000=-random-=1.000=0=0=1,
227.250=HEALEN-bg.png=1.000=0=0=1,
227.500=-random-=1.000=0=0=1,
227.750=HEALEN-bg.png=1.000=0=0=1,
228.000=Black-bg.png=1.000=1=0=1,
99999=-nosongbg-=1.000=0=0=0 // don't automatically add -songbackground-
;

//---------------dance-single - NEMESetup----------------
#NOTES:
     dance-single:
     NEMESetup:
     Easy:
     3:
     0.180,0.176,0.027,0.124,0.000:
0000
0000
0000
0000
,
0100
0000
0100
0000
,
0100
0000
0100
0000
,
0010
0000
0010
0000
,
0010
0000
0010
0000
,
0020
0100
0000
0100
,
0000
0100
0000
0100
,
0230
0010
0000
0000
,
0010
0000
0000
0010
,
0310
0000
1000
0100
,
1000
0000
0100
0000
,
0010
0000
0001
0010
,
0001
0000
0001
0000
,
1000
0000
0001
1000
,
0001
0000
0001
0000
,
0100
0000
0010
0100
,
0020
0000
0030
0000
,
1010
0000
0000
1000
,
0100
0000
0010
0000
,
0001
0000
0000
1000
,
0001
0000
0100
0000
,
0010
0000
0000
1000
,
0100
0000
1000
0000
,
0001
0000
0000
0001
,
0010
0000
0010
0000
,
0012
0000
0000
0100
,
0100
0000
0000
0000
,
2003
0000
0000
0010
,
0010
0000
0000
0000
,
3200
0000
0000
1000
,
1000
0000
0000
0000
,
0320
0000
0000
0001
,
0001
0000
0000
0030
,
0011
0000
1000
0000
,
0001
0000
0100
0010
,
0200
0000
0000
0010
,
0310
0000
1000
0100
,
0200
0000
0000
1000
,
1300
0000
1000
0001
,
0002
0000
0000
0000
,
1000
0000
0010
0000
,
0203
0000
0000
0001
,
0301
0000
1000
0010
,
0020
0000
0000
1000
,
1030
0000
1000
0100
,
0020
0000
0000
0001
,
0031
0000
0001
0100
,
0200
0000
0000
0010
,
0310
0000
1000
0000
,
0010
0000
0100
0100
,
0010
0000
1000
1000
,
0001
0000
0100
0100
,
0001
0000
0010
0001
,
1000
0000
0001
0001
,
1000
0000
0010
0010
,
1000
0000
0001
0001
,
0100
0000
0010
0100
;

//---------------dance-single - NEMESetup----------------
#NOTES:
     dance-single:
     NEMESetup:
     Medium:
     5:
     0.322,0.279,0.160,0.275,0.031:
0000
0000
0000
0000
,
1000
0100
1000
0100
,
0001
0100
0001
0100
,
1000
0010
1000
0010
,
0001
0010
0001
0010
,
2000
0000
0010
0000
0000
0100
0000
0100
,
3100
0000
0000
0000
0000
0010
0010
0000
,
0002
0000
0010
0000
0000
0100
0000
0010
,
0013
0000
0000
0000
0000
0100
0010
0000
,
1001
0000
0000
0000
1000
0001
0000
0001
,
0020
0000
0100
0000
0000
0100
0130
0000
,
1000
0000
0000
0000
0010
0100
0000
0100
,
0002
0000
1000
0000
0000
1000
1003
0000
,
0010
0000
0000
0000
1000
0100
0000
0100
,
2000
0000
0001
0000
0000
0001
3001
0000
,
0100
0000
0000
0000
0010
0001
0000
0001
,
0010
1000
0100
0001
,
0120
0000
0000
1030
0000
0000
0001
0000
,
0200
0000
0000
0301
0000
0000
1001
0000
,
0020
0000
0000
1030
0000
0000
1000
0000
,
0200
0000
0000
0301
0000
0000
1001
0000
,
0012
0000
0000
0103
0000
0000
0010
0000
,
2000
0000
0000
3100
0000
0000
0010
0000
,
0120
0000
0000
0031
0000
0000
0100
0000
,
0002
0000
0000
1000
0000
0100
0103
0000
,
0200
0000
0000
0001
0000
0302
0000
0000
,
1003
0000
1000
1000
0000
0001
0000
0000
,
0200
0000
0000
0010
0000
0320
0000
0000
,
1030
0000
0001
0001
0100
0000
0100
0000
,
0020
0000
0000
1000
0000
2030
0000
0000
,
3100
0000
0001
0001
0000
0100
0000
0000
,
0020
0000
0000
0001
0000
0032
0000
0000
,
1003
0000
0010
0010
0000
1000
0000
0100
,
1000
0100
0001
0100
,
1000
0000
0000
1000
0000
0000
1000
0000
0000
0000
0000
0000
1001
0000
0000
0000
,
0001
0100
1000
0100
,
0001
0000
0000
0001
0000
0000
0001
0000
0000
0000
0000
0000
1001
0000
0000
0000
,
1000
0010
0001
0010
,
1000
0000
0000
1000
0000
0000
1000
0000
0000
0000
0000
0000
1001
0000
0000
0000
,
0001
0010
1000
0010
,
0001
0000
0000
0001
0000
0000
0001
0000
0000
0000
0000
0000
1001
0000
0000
0000
,
0120
0000
0000
2030
0000
0000
0000
0000
,
0001
0000
0000
0001
0000
0000
3001
0000
0000
0000
0000
0000
0011
0000
0000
0000
,
2001
0000
0000
3020
0000
0000
0000
0000
,
0100
0000
0000
0100
0000
0000
0130
0000
0000
0000
0000
0000
1100
0000
0000
0000
,
0201
0000
0000
0320
0000
0000
0000
0000
,
1000
0000
0000
1000
0000
0000
1030
0000
0000
0000
0000
0000
1001
0000
0000
0000
,
0012
0000
0000
2003
0000
0000
0100
0000
,
0200
0000
3300
0100
,
0011
1000
0010
0100
,
0001
0000
1000
0000
0000
0001
1000
0000
,
0100
0010
1000
0100
,
0010
0000
0001
0000
0000
0010
0001
0000
,
0100
0010
0001
0010
,
1000
0000
0100
0000
0000
1000
0100
0000
,
0001
0100
0010
0001
,
1000
0000
0010
0000
0000
0100
0010
2000
,
0000
3000
0000
0000
0000
0000
0000
0000
;

//---------------dance-single - NEMESetup----------------
#NOTES:
     dance-single:
     NEMESetup:
     Hard:
     7:
     0.436,0.431,0.178,0.329,0.160:
0000
0000
0000
0000
,
1000
0100
1000
0100
0001
0100
0001
0100
,
1000
0010
1000
0010
0001
0010
0001
0010
,
1000
0100
1000
0100
0010
0001
0010
0001
,
1000
0100
0010
0001
0001
0010
0100
1000
,
0200
0000
0310
0000
0000
0100
0000
1000
,
0100
0000
0000
0000
0000
0010
0010
0100
,
0001
0000
0001
0000
0000
0100
0000
0010
,
0010
0000
0000
0000
0000
0010
0010
0100
,
1001
0000
0000
0000
0001
0000
0000
0000
1000
0000
1000
0000
0000
0100
1000
0000
,
0010
0000
0000
0000
0110
0000
0000
0000
0000
0000
0100
0001
0100
0000
0001
0000
,
1000
0000
0000
0000
0100
0000
0000
0000
0010
0000
0010
0000
0000
0001
0010
0000
,
0100
0000
0000
0000
1100
0000
0000
0000
0000
0000
1000
0001
1000
0000
0010
0000
,
0100
0001
0000
1000
0000
0100
0000
1000
,
0000
0001
0000
0010
0000
0100
0000
0010
,
0000
0001
0000
1000
0000
0010
0000
1000
,
0001
0001
1000
0100
0100
1000
0001
0001
,
0201
0000
0000
0302
0000
1003
0100
0010
,
0002
0000
0000
2003
0000
3000
0100
0000
,
2000
0000
0000
3020
0000
0130
0001
1000
,
0020
0000
0000
0230
0000
0300
0001
0000
,
0200
0000
0000
0302
0000
0013
0100
1000
,
0020
0000
0000
2030
0000
3000
0100
0000
,
2000
0000
0000
3002
0000
0103
1000
0100
,
0002
0000
0000
0023
0000
0100
0130
0000
,
2010
0000
0000
0001
0000
0000
0001
0000
0000
0000
0020
0000
3000
0000
0000
0000
,
0100
0000
0000
1000
0000
0000
0100
0000
0000
0000
1000
0000
1030
0000
0100
0000
,
0002
0000
0000
0100
0000
0000
0103
0000
0000
0000
2000
0000
0000
0000
0000
0000
,
0001
0000
0000
0010
0000
0000
0100
0000
3100
0000
0000
0000
1100
0000
0000
0000
,
0102
0000
0000
1000
0000
0000
1000
0000
0000
0000
0200
0000
0003
0000
0000
0000
,
0010
0000
0000
0001
0000
0000
0010
0000
0000
0000
0001
0000
0301
0000
0010
0000
,
2000
0000
0000
0010
0000
0000
3010
0000
0000
0000
0200
0000
0000
0000
0000
0000
,
1000
0000
0000
1000
0000
0000
1300
0000
0000
0000
0002
0000
0000
0000
0103
0000
,
0201
0000
0000
1000
0000
0000
0010
0000
0000
0000
0302
0000
0000
0000
0000
0000
,
0100
0000
0000
1000
0000
0000
0103
0000
0000
0000
0100
0000
0000
0000
0100
0000
,
0020
0000
0000
0001
0000
0000
0100
0000
0000
0000
2030
0000
0000
0000
0000
0000
,
0100
0000
0000
0001
0000
0000
3100
0000
0000
0000
0100
0000
0000
0000
0100
0000
,
2000
0000
0000
0100
0000
0000
0001
0000
0000
0000
3020
0000
0000
0000
0000
0000
,
0100
0000
0000
0001
0000
0000
0130
0000
0000
0000
0100
0000
0000
0000
0100
0000
,
0002
0000
0000
0100
0000
0000
1000
0000
0000
0000
0023
0000
0000
0000
0000
0000
,
0100
0000
0000
1000
0000
0000
0130
0000
0000
0000
0100
0000
0010
0000
0000
0000
,
1001
0000
0000
0100
0000
0000
0010
0000
0000
0000
0010
0000
0000
0000
1000
0000
,
0100
0000
0000
0001
0000
0000
0100
0000
0000
0000
1000
0000
1000
0000
0001
0000
,
0100
0000
0000
0001
0000
0000
0010
0000
0000
0000
0010
0000
0000
0000
0001
0000
,
0100
0000
0000
1000
0000
0000
0100
0000
0000
0000
0001
0000
0001
0000
1000
0000
,
0010
0000
0000
1000
0000
0000
0001
0000
0000
0000
0001
0000
0000
0000
1000
0000
,
0100
0000
0000
0001
0000
0000
0100
0000
0000
0000
1000
0000
1000
0000
0001
0000
,
0010
0000
0000
0001
0000
0000
1000
0000
0000
0000
1000
0000
0000
0000
0001
0000
,
0200
0000
0000
0010
0000
0000
0001
0000
0000
0000
0001
0000
0301
0000
0001
0000
,
1000
0100
0000
1001
0000
0000
0110
0000
,
1000
0000
0000
0001
0000
0000
1000
0000
0000
0000
0100
0010
0100
0000
0010
0000
,
0001
0100
0000
1001
0000
0000
0110
0000
,
1000
0000
0000
0001
0000
0000
1000
0000
0000
0000
0100
0010
0100
0000
0010
0000
,
1000
0001
0000
0012
0000
0000
0103
0000
,
0010
0000
0000
1000
0000
0000
1010
0000
0000
0000
1000
0001
1000
0000
0001
0000
,
0010
0100
0000
1001
0000
0000
1010
0000
,
0011
0000
0000
0010
0000
0000
1100
0000
0000
0000
0000
0000
0101
0000
1000
0020
,
0000
0030
0000
0000
0000
0000
0000
0000
;

//---------------dance-single - NEMESetup----------------
#NOTES:
     dance-single:
     NEMESetup:
     Beginner:
     1:
     0.100,0.126,0.044,0.124,0.000:
0000
0000
0000
0000
,
1000
0000
0000
0000
,
0001
0000
0000
0000
,
1000
0000
0000
0000
,
0001
0000
0000
0000
,
0100
0000
0000
0000
,
0000
0000
0000
0000
,
0010
0000
0000
0000
,
0000
0000
0000
0000
,
1001
0000
0000
0000
,
0001
0000
0010
0000
,
0001
0000
0000
0000
,
1000
0000
0010
0000
,
1000
0000
0000
0000
,
0100
0000
0010
0000
,
0100
0000
0000
0000
,
0020
0000
0030
0000
,
0110
0000
0000
0000
,
0010
0000
1000
0000
,
0010
0000
0000
0000
,
0100
0000
0001
0000
,
0100
0000
0000
0000
,
0001
0000
0000
0000
,
1000
0000
0000
0000
,
0001
0000
0000
0000
,
0020
0000
0000
0000
,
0000
0030
0000
0000
,
0200
0000
0000
0000
,
0000
0300
0000
0000
,
2000
0000
0000
0000
,
0000
3000
0000
0000
,
0002
0000
0000
0000
,
0000
0003
0000
0000
,
1001
0000
0000
0000
,
0002
0000
0003
0000
,
2000
0000
3000
0000
,
0020
0000
0030
0000
,
0200
0000
0300
0000
,
0002
0000
0003
0000
,
0020
0000
0000
0000
,
0000
0000
0030
0000
,
0110
0000
0000
0000
,
1000
0000
1000
0000
,
2000
0000
3000
0000
,
0001
0000
0001
0000
,
0002
0000
0003
0000
,
0100
0000
0100
0000
,
0200
0000
0000
0000
,
0000
0000
0300
0000
,
1001
0000
0000
0000
,
0001
0000
0000
1000
,
1000
0000
0000
0000
,
0100
0000
0000
0010
,
0010
0000
0000
0000
,
1000
0000
0000
0001
,
0001
0000
0000
0000
,
0100
0000
0000
0100
;

//---------------dance-single - NEMESetup----------------
#NOTES:
     dance-single:
     NEMESetup:
     Challenge:
     9:
     0.511,0.507,0.266,0.302,0.351: // measure 1
0000
0000
0000
0000
,  // measure 2
0100
0000
0001
0100
0000
0100
0000
0100
0010
0000
1000
0000
0100
0000
0010
0000
,  // measure 3
0100
0000
0000
1000
0000
0000
0100
0000
0000
0000
0000
0000
0000
0010
0100
0000
,  // measure 4
1000
0000
0100
0010
0000
0010
0000
0010
0001
0000
1000
0000
0100
0000
0010
0000
,  // measure 5
0100
0010
0001
0000
1000
0000
0010
0000
0100
0000
0001
1000
0010
0000
0010
0000
,  // measure 6
0100
0000
0101
0000
0000
1000
1001
0010
,  // measure 7
0100
0000
0000
0000
0110
0000
0000
0000
0000
0000
0010
1000
0010
0000
0010
0000
,  // measure 8
0100
0000
0000
0000
0001
0000
0000
1001
0000
0000
1100
0000
0000
0000
0010
0000
,  // measure 9
0110
0000
0010
0100
0000
0000
0000
0010
0000
0010
1000
0100
1000
0000
0001
0000
,  // measure 10
0101
0000
0000
0000
0010
0000
1000
0000
0010
0000
0010
0000
0100
0001
0100
0000
,  // measure 11
0002
0000
0000
1000
0000
0000
1003
0000
0000
0000
0010
0100
0010
0000
1000
0000
,  // measure 12
0100
0000
0000
0000
1000
0000
0001
0000
1000
0000
1000
0000
0010
0100
0010
0000
,  // measure 13
0200
0000
0000
0001
0000
0000
0301
0000
0000
0000
1000
0010
1000
0000
0001
0000
,  // measure 14
0100
0001
0000
0011
0000
1000
0000
1010
,  // measure 15
0000
0001
0000
0101
0000
1000
0000
1100
,  // measure 16
0000
0010
0000
0110
0000
0100
0000
0101
,  // measure 17
0001
0100
0001
0000
0010
0000
0100
1000
0100
0000
0010
0000
0100
0010
0100
0000
,  // measure 18
2001
0000
0000
0010
0000
0000
3002
0000
0000
0000
0000
0000
0010
0000
0000
0000
,  // measure 19
2003
0000
0000
0100
0000
0000
3002
0000
0000
0000
0000
0000
0203
0000
0000
0000
,  // measure 20
0320
0000
0000
0001
0000
0000
2030
0000
0000
0000
0000
0000
0100
0000
0000
0000
,  // measure 21
3020
0000
0000
1000
0000
0000
0032
0000
0000
0000
0000
0000
2003
0000
0000
0000
,  // measure 22
3200
0000
0000
1000
0000
0000
0320
0000
0000
0000
0000
0000
0001
0000
0000
0000
,  // measure 23
0230
0000
0000
0001
0000
0000
0320
0000
0000
0000
0000
0000
0230
0000
0000
0000
,  // measure 24
0302
0000
0000
0010
0000
0000
2003
0000
0000
0000
0000
0000
0100
0000
0000
0000
,  // measure 25
3002
0000
0000
1000
0000
0100
0103
0000
,  // measure 26
0110
0000
0000
1000
0000
0000
0100
0000
0000
0000
2001
0000
0000
0000
0000
0000
,  // measure 27
0100
0000
0000
0010
0000
0000
3100
0000
0000
0000
0100
0000
0100
0000
0010
0000
,  // measure 28
0001
0000
0000
1000
0000
0000
0010
0000
0000
0000
0120
0000
0000
0000
0000
0000
,  // measure 29
0100
0000
0000
1000
0000
0000
0100
0000
0130
0000
0000
0001
0000
0000
0100
0000
,  // measure 30
0101
0000
0000
0010
0000
0000
0100
0000
0000
0000
2010
0000
0000
0000
0000
0000
,  // measure 31
0100
0000
0000
0001
0000
0000
3100
0000
0000
0000
0010
0000
0010
0000
0001
0000
,  // measure 32
0102
0000
0000
1000
0000
0000
0100
0000
0000
0000
0023
0000
0000
0000
0000
0000
,  // measure 33
0100
0000
0000
0001
0000
0000
0130
0000
0000
0000
0010
0100
0010
0000
0001
0000
,  // measure 34
1100
0000
0010
0000
0000
0100
0000
0001
,  // measure 35
0100
0000
1000
0100
0000
0000
0100
0000
0000
0000
0001
0010
0001
0000
0010
0000
,  // measure 36
0100
0000
1000
0000
0000
0100
0000
1000
,  // measure 37
0010
0000
0001
0010
0000
0000
0010
0000
0000
0000
1000
0100
1000
0000
0010
0000
,  // measure 38
0100
0000
0001
0000
0000
0100
0000
0010
,  // measure 39
1000
0000
1001
0000
0000
0001
0000
0010
,  // measure 40
0000
0000
0100
0000
1000
0010
0100
0000
0001
0000
0100
0000
0000
0000
1000
0000
,  // measure 41
0100
0000
0000
0000
0101
0000
0000
0000
0000
0000
0010
0000
1000
0010
0000
0010
,  // measure 42
0001
0000
0000
0010
2000
0000
0001
0000
3000
0000
1001
0000
0000
0000
0010
0000
,  // measure 43
0100
0000
0000
0010
0000
0000
0100
0000
0000
0000
0001
0010
0100
0000
1000
0000
,  // measure 44
0001
0000
0000
0100
2000
0000
0100
0000
3000
0000
0101
0000
0000
0000
1000
0000
,  // measure 45
0010
0000
0000
0100
0000
0000
0010
0000
0000
0000
1000
0100
0010
0000
0001
0000
,  // measure 46
1000
0000
0000
0010
0002
0000
1000
0000
0003
0000
1100
0000
0000
0000
0001
0000
,  // measure 47
0100
0000
0000
0010
0200
0000
0001
0000
0300
0000
0001
0000
0000
0000
1001
0000
,  // measure 48
0000
0000
0100
0000
1000
0010
0100
0000
0001
0000
0100
0000
0000
0000
0001
0000
,  // measure 49
0020
0000
0001
0000
0000
0100
0030
0100
,  // measure 50
1000
0000
0001
0100
0000
0100
0000
0001
0000
0000
1000
0000
1010
0000
0000
0000
,  // measure 51
0100
0000
0100
0001
0000
0000
0100
0000
0000
0000
0010
1000
0100
0000
0010
0000
,  // measure 52
0001
0000
1000
0100
0000
0100
0000
1000
0000
0000
0001
0000
0011
0000
0000
0000
,  // measure 53
0100
0000
0100
1000
0000
0000
0100
0000
0000
0000
0010
0001
0100
0000
0010
0000
,  // measure 54
0100
0000
0001
1000
0000
1000
0020
0000
0000
0000
0030
0000
2001
0000
0000
0000
,  // measure 55
3100
0000
0000
0010
0000
0000
0100
0000
0000
0000
1000
0001
0100
0000
0010
0000
,  // measure 56
0100
0000
1000
0100
0000
0100
0002
0000
0000
0000
0000
0000
0013
0000
0000
0000
,  // measure 57
0100
0010
0000
0100
0001
0000
1000
0010
0000
0000
0001
0000
0010
0001
0100
0020
,  // measure 58
0000
0030
0000
0000
0000
0000
0000
0000
;
