#TITLE:ELECTRONICS;
#SUBTITLE:;
#ARTIST:CLAZZIQUAI;
#TITLETRANSLIT:;
#SUBTITLETRANSLIT:;
#ARTISTTRANSLIT:;
#CREDIT:;
#BANNER:ELECTRONICS-bn.png;
#BACKGROUND:Title Card-bg.png;
#LYRICSPATH:;
#CDTITLE:NEMESetupLOGO.PNG;
#MUSIC:03. Electronics.mp3;
#OFFSET:-0.798;
#SAMPLESTART:82.654;
#SAMPLELENGTH:15.200;
#SELECTABLE:YES;
#BPMS:0.000=128.010,50.000=256.031,67.000=128.010,209.000=256.031,225.000=128.010;
#STOPS:39.000=0.120
,39.250=0.120
,46.500=0.120
,46.750=0.120
,66.000=0.100
,66.500=0.100
,159.000=0.240
,159.250=0.240
,159.500=0.120
,159.750=0.360
;
#BGCHANGES:0.000=Black-bg.png=1.000=1=0=1,
4.000=ELECTRONICS-bg.png=1.000=0=0=1,
4.125=Black-bg.png=1.000=0=0=1,
4.250=ELECTRONICS-bg.png=1.000=0=0=1,
4.750=Black-bg.png=1.000=0=0=1,
5.000=ELECTRONICS-bg.png=1.000=0=0=1,
5.750=Black-bg.png=1.000=0=0=1,
6.000=ELECTRONICS-bg.png=1.000=0=0=1,
6.125=Black-bg.png=1.000=0=0=1,
6.250=ELECTRONICS-bg.png=1.000=0=0=1,
6.750=Black-bg.png=1.000=0=0=1,
7.000=ELECTRONICS-bg.png=1.000=0=0=1,
7.750=Black-bg.png=1.000=0=0=1,
8.000=ELECTRONICS-bg.png=1.000=0=0=1,
8.125=Black-bg.png=1.000=0=0=1,
8.250=ELECTRONICS-bg.png=1.000=0=0=1,
8.750=Black-bg.png=1.000=0=0=1,
9.000=ELECTRONICS-bg.png=1.000=0=0=1,
9.750=Black-bg.png=1.000=0=0=1,
10.000=ELECTRONICS-bg.png=1.000=0=0=1,
10.250=Black-bg.png=1.000=0=0=1,
10.375=ELECTRONICS-bg.png=1.000=0=0=1,
10.500=Black-bg.png=1.000=0=0=1,
10.625=ELECTRONICS-bg.png=1.000=0=0=1,
10.750=Black-bg.png=1.000=0=0=1,
11.000=ELECTRONICS-bg.png=1.000=0=0=1,
11.250=Black-bg.png=1.000=0=0=1,
11.500=ELECTRONICS-bg.png=1.000=0=0=1,
11.750=Black-bg.png=1.000=0=0=1,
12.000=ELECTRONICS-bg.png=1.000=0=0=1,
12.125=Black-bg.png=1.000=0=0=1,
12.250=ELECTRONICS-bg.png=1.000=0=0=1,
12.750=Black-bg.png=1.000=0=0=1,
13.000=ELECTRONICS-bg.png=1.000=0=0=1,
13.750=Black-bg.png=1.000=0=0=1,
14.000=ELECTRONICS-bg.png=1.000=0=0=1,
14.125=Black-bg.png=1.000=0=0=1,
14.250=ELECTRONICS-bg.png=1.000=0=0=1,
14.750=Black-bg.png=1.000=0=0=1,
15.000=ELECTRONICS-bg.png=1.000=0=0=1,
15.750=Black-bg.png=1.000=0=0=1,
16.000=ELECTRONICS-bg.png=1.000=0=0=1,
16.125=Black-bg.png=1.000=0=0=1,
16.250=ELECTRONICS-bg.png=1.000=0=0=1,
16.750=Black-bg.png=1.000=0=0=1,
17.000=ELECTRONICS-bg.png=1.000=0=0=1,
17.750=Black-bg.png=1.000=0=0=1,
18.000=ELECTRONICS-bg.png=1.000=0=0=1,
18.250=Black-bg.png=1.000=0=0=1,
18.500=ELECTRONICS-bg.png=1.000=0=0=1,
18.625=Black-bg.png=1.000=0=0=1,
18.750=ELECTRONICS-bg.png=1.000=0=0=1,
18.875=Black-bg.png=1.000=0=0=1,
19.000=ELECTRONICS-bg.png=1.000=0=0=1,
19.500=Black-bg.png=1.000=0=0=1,
20.000=-random-=1.000=0=0=1,
20.750=ELECTRONICS-bg.png=1.000=0=0=1,
21.000=-random-=1.000=0=0=1,
22.750=ELECTRONICS-bg.png=1.000=0=0=1,
23.000=-random-=1.000=0=0=1,
24.750=ELECTRONICS-bg.png=1.000=0=0=1,
25.000=-random-=1.000=0=0=1,
25.250=ELECTRONICS-bg.png=1.000=0=0=1,
25.375=-random-=1.000=0=0=1,
25.500=ELECTRONICS-bg.png=1.000=0=0=1,
25.625=-random-=1.000=0=0=1,
26.750=ELECTRONICS-bg.png=1.000=0=0=1,
27.000=-random-=1.000=0=0=1,
28.750=ELECTRONICS-bg.png=1.000=0=0=1,
29.000=-random-=1.000=0=0=1,
30.750=ELECTRONICS-bg.png=1.000=0=0=1,
31.000=-random-=1.000=0=0=1,
32.750=ELECTRONICS-bg.png=1.000=0=0=1,
33.000=-random-=1.000=0=0=1,
33.250=ELECTRONICS-bg.png=1.000=0=0=1,
33.375=-random-=1.000=0=0=1,
33.500=ELECTRONICS-bg.png=1.000=0=0=1,
33.625=-random-=1.000=0=0=1,
34.750=ELECTRONICS-bg.png=1.000=0=0=1,
34.875=-random-=1.000=0=0=1,
35.000=ELECTRONICS-bg.png=1.000=0=0=1,
36.000=-random-=1.000=0=0=1,
39.000=ELECTRONICS-bg.png=1.000=0=0=1,
39.125=Black-bg.png=1.000=0=0=1,
39.250=ELECTRONICS-bg.png=1.000=0=0=1,
39.500=-random-=1.000=0=0=1,
46.500=ELECTRONICS-bg.png=1.000=0=0=1,
46.625=Black-bg.png=1.000=0=0=1,
46.750=ELECTRONICS-bg.png=1.000=0=0=1,
47.000=-random-=1.000=0=0=1,
50.000=ELECTRONICS-bg.png=1.000=0=0=1,
50.500=-random-=1.000=0=0=1,
51.000=ELECTRONICS-bg.png=1.000=0=0=1,
51.500=-random-=1.000=0=0=1,
52.000=ELECTRONICS-bg.png=1.000=0=0=1,
52.500=-random-=1.000=0=0=1,
53.000=ELECTRONICS-bg.png=1.000=0=0=1,
53.500=-random-=1.000=0=0=1,
54.000=ELECTRONICS-bg.png=1.000=0=0=1,
54.500=-random-=1.000=0=0=1,
55.000=ELECTRONICS-bg.png=1.000=0=0=1,
55.500=-random-=1.000=0=0=1,
56.000=ELECTRONICS-bg.png=1.000=0=0=1,
56.500=-random-=1.000=0=0=1,
57.000=ELECTRONICS-bg.png=1.000=0=0=1,
57.500=-random-=1.000=0=0=1,
58.000=ELECTRONICS-bg.png=1.000=0=0=1,
58.500=-random-=1.000=0=0=1,
59.000=ELECTRONICS-bg.png=1.000=0=0=1,
59.500=-random-=1.000=0=0=1,
60.000=ELECTRONICS-bg.png=1.000=0=0=1,
60.500=-random-=1.000=0=0=1,
61.000=ELECTRONICS-bg.png=1.000=0=0=1,
61.500=-random-=1.000=0=0=1,
62.000=ELECTRONICS-bg.png=1.000=0=0=1,
62.500=-random-=1.000=0=0=1,
63.000=ELECTRONICS-bg.png=1.000=0=0=1,
63.500=-random-=1.000=0=0=1,
64.000=ELECTRONICS-bg.png=1.000=0=0=1,
64.500=-random-=1.000=0=0=1,
65.000=ELECTRONICS-bg.png=1.000=0=0=1,
65.500=-random-=1.000=0=0=1,
66.000=ELECTRONICS-bg.png=1.000=0=0=1,
66.250=Black-bg.png=1.000=0=0=1,
66.500=ELECTRONICS-bg.png=1.000=0=0=1,
67.000=-random-=1.000=0=0=1,
74.000=ELECTRONICS-bg.png=1.000=1=0=1,
76.000=-random-=1.000=0=0=1,
83.000=ELECTRONICS-bg.png=1.000=0=0=1,
83.250=-random-=1.000=0=0=1,
83.500=ELECTRONICS-bg.png=1.000=0=0=1,
83.750=-random-=1.000=0=0=1,
84.000=ELECTRONICS-bg.png=1.000=0=0=1,
84.250=-random-=1.000=0=0=1,
84.500=ELECTRONICS-bg.png=1.000=0=0=1,
84.750=-random-=1.000=0=0=1,
85.000=ELECTRONICS-bg.png=1.000=0=0=1,
85.250=-random-=1.000=0=0=1,
85.500=ELECTRONICS-bg.png=1.000=0=0=1,
85.750=-random-=1.000=0=0=1,
86.000=ELECTRONICS-bg.png=1.000=0=0=1,
86.250=-random-=1.000=0=0=1,
86.500=ELECTRONICS-bg.png=1.000=0=0=1,
86.750=-random-=1.000=0=0=1,
87.000=ELECTRONICS-bg.png=1.000=0=0=1,
87.250=-random-=1.000=0=0=1,
87.500=ELECTRONICS-bg.png=1.000=0=0=1,
87.750=-random-=1.000=0=0=1,
88.000=ELECTRONICS-bg.png=1.000=0=0=1,
88.250=-random-=1.000=0=0=1,
88.500=ELECTRONICS-bg.png=1.000=0=0=1,
88.750=-random-=1.000=0=0=1,
89.000=ELECTRONICS-bg.png=1.000=0=0=1,
89.250=-random-=1.000=0=0=1,
89.500=ELECTRONICS-bg.png=1.000=0=0=1,
89.750=-random-=1.000=0=0=1,
91.000=ELECTRONICS-bg.png=1.000=0=0=1,
91.250=-random-=1.000=0=0=1,
91.500=ELECTRONICS-bg.png=1.000=0=0=1,
91.750=-random-=1.000=0=0=1,
92.000=ELECTRONICS-bg.png=1.000=0=0=1,
92.250=-random-=1.000=0=0=1,
92.500=ELECTRONICS-bg.png=1.000=0=0=1,
92.750=-random-=1.000=0=0=1,
93.000=ELECTRONICS-bg.png=1.000=0=0=1,
93.250=-random-=1.000=0=0=1,
93.500=ELECTRONICS-bg.png=1.000=0=0=1,
93.750=-random-=1.000=0=0=1,
94.000=ELECTRONICS-bg.png=1.000=0=0=1,
94.250=-random-=1.000=0=0=1,
94.500=ELECTRONICS-bg.png=1.000=0=0=1,
94.750=-random-=1.000=0=0=1,
95.000=ELECTRONICS-bg.png=1.000=0=0=1,
95.250=-random-=1.000=0=0=1,
95.500=ELECTRONICS-bg.png=1.000=0=0=1,
95.750=-random-=1.000=0=0=1,
96.000=ELECTRONICS-bg.png=1.000=0=0=1,
96.250=-random-=1.000=0=0=1,
96.500=ELECTRONICS-bg.png=1.000=0=0=1,
96.750=-random-=1.000=0=0=1,
97.000=ELECTRONICS-bg.png=1.000=0=0=1,
97.250=-random-=1.000=0=0=1,
97.500=ELECTRONICS-bg.png=1.000=0=0=1,
97.750=-random-=1.000=0=0=1,
98.000=ELECTRONICS-bg.png=1.000=0=0=1,
99.000=-random-=1.000=0=0=1,
102.000=ELECTRONICS-bg.png=1.000=0=0=1,
103.000=-random-=1.000=0=0=1,
106.000=ELECTRONICS-bg.png=1.000=0=0=1,
106.125=-random-=1.000=0=0=1,
106.250=ELECTRONICS-bg.png=1.000=0=0=1,
106.375=-random-=1.000=0=0=1,
106.500=ELECTRONICS-bg.png=1.000=0=0=1,
106.625=-random-=1.000=0=0=1,
106.750=ELECTRONICS-bg.png=1.000=0=0=1,
106.875=-random-=1.000=0=0=1,
110.000=ELECTRONICS-bg.png=1.000=0=0=1,
111.000=-random-=1.000=0=0=1,
114.000=ELECTRONICS-bg.png=1.000=0=0=1,
114.125=-random-=1.000=0=0=1,
114.250=ELECTRONICS-bg.png=1.000=0=0=1,
114.375=-random-=1.000=0=0=1,
114.500=ELECTRONICS-bg.png=1.000=0=0=1,
114.625=-random-=1.000=0=0=1,
114.750=ELECTRONICS-bg.png=1.000=0=0=1,
114.875=-random-=1.000=0=0=1,
115.000=ELECTRONICS-bg.png=1.000=0=0=1,
115.500=-random-=1.000=0=0=1,
118.000=ELECTRONICS-bg.png=1.000=0=0=1,
119.000=-random-=1.000=0=0=1,
122.000=ELECTRONICS-bg.png=1.000=0=0=1,
122.125=-random-=1.000=0=0=1,
122.250=ELECTRONICS-bg.png=1.000=0=0=1,
122.375=-random-=1.000=0=0=1,
122.500=ELECTRONICS-bg.png=1.000=0=0=1,
122.625=-random-=1.000=0=0=1,
122.750=ELECTRONICS-bg.png=1.000=0=0=1,
122.875=-random-=1.000=0=0=1,
126.000=ELECTRONICS-bg.png=1.000=0=0=1,
126.750=-random-=1.000=0=0=1,
127.000=ELECTRONICS-bg.png=1.000=0=0=1,
127.500=-random-=1.000=0=0=1,
128.000=ELECTRONICS-bg.png=1.000=0=0=1,
128.500=-random-=1.000=0=0=1,
129.000=ELECTRONICS-bg.png=1.000=0=0=1,
129.500=-random-=1.000=0=0=1,
130.000=ELECTRONICS-bg.png=1.000=1=0=1,
132.000=-random-=1.000=0=0=1,
138.000=ELECTRONICS-bg.png=1.000=1=0=1,
140.000=-random-=1.000=0=0=1,
146.000=ELECTRONICS-bg.png=1.000=1=0=1,
148.000=-random-=1.000=0=0=1,
154.000=ELECTRONICS-bg.png=1.000=1=0=1,
156.000=-random-=1.000=0=0=1,
159.000=ELECTRONICS-bg.png=1.000=0=0=1,
159.125=Black-bg.png=1.000=0=0=1,
159.250=ELECTRONICS-bg.png=1.000=0=0=1,
159.375=Black-bg.png=1.000=0=0=1,
159.500=ELECTRONICS-bg.png=1.000=0=0=1,
159.625=Black-bg.png=1.000=0=0=1,
159.750=ELECTRONICS-bg.png=1.000=0=0=1,
159.875=Black-bg.png=1.000=0=0=1,
160.000=ELECTRONICS-bg.png=1.000=1=0=1,
162.000=-random-=1.000=0=0=1,
164.000=ELECTRONICS-bg.png=1.000=0=0=1,
164.500=-random-=1.000=0=0=1,
165.000=ELECTRONICS-bg.png=1.000=0=0=1,
165.500=-random-=1.000=0=0=1,
165.750=ELECTRONICS-bg.png=1.000=0=0=1,
166.500=-random-=1.000=0=0=1,
167.000=ELECTRONICS-bg.png=1.000=1=0=1,
170.000=-random-=1.000=0=0=1,
176.000=ELECTRONICS-bg.png=1.000=1=0=1,
178.000=-random-=1.000=0=0=1,
180.000=ELECTRONICS-bg.png=1.000=0=0=1,
180.500=-random-=1.000=0=0=1,
181.000=ELECTRONICS-bg.png=1.000=0=0=1,
181.500=-random-=1.000=0=0=1,
181.750=ELECTRONICS-bg.png=1.000=0=0=1,
182.500=-random-=1.000=0=0=1,
183.000=ELECTRONICS-bg.png=1.000=1=0=1,
185.000=-random-=1.000=0=0=1,
192.000=ELECTRONICS-bg.png=1.000=1=0=1,
193.000=ELECTRONICS-bg.png=1.000=0=0=1,
193.250=-random-=1.000=0=0=1,
194.500=ELECTRONICS-bg.png=1.000=0=0=1,
194.750=-random-=1.000=0=0=1,
195.000=ELECTRONICS-bg.png=1.000=0=0=1,
195.250=-random-=1.000=0=0=1,
196.500=ELECTRONICS-bg.png=1.000=0=0=1,
196.750=-random-=1.000=0=0=1,
197.000=ELECTRONICS-bg.png=1.000=0=0=1,
197.250=-random-=1.000=0=0=1,
198.500=ELECTRONICS-bg.png=1.000=0=0=1,
198.750=-random-=1.000=0=0=1,
199.000=ELECTRONICS-bg.png=1.000=0=0=1,
199.250=-random-=1.000=0=0=1,
200.500=ELECTRONICS-bg.png=1.000=0=0=1,
200.750=-random-=1.000=0=0=1,
201.000=ELECTRONICS-bg.png=1.000=0=0=1,
201.250=-random-=1.000=0=0=1,
202.500=ELECTRONICS-bg.png=1.000=0=0=1,
202.750=-random-=1.000=0=0=1,
203.000=ELECTRONICS-bg.png=1.000=0=0=1,
203.250=-random-=1.000=0=0=1,
204.500=ELECTRONICS-bg.png=1.000=0=0=1,
204.750=-random-=1.000=0=0=1,
205.000=ELECTRONICS-bg.png=1.000=0=0=1,
205.250=-random-=1.000=0=0=1,
206.500=ELECTRONICS-bg.png=1.000=0=0=1,
206.750=-random-=1.000=0=0=1,
207.000=ELECTRONICS-bg.png=1.000=0=0=1,
207.250=-random-=1.000=0=0=1,
208.000=ELECTRONICS-bg.png=1.000=1=0=1,
209.500=-random-=1.000=0=0=1,
210.000=ELECTRONICS-bg.png=1.000=0=0=1,
210.500=-random-=1.000=0=0=1,
211.000=ELECTRONICS-bg.png=1.000=0=0=1,
211.500=-random-=1.000=0=0=1,
212.000=ELECTRONICS-bg.png=1.000=0=0=1,
212.500=-random-=1.000=0=0=1,
213.000=ELECTRONICS-bg.png=1.000=0=0=1,
213.500=-random-=1.000=0=0=1,
214.000=ELECTRONICS-bg.png=1.000=0=0=1,
214.500=-random-=1.000=0=0=1,
215.000=ELECTRONICS-bg.png=1.000=0=0=1,
215.500=-random-=1.000=0=0=1,
216.000=ELECTRONICS-bg.png=1.000=0=0=1,
216.500=-random-=1.000=0=0=1,
217.000=ELECTRONICS-bg.png=1.000=0=0=1,
217.500=-random-=1.000=0=0=1,
218.000=ELECTRONICS-bg.png=1.000=0=0=1,
218.500=-random-=1.000=0=0=1,
219.000=ELECTRONICS-bg.png=1.000=0=0=1,
219.500=-random-=1.000=0=0=1,
220.000=ELECTRONICS-bg.png=1.000=0=0=1,
220.500=-random-=1.000=0=0=1,
221.000=ELECTRONICS-bg.png=1.000=0=0=1,
221.500=-random-=1.000=0=0=1,
222.000=ELECTRONICS-bg.png=1.000=0=0=1,
222.500=-random-=1.000=0=0=1,
223.000=ELECTRONICS-bg.png=1.000=0=0=1,
223.500=-random-=1.000=0=0=1,
224.000=ELECTRONICS-bg.png=1.000=0=0=1,
224.500=-random-=1.000=0=0=1,
225.000=ELECTRONICS-bg.png=1.000=0=0=1,
225.250=Black-bg.png=1.000=1=0=1,
99999=-nosongbg-=1.000=0=0=0 // don't automatically add -songbackground-
;

//---------------dance-single - NEMESetup----------------
#NOTES:
     dance-single:
     NEMESetup:
     Hard:
     9:
     0.541,0.536,0.275,0.407,0.237:
0000
0000
0000
0000
,
0001
0000
0000
1000
0010
0000
0000
0000
1000
0000
0000
0001
0010
0000
0000
0000
,
0001
0000
0000
1000
0010
0000
0000
0001
0010
0000
1000
0010
0200
0000
0000
0300
,
0001
0000
0000
1000
0100
0000
0000
0000
1000
0000
0000
0001
0100
0000
0000
0000
,
0001
0000
0000
1000
0100
0000
0000
0001
0100
0000
1000
0100
1000
0000
1000
0000
,
0010
0000
0000
0101
0000
0000
0000
0000
0010
0000
0000
1100
0000
0000
0000
0000
,
0010
0000
0000
0101
0000
0000
0100
0001
0010
0000
0000
0100
1000
0000
1000
0000
,
0010
0000
0000
1100
0000
0000
0000
0000
0010
0000
0000
0101
0000
0000
0000
0000
,
0010
0000
0000
1100
0000
0000
0001
0100
0010
0000
0000
0100
0002
0000
0000
0003
,
1000
0000
0000
0000
1010
0000
0000
0000
0001
0000
0000
0000
0010
0100
1000
0000
,
0000
1100
0000
0001
0000
0100
0100
0001
,
0000
0000
0011
0000
0000
0000
1000
0000
0000
0000
0100
0010
0001
0000
0000
1000
,
0001
0000
0000
1000
0001
0000
0000
1000
0001
0000
0000
0000
1000
0000
0000
0000
,
0010
0100
0001
1000
,
0010
0100
0001
1000
,
0010
0100
0001
1000
,
0010
0000
0000
0000
0100
0000
0000
0000
0001
0000
0100
0000
0020
0000
0000
0130
,
0001
0000
0000
0000
1000
0000
0000
0000
0010
1000
0010
0000
0100
0000
0000
0000
,
0100
0001
0100
0000
0010
0000
0000
0000
2000
0000
3001
0000
0020
0000
0000
0130
,
1000
0000
0000
0000
0001
0000
0000
0000
0010
0001
0010
0000
0100
0000
0000
0000
,
0100
1000
0100
0000
1000
0000
0000
0000
0010
0000
0100
0000
0001
0000
0001
0000
,
1000
1000
0001
0001
1000
1000
0001
0001
,
1000
1000
0001
0001
2000
3000
0010
0010
,
0100
0100
0010
0010
0100
0100
0010
0010
,
0100
0000
0100
0000
0010
0000
0010
0000
0200
0000
0310
0000
1001
0000
0000
0010
,
0000
0000
0100
0000
0100
0000
0001
0000
2000
0000
0100
0000
3001
0000
0000
1000
,
0000
0000
0100
0000
0010
0000
0001
0000
1000
0100
1000
0000
1100
0000
0000
0001
,
0020
0000
0130
0000
1000
0000
0001
0000
0200
0000
0001
0000
0310
0000
0000
0100
,
0000
0000
0001
0000
0001
0000
0010
0000
2000
0000
3010
0000
0210
0000
0000
0310
,
0001
0000
1000
0000
1000
0000
0001
0000
0200
0000
1000
0000
0310
0000
0000
0010
,
0000
0000
0100
0000
1000
0000
0100
0000
0001
0100
0001
0000
0101
0000
0000
0010
,
0000
1000
0100
0001
0200
0300
1000
0100
,
0001
0000
0100
0000
1000
0000
0010
0000
0001
0000
0010
0000
2000
0000
0000
3000
,
0101
0000
0000
0000
2000
0000
0000
3000
0101
0000
0000
0000
0010
0000
0000
0010
,
0000
0000
0100
0000
0020
0000
0000
0030
1000
0000
0100
0000
0002
0000
0000
0003
,
1100
0000
0000
0000
0002
0000
0000
0003
1100
0000
0000
0000
0010
0000
0000
0010
,
0000
0000
0100
0000
0020
0000
0000
0030
1000
0000
0001
0000
0200
0000
0000
0300
,
1001
0000
0000
0000
0200
0000
0000
0300
1001
0000
0000
0000
0010
0000
0000
0001
,
0000
0000
0100
0000
2000
0000
0000
3000
0100
0000
0001
0000
0020
0000
0000
0030
,
1001
0000
0000
0000
0020
0000
0000
0030
1001
0000
0000
0000
1000
0001
0010
1001
,
0120
0000
0000
0030
2000
0000
0000
0000
0001
0000
0000
0000
0100
0000
0000
0000
,
0001
0000
0000
0000
0010
0000
0000
3010
0000
0000
0110
0000
0100
0000
0100
0000
,
1000
0000
0100
0000
0002
0000
0000
0003
1010
0000
0000
0000
2000
0000
0000
3000
,
0101
0000
0000
0000
0010
0000
0000
0100
0000
0000
0001
0000
1000
0000
0000
0000
,
1000
1000
0002
0000
1000
0000
0010
0000
,
1000
0000
0000
0000
0100
0000
0000
0103
0000
0000
0110
0000
0010
0000
0010
0000
,
1000
0000
0100
0000
0002
0000
0000
0003
1100
0000
0000
0000
2000
0000
0000
3000
,
0101
0000
0000
0000
0010
0000
0000
0100
0000
0000
1000
0000
0001
0000
0000
0000
,
0100
0100
0002
0000
0000
0010
0020
0000
,
0030
0100
0203
0000
0000
1000
2000
0000
,
3000
0010
0320
0000
0000
0001
0002
0000
,
0003
1000
2030
0000
0000
0100
3200
0000
,
1300
1000
0001
0000
0100
0000
0010
0000
,
1000
0001
0100
0010
,
1000
0001
0100
0010
,
1000
0000
0001
0100
0001
0100
0002
0000
,
2003
0000
0000
0000
0010
0000
0000
0020
0000
0000
3030
0000
0000
0000
0000
0000
;

//---------------dance-single - NEMESetup----------------
#NOTES:
     dance-single:
     NEMESetup:
     Medium:
     7:
     0.446,0.429,0.275,0.483,0.057:
0000
0000
0000
0000
,
0001
1010
0001
1100
,
0001
0000
0101
0000
1100
0000
0010
0010
,
1000
0011
1000
0101
,
1000
0000
1010
0000
0011
0000
0100
0100
,
0001
0101
1000
1100
,
0001
0000
0000
0000
0101
0000
0001
0000
0010
0000
0000
0000
0200
0000
0000
0300
,
1000
1010
0001
0011
,
1000
0000
0000
0000
1010
0000
1000
0000
0001
0000
0000
0000
0020
0000
0000
0030
,
0110
0000
0000
0000
1000
0000
0000
0000
0001
0000
0000
0000
0100
0100
0001
0000
,
0000
0110
0000
1000
0000
1000
0100
0001
,
0000
0000
0110
0000
0000
0000
1000
0000
0000
0000
0010
0010
0100
0000
0000
0000
,
0100
0100
2001
0000
,
0001
0000
0001
0000
,
0001
0000
0001
0000
,
0001
0000
0001
0000
,
0001
0000
0000
0000
3001
0001
0001
0000
,
0101
0000
0001
0000
1000
1000
0000
0000
,
0100
0100
0000
0000
0020
0001
0031
0000
,
1001
0000
1000
0000
0001
0001
0000
0000
,
0100
0100
0000
0000
0010
0010
1000
0001
,
1000
0001
1000
0001
1000
0001
1000
0001
,
1000
0001
1000
0001
0000
0000
0010
0100
,
0010
0100
0010
0100
0010
0100
0010
0100
,
0010
0100
0010
0100
2000
3000
1001
0000
,
0010
0100
0001
0000
0200
0300
0010
0000
,
0001
0010
1000
0000
0100
0100
0100
0000
,
1000
0100
0010
0000
0002
0003
0010
0000
,
1000
0010
0001
0000
0002
1000
1003
0000
,
0110
0000
0001
0100
2000
3000
0100
0000
,
0101
0000
0010
0000
1000
1000
1000
0000
,
0011
0000
1000
0100
0002
0003
0100
0010
,
0100
0010
0100
0010
0200
0300
2100
0000
,
0000
0000
0000
0000
0200
0000
0000
0000
0300
0000
0000
0000
0001
0000
0000
0001
,
0000
0000
3002
0000
0103
0001
0020
0000
,
0000
0000
0000
0000
0002
0000
0000
0000
0003
0000
0000
0000
0100
0000
0000
0100
,
0000
0000
0230
0000
0310
0001
0200
0000
,
0000
0000
0000
0000
2000
0000
0000
0000
3000
0000
0000
0000
0010
0000
0000
0010
,
0000
0000
0320
0000
1030
0100
0002
0000
,
0003
0000
0000
0000
0200
0000
0000
0000
0300
0000
0000
0000
0010
0010
0000
0010
,
0100
2001
0100
3002
,
0100
0000
0000
0000
1003
0000
0000
1000
0000
0000
0000
0000
0100
0000
0100
0000
,
0010
0002
0010
2003
,
0010
0000
0000
0000
3001
0000
0000
0001
0000
0000
0000
0000
0110
0000
0000
0000
,
1001
0120
1000
0230
,
0001
0000
0000
0000
0310
0000
0000
0010
0000
0000
0000
0000
1000
0000
1000
0000
,
2000
0000
0000
3000
0200
0000
0000
0000
0001
0000
0000
0000
0320
0000
0000
0000
,
1000
0000
0000
0000
0130
0000
0000
0100
0000
0000
0000
0000
0200
0000
0000
0000
,
0010
0000
0000
0000
2300
0000
0000
3000
0020
0000
0000
0030
0200
0000
0000
0300
,
0002
0000
0000
0003
2000
0000
0000
3000
0020
0000
0000
0030
0200
0000
0000
0300
,
0002
0000
0000
0003
2000
0000
0000
0000
0020
0000
0000
0030
3002
0000
0000
0000
,
0200
0000
0000
0300
2003
0000
0000
0000
0200
0000
0000
0300
3002
0000
0000
0000
,
0020
0000
0000
0030
1003
0000
0000
0000
0001
0000
0000
0000
1000
0000
0000
0000
,
0001
1000
0001
1000
,
0001
0010
0100
0010
,
0100
0010
0100
0020
,
0130
0000
0000
0000
2000
0000
0000
0002
0000
3003
0000
0000
0000
0000
0000
0000
;

//---------------dance-single - NEMESetup----------------
#NOTES:
     dance-single:
     NEMESetup:
     Easy:
     4:
     0.314,0.349,0.180,0.455,0.000:
0000
0000
0000
0000
,
2000
3001
0002
1003
,
2000
3100
0100
0000
,
2000
3001
0002
1003
,
2000
3010
0010
0010
,
0100
0001
0100
1000
,
0100
0001
0100
0010
,
1000
0010
0001
0010
,
1000
0010
0001
2000
,
3100
0000
0001
0000
0100
0000
0200
0310
,
0000
1000
0000
0010
0000
0001
0000
0010
,
0000
0100
0000
0001
0000
0200
0310
0000
,
0010
0010
2002
0000
,
0000
0000
0000
0000
,
0000
0000
0000
0000
,
0000
0000
0000
0000
,
0003
0000
3001
0001
,
1001
0000
0120
0030
,
2010
3000
0002
0103
,
0101
0000
0021
0030
,
1200
0300
1000
0012
,
1000
1000
1000
1000
,
1000
1000
2003
3200
,
0010
0010
0010
0010
,
0010
0310
0100
1001
,
0010
1000
0002
0103
,
0001
1000
0110
0001
,
0010
0100
2000
3010
,
0001
0010
1100
0001
,
1000
0100
0020
1030
,
0001
0100
0011
1000
,
0001
0010
0200
0310
,
0010
0010
0100
2001
,
0000
0010
0000
0001
,
0000
0001
3100
0002
,
0000
1000
0000
0010
,
0000
0010
0103
0210
,
0000
1000
0000
0001
,
0000
0001
0310
0020
,
0000
0000
0001
0000
0000
0000
2000
3030
,
0101
1002
0013
0100
,
1000
2000
0001
0100
,
3010
0020
0030
0200
,
0300
0001
0001
0001
,
1010
2001
3100
0010
,
0001
0002
1000
0100
,
0013
0020
0030
0200
,
0300
1000
1000
1000
,
0001
0002
0000
0200
,
0300
2000
0003
0020
,
0030
0200
3000
0020
,
0030
2000
3000
0002
,
0303
0220
0000
0000
,
0000
0000
0000
0000
,
0000
0000
0000
0000
,
0000
0030
0000
2300
,
0000
0000
0001
0002
0000
3003
0000
0000
;

//---------------dance-single - NEMESetup----------------
#NOTES:
     dance-single:
     NEMESetup:
     Beginner:
     2:
     0.141,0.187,0.028,0.237,0.000:
0000
0000
0000
0000
,
0000
1000
0000
1000
,
0000
0001
0001
0000
,
0000
0001
0000
0001
,
0000
1000
1000
0000
,
0000
0010
0000
0100
,
0000
0010
0000
0100
,
0000
0001
0000
1000
,
0000
0001
0000
1000
,
0000
0000
0100
0000
0000
0000
0020
0030
,
0000
0001
0000
0000
0000
1000
0000
0000
,
0000
0001
0000
0000
0000
0200
0300
0000
,
0100
0100
0200
0000
,
0000
0000
0000
0000
,
0000
0000
0000
0000
,
0000
0000
0000
0000
,
0000
0000
0000
0000
0000
0300
0000
0000
,
1000
0000
0002
0003
,
0002
0003
0001
0000
,
0100
0000
0020
0030
,
0020
0030
0000
2000
,
0000
0000
0000
0000
,
0000
3000
0000
0002
,
0000
0000
0000
0000
,
0000
0003
0000
1001
,
0000
0000
0200
0300
,
0100
0000
0001
0000
,
0000
0000
2000
3000
,
1000
0000
0001
0001
,
0000
0000
0020
0030
,
0010
0000
0001
0000
,
0100
0000
0000
0100
,
0100
0100
0000
0220
,
0330
0000
0000
1000
,
0000
1000
0000
0002
,
0003
0000
0000
0010
,
0000
0010
0000
0200
,
0300
0000
0000
0001
,
0000
0001
0000
2000
,
3000
0000
0000
0200
,
0300
0000
0100
0000
,
0010
0020
0030
0000
,
0000
0001
0000
0000
,
0000
1000
0000
0001
,
0000
0100
0000
0000
,
1000
2000
3000
0000
,
0000
0010
0000
0000
,
0000
0010
0000
0000
,
0100
0200
0000
0000
,
0000
0000
0000
0300
,
0000
0002
0000
0000
,
0000
0000
0000
0003
,
0000
2002
0000
0000
,
0000
0000
0000
0000
,
0000
0000
0000
0000
,
0000
0000
3003
0000
,
0000
0020
0030
0000
;

//---------------dance-single - NEMESetup----------------
#NOTES:
     dance-single:
     NEMESetup:
     Challenge:
     10:
     0.748,0.751,0.511,0.672,0.407: // measure 1
0000
0000
0000
0000
,  // measure 2
0001
0001
0000
0100
0010
0000
0000
0010
1000
1000
0000
0100
0010
0000
0000
0010
,  // measure 3
0001
0001
0000
0100
1000
0000
0000
0100
0001
0000
0001
0001
1000
0100
1000
0100
,  // measure 4
1000
1000
0000
0100
0010
0000
0000
0010
0001
0001
0000
0100
0010
0000
0000
0010
,  // measure 5
1000
1000
0000
0100
0001
0000
0000
0100
1000
0000
1000
1000
0001
0000
0001
0000
,  // measure 6
0010
0000
0000
0002
0100
0003
0000
0000
0010
0000
0000
2000
0100
3000
0000
0000
,  // measure 7
0010
0000
0000
0002
0100
0003
0001
0001
0020
0000
0030
0100
1000
0001
1000
0001
,  // measure 8
0010
0000
0000
0200
1000
0300
0000
0000
0010
0000
0000
0200
0001
0300
0000
0000
,  // measure 9
0010
0000
0000
0200
1000
0300
0100
0100
0020
0000
0030
0100
2000
0000
3001
0001
,  // measure 10
0100
0000
0001
0000
0101
0000
0100
0010
1000
0000
0100
0000
0010
0011
0001
0000
,  // measure 11
1000
0000
1001
0000
1000
0010
0100
0000
0010
0000
0100
0001
0100
0001
0100
0000
,  // measure 12
0010
0000
1010
0000
1000
0001
0100
0000
0001
0000
0010
0110
0100
0000
0000
0100
,  // measure 13
1000
0000
0000
1000
0001
0000
0000
0001
0010
0000
0001
0000
0010
0000
0001
0000
,  // measure 14
1000
0001
1000
0001
1000
0001
1000
0001
,  // measure 15
1000
0001
1000
0001
1000
0001
1000
0001
,  // measure 16
1000
0001
1000
0001
1000
0001
1000
0001
,  // measure 17
1000
0000
0001
0000
1000
0000
0001
0000
2000
0000
3010
0000
1002
0000
0000
1003
,  // measure 18
0100
0000
0000
0100
1000
0000
0000
1000
0010
0100
0001
0000
0010
0000
0000
0000
,  // measure 19
0010
0100
1000
0000
0001
0100
0000
0100
0010
0000
0010
0000
2000
0000
0000
3001
,  // measure 20
0100
0000
0000
0100
0001
0000
0000
0001
1000
0010
0100
0000
0001
0000
0000
0000
,  // measure 21
0010
0100
1000
0000
0101
0000
0000
0000
0010
0000
0010
0000
1000
0000
1001
0000
,  // measure 22
0001
1001
1000
1001
0001
1001
1000
1001
,  // measure 23
0001
1001
1000
1001
0002
0003
0100
0110
,  // measure 24
0010
0110
0100
0110
0010
0110
0100
0110
,  // measure 25
0010
0110
0100
0110
0020
0130
1001
1000
,  // measure 26
1010
0000
0010
0100
0001
0000
1000
0000
0002
0000
0010
0000
1003
0000
0100
0000
,  // measure 27
1100
0000
0001
0001
0020
0000
0030
0100
1000
0001
1000
0001
0010
0000
1000
0000
,  // measure 28
0010
0001
0000
0100
0000
0010
1000
0000
0000
0001
0000
0000
2000
0000
0000
0100
0000
0000
3001
0000
0000
0100
0000
0000
,  // measure 29
1100
0000
0001
0001
2000
0000
0000
3100
0010
0001
0010
0001
0100
0000
0010
0000
,  // measure 30
1010
0000
1000
0100
0001
0000
1000
0000
0020
0000
0001
0000
0130
0000
1000
0000
,  // measure 31
1001
0000
0100
0100
0002
0000
0000
0103
0010
1000
0010
1000
0001
0000
0010
0000
,  // measure 32
0011
0000
1000
1000
0001
0000
0010
0000
0202
0000
0303
0000
0110
0000
0100
0000
,  // measure 33
1001
1000
0110
0010
1001
0001
0202
0000
,  // measure 34
0313
0000
0000
0000
0220
0000
0000
0000
0331
0000
0000
0000
1000
0000
0000
1100
,  // measure 35
0000
0001
2000
0000
3001
0001
0022
0000
,  // measure 36
0133
0000
0000
0000
0220
0000
0000
0000
1330
0000
0000
0000
0001
0000
0000
0101
,  // measure 37
0000
1000
0002
0000
1003
1000
2020
0000
,  // measure 38
3031
0000
0000
0000
2200
0000
0000
0000
3310
0000
0000
0000
0010
0000
0000
0011
,  // measure 39
0000
0100
1000
0000
0100
0100
0220
0000
,  // measure 40
1330
0000
0000
0000
2002
0000
0000
0000
3013
0000
0000
0000
0010
1001
0100
1001
,  // measure 41
0100
0000
0010
0000
2000
0000
0000
3002
0100
0000
0000
0000
0023
0000
0000
0000
,  // measure 42
0100
0000
0100
0000
0230
0000
0000
1300
0000
0000
1001
0000
1000
0000
0100
0000
,  // measure 43
0010
0000
0001
0000
2000
0000
0000
3000
0011
0000
0000
0000
0200
0000
0000
0300
,  // measure 44
1010
0000
0000
0000
0001
0000
0000
0101
0000
0000
0010
0000
1000
0000
0000
0000
,  // measure 45
0001
0000
0001
0000
0002
0000
0000
2003
0010
0000
0000
0000
3200
0000
0000
0000
,  // measure 46
0010
0000
0010
0000
0320
0000
0000
0031
0000
0000
1001
0000
0100
0000
0100
0000
,  // measure 47
0010
0000
2000
0000
0002
0000
0000
3003
0110
0000
0000
0000
2000
0000
0000
3000
,  // measure 48
0101
0000
0000
0000
1000
0000
0000
1010
0000
0000
0100
0000
0001
0000
0000
0000
,  // measure 49
0010
0010
0020
0000
0230
1000
2300
0000
,  // measure 50
3020
0100
0230
0000
0302
0010
0023
0000
,  // measure 51
0230
0001
0302
0000
0203
1000
2300
0000
,  // measure 52
3020
0001
0032
0000
0023
0100
0230
0000
,  // measure 53
0310
0010
1000
0100
1000
0100
1000
0100
,  // measure 54
1000
0100
0010
0001
0010
0001
0010
0001
,  // measure 55
0010
0001
1000
0001
1000
0001
1000
0001
,  // measure 56
1000
0001
0010
0100
0010
0100
0020
0000
,  // measure 57
0100
0000
0000
0000
0032
0000
0000
0200
0000
0000
0303
0000
0000
0000
0000
0000
;
