#TITLE:Beach Side Bunny;
#SUBTITLE:;
#ARTIST:DJ Mass MAD Izm*;
#TITLETRANSLIT:;
#SUBTITLETRANSLIT:;
#ARTISTTRANSLIT:;
#GENRE:BROKEN SAMBA BREAK;
#CREDIT:;
#BANNER:Beach Side Bunny-bn.png;
#BACKGROUND:Title Card-bg.png;
#LYRICSPATH:;
#CDTITLE:NEMESetupLOGO.PNG;
#MUSIC:DJ Mass MAD Izm_ - __Beach Side Bunny.mp3;
#OFFSET:-3.654;
#SAMPLESTART:19.500;
#SAMPLELENGTH:12.000;
#SELECTABLE:YES;
#DISPLAYBPM:153.000;
#BPMS:0.000=153.000
;
#STOPS:
;
#BGCHANGES:3.000=Black-bg.png=0.500=1=0=1===CrossFade==,
6.000=Beach Side Bunny-bg.png=1.000=0=0=1=====,
8.000=-random-=1.000=0=0=1=====,
36.000=Beach Side Bunny-bg.png=1.000=0=0=1=====,
36.167=Black-bg.png=1.000=0=0=1=====,
36.333=Beach Side Bunny-bg.png=1.000=0=0=1=====,
36.500=Black-bg.png=1.000=0=0=1=====,
36.667=Beach Side Bunny-bg.png=1.000=0=0=1=====,
36.833=Black-bg.png=1.000=0=0=1=====,
37.000=Beach Side Bunny-bg.png=1.000=0=0=1=====,
37.167=Black-bg.png=1.000=0=0=1=====,
37.333=Beach Side Bunny-bg.png=1.000=0=0=1=====,
37.500=Black-bg.png=1.000=0=0=1=====,
37.667=Beach Side Bunny-bg.png=1.000=0=0=1=====,
37.833=Black-bg.png=1.000=0=0=1=====,
38.000=Beach Side Bunny-bg.png=1.000=0=0=1=====,
38.167=Black-bg.png=1.000=0=0=1=====,
38.333=Beach Side Bunny-bg.png=1.000=0=0=1=====,
38.500=Black-bg.png=1.000=0=0=1=====,
38.667=Beach Side Bunny-bg.png=1.000=0=0=1=====,
38.833=Black-bg.png=1.000=0=0=1=====,
39.000=Beach Side Bunny-bg.png=1.000=0=0=1=====,
39.333=Beach Side Bunny-bg.png=1.000=0=0=1=====,
40.000=-random-=1.000=0=0=1=====,
103.000=Beach Side Bunny-bg.png=0.700=0=0=1=====,
104.000=-random-=1.000=0=0=1=====,
106.000=Beach Side Bunny-bg.png=1.000=0=0=1=====,
106.250=Black-bg.png=1.000=0=0=1=====,
106.500=Beach Side Bunny-bg.png=1.000=0=0=1=====,
106.750=Black-bg.png=1.000=0=0=1=====,
107.000=Beach Side Bunny-bg.png=1.000=0=0=1=====,
108.000=-random-=1.000=0=0=1=====,
110.000=Beach Side Bunny-bg.png=1.000=0=0=1=====,
110.250=Black-bg.png=1.000=0=0=1=====,
110.500=Beach Side Bunny-bg.png=1.000=0=0=1=====,
110.750=Black-bg.png=1.000=0=0=1=====,
111.000=Beach Side Bunny-bg.png=1.000=0=0=1=====,
112.000=-random-=1.000=0=0=1=====,
114.000=Beach Side Bunny-bg.png=1.000=0=0=1=====,
114.250=Black-bg.png=1.000=0=0=1=====,
114.500=Beach Side Bunny-bg.png=1.000=0=0=1=====,
114.750=Black-bg.png=1.000=0=0=1=====,
115.000=Beach Side Bunny-bg.png=1.000=0=0=1=====,
116.000=-random-=1.000=0=0=1=====,
118.500=Beach Side Bunny-bg.png=0.700=1=0=1===CrossFade==,
120.000=-random-=1.000=0=0=1=====,
122.000=Beach Side Bunny-bg.png=1.000=0=0=1=====,
122.250=Black-bg.png=1.000=0=0=1=====,
122.500=Beach Side Bunny-bg.png=1.000=0=0=1=====,
122.750=Black-bg.png=1.000=0=0=1=====,
123.000=Beach Side Bunny-bg.png=1.000=0=0=1=====,
124.000=-random-=1.000=0=0=1=====,
127.000=Beach Side Bunny-bg.png=1.000=0=0=1=====,
128.000=-random-=1.000=0=0=1=====,
132.000=Beach Side Bunny-bg.png=1.000=0=0=1=====,
132.500=Black-bg.png=1.000=0=0=1=====,
133.000=Beach Side Bunny-bg.png=1.000=0=0=1=====,
133.500=Black-bg.png=1.000=0=0=1=====,
134.000=Beach Side Bunny-bg.png=1.000=0=0=1=====,
134.250=Black-bg.png=1.000=0=0=1=====,
134.500=Beach Side Bunny-bg.png=1.000=0=0=1=====,
134.750=Black-bg.png=1.000=0=0=1=====,
135.000=Beach Side Bunny-bg.png=1.000=0=0=1=====,
135.250=Black-bg.png=1.000=0=0=1=====,
135.500=Beach Side Bunny-bg.png=1.000=0=0=1=====,
135.750=Black-bg.png=1.000=0=0=1=====,
136.000=Beach Side Bunny-bg.png=1.000=0=0=1=====,
136.250=Black-bg.png=1.000=1=0=1===CrossFade==,
137.000=Beach Side Bunny-bg.png=1.000=0=0=1=====,
137.250=Black-bg.png=1.000=1=0=1===CrossFade==,
138.000=Beach Side Bunny-bg.png=1.000=0=0=1=====,
138.250=Black-bg.png=1.000=1=0=1===CrossFade==,
139.000=Beach Side Bunny-bg.png=1.000=0=0=1=====,
139.250=Black-bg.png=1.000=1=0=1===CrossFade==,
140.000=Beach Side Bunny-bg.png=1.000=0=0=1=====,
140.250=Black-bg.png=1.000=1=0=1===CrossFade==,
141.000=Beach Side Bunny-bg.png=1.000=0=0=1=====,
141.250=Black-bg.png=1.000=1=0=1===CrossFade==,
142.000=Beach Side Bunny-bg.png=1.000=0=0=1=====,
142.250=Black-bg.png=1.000=1=0=1===CrossFade==,
143.000=Beach Side Bunny-bg.png=1.000=0=0=1=====,
143.250=Black-bg.png=1.000=1=0=1===CrossFade==,
144.000=Beach Side Bunny-bg.png=1.000=0=0=1=====,
144.250=Black-bg.png=1.000=1=0=1===CrossFade==,
145.000=Beach Side Bunny-bg.png=1.000=0=0=1=====,
145.250=Black-bg.png=1.000=1=0=1===CrossFade==,
146.000=Beach Side Bunny-bg.png=1.000=0=0=1=====,
146.250=Black-bg.png=1.000=1=0=1===CrossFade==,
147.000=Beach Side Bunny-bg.png=1.000=0=0=1=====,
147.250=Black-bg.png=1.000=1=0=1===CrossFade==,
148.000=Beach Side Bunny-bg.png=1.000=0=0=1=====,
148.250=Black-bg.png=1.000=1=0=1===CrossFade==,
149.000=Beach Side Bunny-bg.png=1.000=0=0=1=====,
149.250=Black-bg.png=1.000=1=0=1===CrossFade==,
150.000=Beach Side Bunny-bg.png=1.000=0=0=1=====,
150.250=Black-bg.png=1.000=1=0=1===CrossFade==,
151.000=Beach Side Bunny-bg.png=1.000=0=0=1=====,
151.250=Black-bg.png=1.000=1=0=1===CrossFade==,
152.000=Beach Side Bunny-bg.png=1.000=0=0=1=====,
152.250=Black-bg.png=1.000=0=0=1=====,
152.500=Beach Side Bunny-bg.png=1.000=0=0=1=====,
152.750=Black-bg.png=1.000=0=0=1=====,
153.000=Beach Side Bunny-bg.png=1.000=0=0=1=====,
153.250=Black-bg.png=1.000=0=0=1=====,
153.500=Beach Side Bunny-bg.png=1.000=0=0=1=====,
153.750=Black-bg.png=1.000=0=0=1=====,
154.000=Beach Side Bunny-bg.png=1.000=0=0=1=====,
154.250=Black-bg.png=0.500=1=0=1===CrossFade==,
155.500=Beach Side Bunny-bg.png=1.000=0=0=1=====,
155.750=Black-bg.png=1.000=0=0=1=====,
156.000=Beach Side Bunny-bg.png=1.000=0=0=1=====,
156.500=Black-bg.png=1.000=0=0=1=====,
157.000=Beach Side Bunny-bg.png=1.000=0=0=1=====,
158.000=-random-=1.000=0=0=1=====,
166.000=Beach Side Bunny-bg.png=1.000=0=0=1=====,
166.125=Black-bg.png=1.000=0=0=1=====,
166.250=Beach Side Bunny-bg.png=1.000=0=0=1=====,
166.375=Black-bg.png=1.000=0=0=1=====,
166.500=Beach Side Bunny-bg.png=1.000=0=0=1=====,
166.625=Black-bg.png=1.000=0=0=1=====,
166.750=Beach Side Bunny-bg.png=1.000=0=0=1=====,
166.875=Black-bg.png=1.000=0=0=1=====,
167.000=Beach Side Bunny-bg.png=1.000=0=0=1=====,
168.750=Black-bg.png=1.000=0=0=1=====,
169.000=Beach Side Bunny-bg.png=1.000=0=0=1=====,
169.750=Black-bg.png=1.000=0=0=1=====,
170.000=Beach Side Bunny-bg.png=1.000=0=0=1=====,
170.500=Black-bg.png=1.000=0=0=1=====,
170.750=Beach Side Bunny-bg.png=1.000=0=0=1=====,
171.250=Black-bg.png=1.000=0=0=1=====,
171.500=Beach Side Bunny-bg.png=1.000=0=0=1=====,
171.875=Black-bg.png=1.000=0=0=1=====,
172.000=Beach Side Bunny-bg.png=1.000=0=0=1=====,
172.750=Black-bg.png=1.000=0=0=1=====,
173.000=Beach Side Bunny-bg.png=1.000=0=0=1=====,
173.750=Black-bg.png=1.000=0=0=1=====,
174.000=Beach Side Bunny-bg.png=1.000=0=0=1=====,
174.500=Black-bg.png=1.000=0=0=1=====,
174.750=Beach Side Bunny-bg.png=1.000=0=0=1=====,
175.250=Black-bg.png=1.000=0=0=1=====,
175.500=Beach Side Bunny-bg.png=1.000=0=0=1=====,
175.875=Black-bg.png=1.000=0=0=1=====,
176.000=Beach Side Bunny-bg.png=1.000=0=0=1=====,
176.750=Black-bg.png=1.000=0=0=1=====,
177.000=Beach Side Bunny-bg.png=1.000=0=0=1=====,
177.750=Black-bg.png=1.000=0=0=1=====,
178.000=Beach Side Bunny-bg.png=1.000=0=0=1=====,
178.500=Black-bg.png=1.000=0=0=1=====,
178.750=Beach Side Bunny-bg.png=1.000=0=0=1=====,
179.250=Black-bg.png=1.000=0=0=1=====,
179.500=Beach Side Bunny-bg.png=1.000=0=0=1=====,
179.875=Black-bg.png=1.000=0=0=1=====,
180.000=Beach Side Bunny-bg.png=1.000=0=0=1=====,
180.750=Black-bg.png=1.000=0=0=1=====,
181.000=Beach Side Bunny-bg.png=1.000=0=0=1=====,
181.750=Black-bg.png=1.000=0=0=1=====,
182.000=Beach Side Bunny-bg.png=1.000=0=0=1=====,
182.500=Black-bg.png=1.000=0=0=1=====,
182.750=Beach Side Bunny-bg.png=1.000=0=0=1=====,
183.250=Black-bg.png=1.000=0=0=1=====,
183.500=Beach Side Bunny-bg.png=1.000=0=0=1=====,
183.875=Black-bg.png=1.000=0=0=1=====,
184.000=Beach Side Bunny-bg.png=1.000=0=0=1=====,
184.750=Black-bg.png=1.000=0=0=1=====,
185.000=Beach Side Bunny-bg.png=1.000=0=0=1=====,
185.750=Black-bg.png=1.000=0=0=1=====,
186.000=Beach Side Bunny-bg.png=1.000=0=0=1=====,
186.500=Black-bg.png=1.000=0=0=1=====,
186.750=Beach Side Bunny-bg.png=1.000=0=0=1=====,
187.250=Black-bg.png=1.000=0=0=1=====,
187.500=Beach Side Bunny-bg.png=1.000=0=0=1=====,
187.875=Black-bg.png=1.000=0=0=1=====,
188.000=Beach Side Bunny-bg.png=1.000=0=0=1=====,
188.750=Black-bg.png=1.000=0=0=1=====,
189.000=Beach Side Bunny-bg.png=1.000=0=0=1=====,
189.750=Black-bg.png=1.000=0=0=1=====,
190.000=Beach Side Bunny-bg.png=1.000=0=0=1=====,
190.500=Black-bg.png=1.000=0=0=1=====,
190.750=Beach Side Bunny-bg.png=1.000=0=0=1=====,
191.250=Black-bg.png=1.000=0=0=1=====,
191.500=Beach Side Bunny-bg.png=1.000=0=0=1=====,
191.875=Black-bg.png=1.000=0=0=1=====,
192.000=Beach Side Bunny-bg.png=1.000=0=0=1=====,
192.750=Black-bg.png=1.000=0=0=1=====,
193.000=Beach Side Bunny-bg.png=1.000=0=0=1=====,
193.750=Black-bg.png=1.000=0=0=1=====,
194.000=Beach Side Bunny-bg.png=1.000=0=0=1=====,
194.500=Black-bg.png=1.000=0=0=1=====,
194.750=Beach Side Bunny-bg.png=1.000=0=0=1=====,
195.250=Black-bg.png=1.000=0=0=1=====,
195.500=Beach Side Bunny-bg.png=1.000=0=0=1=====,
195.875=Black-bg.png=1.000=0=0=1=====,
196.000=Beach Side Bunny-bg.png=1.000=0=0=1=====,
196.750=Black-bg.png=1.000=0=0=1=====,
197.000=Beach Side Bunny-bg.png=1.000=0=0=1=====,
197.750=Black-bg.png=1.000=0=0=1=====,
198.000=Beach Side Bunny-bg.png=1.000=0=0=1=====,
198.750=Black-bg.png=1.000=0=0=1=====,
199.000=Beach Side Bunny-bg.png=1.000=0=0=1=====,
200.000=-random-=1.000=0=0=1=====,
231.000=Beach Side Bunny-bg.png=1.000=0=0=1=====,
232.000=-random-=1.000=0=0=1=====,
261.000=Beach Side Bunny-bg.png=0.800=0=0=1=====,
263.000=Black-bg.png=1.000=0=0=1=====,
264.000=Beach Side Bunny-bg.png=1.000=0=0=1=====,
264.750=Black-bg.png=1.000=0=0=1=====,
265.000=Beach Side Bunny-bg.png=1.000=0=0=1=====,
265.750=Black-bg.png=1.000=0=0=1=====,
266.000=Beach Side Bunny-bg.png=1.000=0=0=1=====,
266.500=Black-bg.png=1.000=0=0=1=====,
266.750=Beach Side Bunny-bg.png=1.000=0=0=1=====,
267.250=Black-bg.png=1.000=0=0=1=====,
267.500=Beach Side Bunny-bg.png=1.000=0=0=1=====,
268.000=-random-=1.000=0=0=1=====,
272.000=Beach Side Bunny-bg.png=1.000=0=0=1=====,
272.750=Black-bg.png=1.000=0=0=1=====,
273.000=Beach Side Bunny-bg.png=1.000=0=0=1=====,
273.750=Black-bg.png=1.000=0=0=1=====,
274.000=Beach Side Bunny-bg.png=1.000=0=0=1=====,
274.500=Black-bg.png=1.000=0=0=1=====,
274.750=Beach Side Bunny-bg.png=1.000=0=0=1=====,
275.250=Black-bg.png=1.000=0=0=1=====,
275.500=Beach Side Bunny-bg.png=1.000=0=0=1=====,
276.000=-random-=1.000=0=0=1=====,
280.000=Beach Side Bunny-bg.png=1.000=0=0=1=====,
280.250=Black-bg.png=1.000=0=0=1=====,
280.500=Beach Side Bunny-bg.png=1.000=0=0=1=====,
280.750=Black-bg.png=1.000=0=0=1=====,
281.000=Beach Side Bunny-bg.png=1.000=0=0=1=====,
281.250=Black-bg.png=1.000=0=0=1=====,
281.500=Beach Side Bunny-bg.png=1.000=0=0=1=====,
281.750=Black-bg.png=1.000=0=0=1=====,
282.000=Beach Side Bunny-bg.png=1.000=0=0=1=====,
282.250=Black-bg.png=1.000=0=0=1=====,
282.500=Beach Side Bunny-bg.png=1.000=0=0=1=====,
282.750=Black-bg.png=1.000=0=0=1=====,
283.000=Beach Side Bunny-bg.png=1.000=0=0=1=====,
283.250=Black-bg.png=1.000=0=0=1=====,
283.500=Beach Side Bunny-bg.png=1.000=0=0=1=====,
283.750=Black-bg.png=1.000=0=0=1=====,
284.000=Beach Side Bunny-bg.png=1.000=0=0=1=====,
284.250=Black-bg.png=1.000=0=0=1=====,
284.500=Beach Side Bunny-bg.png=1.000=0=0=1=====,
284.750=Black-bg.png=1.000=0=0=1=====,
285.000=Beach Side Bunny-bg.png=1.000=0=0=1=====,
285.250=Black-bg.png=1.000=0=0=1=====,
285.500=Beach Side Bunny-bg.png=1.000=0=0=1=====,
285.750=Black-bg.png=1.000=0=0=1=====,
286.000=Beach Side Bunny-bg.png=1.000=0=0=1=====,
286.250=Black-bg.png=1.000=0=0=1=====,
286.500=Beach Side Bunny-bg.png=1.000=0=0=1=====,
286.750=Black-bg.png=1.000=0=0=1=====,
287.000=Beach Side Bunny-bg.png=1.000=0=0=1=====,
287.250=Black-bg.png=1.000=0=0=1=====,
287.500=Beach Side Bunny-bg.png=1.000=0=0=1=====,
287.750=Black-bg.png=1.000=0=0=1=====,
288.000=Beach Side Bunny-bg.png=1.000=0=0=1=====,
288.250=Black-bg.png=1.000=0=0=1=====,
288.500=Beach Side Bunny-bg.png=1.000=0=0=1=====,
288.750=Black-bg.png=1.000=0=0=1=====,
289.000=Beach Side Bunny-bg.png=1.000=0=0=1=====,
289.250=Black-bg.png=1.000=0=0=1=====,
289.500=Beach Side Bunny-bg.png=1.000=0=0=1=====,
289.750=Black-bg.png=1.000=0=0=1=====,
290.000=Beach Side Bunny-bg.png=1.000=0=0=1=====,
290.250=Black-bg.png=1.000=0=0=1=====,
290.500=Beach Side Bunny-bg.png=1.000=0=0=1=====,
290.750=Black-bg.png=1.000=0=0=1=====,
291.000=Beach Side Bunny-bg.png=1.000=0=0=1=====,
291.250=Black-bg.png=1.000=0=0=1=====,
291.500=Beach Side Bunny-bg.png=1.000=0=0=1=====,
291.750=Black-bg.png=1.000=0=0=1=====,
292.000=Beach Side Bunny-bg.png=1.000=0=0=1=====,
292.250=Black-bg.png=1.000=0=0=1=====,
292.500=Beach Side Bunny-bg.png=1.000=0=0=1=====,
292.750=Black-bg.png=1.000=0=0=1=====,
293.000=Beach Side Bunny-bg.png=1.000=0=0=1=====,
293.250=Black-bg.png=1.000=0=0=1=====,
293.500=Beach Side Bunny-bg.png=1.000=0=0=1=====,
293.750=Black-bg.png=1.000=0=0=1=====,
294.000=Beach Side Bunny-bg.png=1.000=0=0=1=====,
294.250=Black-bg.png=1.000=0=0=1=====,
294.500=Beach Side Bunny-bg.png=1.000=0=0=1=====,
294.750=Black-bg.png=1.000=0=0=1=====,
295.000=Beach Side Bunny-bg.png=1.000=0=0=1=====,
295.250=Black-bg.png=0.500=0=0=1=====,
99999=-nosongbg-=1.000=0=0=0 // don't automatically add -songbackground-
;
#KEYSOUNDS:;
#ATTACKS:;

//---------------dance-single - ----------------
#NOTES:
     dance-single:
     :
     Beginner:
     3:
     0.240,0.303,0.328,0.090,0.000,154.000,40.000,11.000,0.000,0.000,0.000,0.240,0.303,0.328,0.090,0.000,154.000,40.000,11.000,0.000,0.000,0.000:
0000
0000
0000
0000
,
0000
0000
0000
0000
,
0020
0000
0030
0000
,
0200
0000
0300
0000
,
0020
0000
0030
0000
,
0200
0000
0300
0000
,
0001
0000
0001
0000
,
0001
0000
0001
0000
,
2000
0000
3000
0000
,
1000
1000
1000
0000
,
1001
0000
1001
0000
,
0010
0000
0010
0000
,
1001
0000
1001
0000
,
0010
0000
0010
0000
,
0110
0000
0100
0000
,
0001
0001
0001
0000
,
1000
0000
1000
0000
,
0100
0000
0100
0000
,
0110
0000
1001
0000
,
1000
0000
1000
0000
,
0110
0000
1001
0000
,
0001
0000
0001
0000
,
0110
0000
1001
0000
,
1000
0000
1000
0000
,
0110
0000
1001
0000
,
0001
0000
0002
0000
,
0003
0000
0001
0000
,
0001
0000
0001
0001
,
0001
0000
1000
0000
,
1000
0000
1000
1000
,
1000
0000
0010
0000
,
0010
0000
0010
0010
,
0010
0000
0100
0000
,
0200
0000
0300
0000
,
0110
0000
1001
0000
,
0110
0000
1001
0000
,
1001
0000
0110
0000
,
0100
0100
0100
0000
,
1001
1001
1001
0000
,
0220
0000
0330
0000
,
0010
0000
0010
0000
,
1000
1000
2000
3000
,
1000
0000
0001
0000
,
1000
0000
0100
0000
,
0010
0000
0001
0000
,
1000
0000
0001
0000
,
0100
0000
0010
0000
,
1000
0000
0001
0000
,
0100
0000
0001
0000
,
0010
0000
0001
0001
,
0001
0000
1000
0000
,
0100
0000
0010
0000
,
0001
0000
1000
0000
,
0001
0000
1001
1001
,
1001
0000
1000
0000
,
0010
0000
0100
0000
,
1000
0000
0010
0000
,
0001
0000
1001
0000
,
0110
0000
0100
0000
,
0010
0000
0010
0000
,
1000
0000
1000
0000
,
0010
0000
0010
0000
,
0100
0100
0100
0000
,
0001
0001
0001
0000
,
0010
0010
0010
0000
,
2000
0000
3000
0000
,
1001
1001
1001
0000
,
1000
1000
1000
0000
,
0110
0110
0110
0000
,
0010
0010
0010
0000
,
1001
0000
0110
0000
,
1001
0000
1001
0000
,
0110
0000
0110
0000
,
0001
0001
0001
0001
;

//---------------dance-single - ----------------
#NOTES:
     dance-single:
     :
     Easy:
     5:
     0.416,0.484,0.534,0.123,0.033,275.000,65.000,15.000,0.000,0.000,0.000,0.416,0.484,0.534,0.123,0.033,275.000,65.000,15.000,0.000,0.000,0.000:
0000
0000
0000
0000
,
0000
0000
0110
0000
,
2000
0000
0000
0001
,
3002
0000
0000
1000
,
2003
0000
0000
0001
,
3002
0000
0000
0000
,
1003
0010
0100
0100
,
0001
0010
0100
0100
,
1000
1100
0001
0101
,
0200
0000
0000
0310
,
1001
1001
1001
0100
,
1000
0100
0010
0001
,
0110
0110
0110
1000
,
0001
0010
0100
0100
,
1100
0001
0100
0001
,
0010
0010
0100
1000
,
0010
1000
0010
1000
,
0001
0001
0001
1000
,
1100
0101
0010
0010
,
1000
0001
1000
1000
,
0011
1001
0100
0100
,
0010
1000
0100
0100
,
0011
1100
0001
0001
,
1000
0010
0100
0001
,
1000
0010
1000
0010
,
0100
0100
0100
0110
,
0102
0010
1000
1003
,
0010
0100
0001
0100
,
2010
0100
0001
3001
,
0100
0010
0200
0001
,
0320
0100
1000
1030
,
0100
0001
0100
1000
,
0002
1000
0010
0103
,
0002
0000
2000
3003
,
1001
0110
1100
0101
,
1001
0110
1100
0101
,
1001
0110
1100
0101
,
1000
1000
0100
0010
,
0001
1000
0001
1000
0002
0000
0003
0000
,
1100
1100
0010
0001
,
1000
0100
1000
0100
,
0001
0001
0100
0110
,
1100
0001
0010
0101
,
1000
0010
0100
0110
,
1000
0001
0010
1100
,
0001
1000
0100
1001
,
0010
1001
0010
1001
,
0100
0100
0010
1001
,
1000
0001
0010
0011
,
0100
0100
0100
1100
,
0001
0001
1000
1001
,
0100
0100
0010
0110
,
0001
0001
0100
0101
,
1000
0000
1000
0001
1000
0000
1001
0000
,
0100
0100
0001
0101
,
0010
0010
1000
1010
,
0001
0010
1000
0110
,
1000
0001
0001
0011
,
0200
0000
0010
0000
,
1000
0000
0001
0000
,
0020
0300
0001
0000
,
0100
0000
1000
0030
,
1000
0000
0000
0000
1000
0000
0000
0000
1000
0000
0000
1000
0000
0000
0000
0000
,
0001
0000
0000
0000
0001
0000
0000
0000
0001
0000
0000
0001
0000
0000
0000
0000
,
0100
0000
0000
0000
0100
0000
0000
0000
0100
0000
0000
0100
0000
0000
0000
0000
,
0010
0110
0000
1001
,
0110
0000
0000
0000
0110
0000
0000
0000
1000
0000
0000
1000
0000
0000
0001
0000
,
1000
0100
0010
0001
,
0011
0000
0000
0000
0011
0000
0000
0000
0100
0000
0000
0100
0000
0000
0010
0000
,
1000
0000
0001
0000
1000
0010
0100
0000
,
0110
0000
0000
0000
0100
0000
0000
0000
0001
0000
0000
0001
0000
0000
0001
0000
,
1001
0000
0000
0000
1000
0000
0000
0000
0010
0000
0000
0010
0000
0000
0010
0000
,
1010
0000
0000
0000
0100
0000
0000
0000
0001
0000
0000
0001
0000
0000
0001
0000
,
0101
1001
1100
0110
;

//---------------dance-single - ----------------
#NOTES:
     dance-single:
     :
     Medium:
     7:
     0.561,0.514,0.550,0.099,0.201,399.000,67.000,12.000,0.000,0.000,0.000,0.561,0.514,0.550,0.099,0.201,399.000,67.000,12.000,0.000,0.000,0.000:
0000
0000
0000
0000
,
0000
0000
0011
0000
,
2010
0001
0001
0100
,
0001
0010
0010
3100
,
0012
1000
1000
0100
,
1000
0010
0010
0103
,
0001
0000
0000
0000
0001
0000
0000
0000
1000
0000
0000
0001
0000
0000
1000
0000
,
1000
0000
0000
0000
1000
0000
0000
0000
0001
0000
0000
1000
0000
0000
0001
0000
,
0010
0001
1000
0000
0010
1000
0001
0000
,
1000
0100
1000
0100
1000
0100
1000
0100
1000
0002
0000
0003
,
1001
0000
0000
0000
1000
0000
0000
0000
0001
0000
0000
0001
0000
0000
0001
0000
,
1000
0000
0000
0000
0100
0000
0000
0000
0010
0000
0000
0001
0000
0000
0010
0000
,
0110
0000
0000
0000
1001
0000
0000
0000
0100
0000
0000
0100
0000
0000
1000
0000
,
0001
0000
0000
0000
0010
0000
0000
0000
0100
0000
0000
0100
0000
0000
0010
0000
,
0011
0000
0000
0000
1000
0000
0000
0000
0010
0000
0000
0100
0000
0000
0100
0000
,
0001
1000
0001
0000
1000
0000
0100
0000
,
0010
0000
0000
0000
1000
0000
0000
0000
0010
0000
0000
0001
0000
0000
0001
0000
,
0100
0010
0100
0010
0100
0000
0001
0000
,
0101
0000
0000
0000
1100
0000
0000
0000
0010
0000
0000
0010
0000
0000
0010
0000
,
1010
0000
0000
0000
0101
0000
0000
0000
1000
0000
0000
1000
0000
0000
1000
0000
,
1100
0000
0000
0000
0101
0000
0000
0000
0010
0000
0000
0010
0000
0000
0010
0000
,
1000
0000
0100
0000
1000
0000
0010
0000
0100
0000
0000
0001
0000
0000
0100
0000
,
0101
0000
0000
0000
0011
0000
0000
0000
1000
0000
0000
1000
0000
0000
1000
0000
,
1001
0000
0000
0000
1010
0000
0000
0000
0001
0000
0000
0001
0000
0000
0001
0000
,
1001
0000
0000
0000
0110
0000
0000
0000
1000
0000
0000
1000
0000
0000
1000
0000
,
0001
0100
1000
0100
0001
0000
2000
3000
,
0010
0000
0100
0000
0001
0001
1000
0000
,
0001
0000
0100
0000
0010
0010
1000
0000
,
0001
0000
1000
0000
0100
0100
0010
0000
,
0100
0000
0000
0000
0100
0000
1000
0000
0100
0000
0000
0100
0000
0000
1000
0000
,
0010
0000
0100
0000
1000
0100
0001
0000
,
0100
1000
0100
0000
0001
0100
1000
0000
,
0001
0000
0100
0000
0010
1000
0001
0000
,
0100
0010
0100
0010
1000
1000
1100
0000
,
1001
0000
0000
0000
1001
0000
0000
0000
0010
0000
0000
0010
0000
0000
1000
0000
,
1001
0000
0000
0000
1001
0000
0000
0000
0010
0000
0000
0010
0000
0000
0001
0000
,
1001
0000
0000
0000
1001
0000
0000
0000
0100
0000
0000
0100
0000
0000
1000
0000
,
1001
0000
0000
0000
0010
0000
0100
0000
0001
0000
0000
1000
0000
0000
0001
0000
,
0010
0010
0010
0010
0220
0000
0330
1000
,
1001
0000
0000
0000
0110
0000
0000
0000
0100
0000
0000
0100
0000
0000
0001
0000
,
0010
0000
0001
0100
0010
0000
1000
0100
,
0010
0001
0010
0001
1000
0001
0020
0030
,
0110
0000
0000
0000
0001
0000
0000
0000
1000
0000
0000
1100
0000
0000
1000
0000
,
1100
0000
0000
0000
0010
0000
0000
0000
0100
0000
0000
0101
0000
0000
0100
0000
,
0101
0000
0000
0000
1001
0000
0000
0000
0010
0000
0000
0110
0000
0000
0010
0000
,
1010
0000
0000
0000
1001
0000
0000
0000
0100
0000
0000
0100
0000
0000
0100
0000
,
0001
0000
0010
0000
0100
0000
0000
0000
1010
0000
0000
0101
0000
0000
0001
0000
,
1000
0000
0001
0000
0100
0000
0000
0000
0110
0000
0000
1001
0000
0000
1000
0000
,
0100
0000
0010
0000
0001
0000
0000
0000
0011
0000
0000
1100
0000
0000
0100
0000
,
0010
0000
0010
0000
0100
1000
1010
0000
,
0001
0000
0000
0000
1000
0000
0000
0000
0010
0000
0000
1001
0000
0000
1000
0000
,
0001
0000
0000
0000
1000
0000
0000
0000
0100
0000
0000
1010
0000
0000
1000
0000
,
0010
0000
0000
0000
0100
0000
0000
0000
0001
0000
0000
1100
0000
0000
0100
0000
,
1000
0000
0000
0000
0001
0000
0010
0000
0100
0000
0000
0100
0000
0000
1001
0000
,
0001
0000
0000
0000
1000
0000
0000
0000
0001
0000
0000
0110
0000
0000
0100
0000
,
0010
0000
0000
0000
0100
0000
0000
0000
0010
0000
0000
1001
0000
0000
0001
0000
,
1000
0000
0000
0000
0100
0000
0000
0000
0010
0000
0000
1100
0000
0000
1000
0000
,
0001
0000
0100
0100
0001
0000
0011
0000
,
0201
0000
0000
0000
1000
0000
0000
0000
0001
0000
0000
0001
0000
0000
0010
0000
,
0010
0000
0000
0000
1000
0000
0000
0000
0010
0000
0000
0010
0000
0000
0001
0000
,
0302
0000
0000
0000
1000
0000
0000
0000
0100
0000
0000
0100
0000
0000
1000
0000
,
1000
0000
0000
0000
0010
0000
0000
0000
0100
0000
0000
0100
0000
0000
0103
0000
,
0001
0100
0001
0100
0001
0100
0001
0100
,
0001
1000
0001
1000
0001
1000
0001
1000
,
0001
0010
0001
0010
0001
0010
0001
0010
,
0200
0000
2000
0000
3300
1000
0001
0000
,
1010
0000
0000
0000
0011
0000
0000
0000
1100
0000
0000
1001
0000
0000
0100
0000
,
0110
0000
0000
0000
1000
0000
0000
0000
0001
0000
0000
0001
0000
0000
0001
0000
,
0101
0000
0000
0000
1010
0000
0000
0000
1001
0000
0000
1100
0000
0000
0001
0000
,
0011
0001
0200
0000
1000
1000
0301
0000
,
0001
0100
0001
1000
0001
0100
0001
0001
,
1000
0100
1000
0001
1000
0100
1000
1000
,
0001
0100
0010
1000
0001
0100
0010
1000
,
0010
0000
0100
0000
0010
0000
0010
0000
0110
0000
0000
1001
0000
0000
0000
0000
;

//---------------dance-single - ----------------
#NOTES:
     dance-single:
     :
     Challenge:
     10:
     0.914,0.972,0.706,0.320,0.833,654.000,86.000,39.000,0.000,2.000,0.000,0.914,0.972,0.706,0.320,0.833,654.000,86.000,39.000,0.000,2.000,0.000:
0000
0000
0000
0000
,
0000
0000
1001
0000
,
2010
0000
0000
0000
3002
0000
0000
0000
1000
0003
0000
0200
0000
0000
1000
0000
,
2300
0000
0000
0000
3020
0000
0000
0000
0100
0030
0000
0002
0000
0000
0100
0000
,
0203
0000
0000
0000
0302
0000
0000
0000
0010
0003
0000
0200
0000
0000
1000
0000
,
2300
0000
0000
0000
3002
0000
1000
0000
1000
0003
1000
0200
0000
0000
1300
0000
,
1100
0000
0100
0000
1100
0000
0100
0000
0110
0000
0000
1001
0000
0000
0100
0000
,
0100
0000
0001
0000
1000
0001
0000
0000
0100
0000
0010
0100
0000
0010
0100
0000
,
0001
0010
0001
0200
0000
0000
0301
0010
0001
0200
0000
0000
,
0301
0100
0100
1000
0100
0100
0001
0010
0010
0220
0000
0330
,
1001
0000
0000
0000
0110
0000
0000
0000
1100
0000
0000
0101
0000
0000
0110
0000
,
1001
0000
0000
0000
0100
0000
0010
0000
0100
0000
1000
0100
0000
0000
0100
0000
,
1100
0000
0001
0000
0101
0000
1000
0000
1100
0000
0000
1100
0000
0000
0001
0000
,
0100
0000
0001
0000
0001
0000
0010
0000
0100
0000
0000
0100
1000
1000
0010
0000
,
1010
0000
1000
0010
0100
0010
1000
1000
0001
0000
0000
1000
0001
1000
0100
0000
,
0010
0000
0010
0000
0010
0000
0001
0000
1000
0000
0100
1000
0010
0000
0100
0000
,
0001
0000
0001
0000
0101
0000
1000
0001
0000
0001
0000
0100
0010
0100
0001
0000
,
1000
0000
0010
0000
1000
0000
0010
0000
1000
0000
0010
1000
0100
0000
0100
0000
,
1100
0000
0001
0000
0100
0010
0000
0000
0110
0000
0000
1001
0000
0000
0110
0000
,
0001
0000
0001
0000
1000
0001
0000
0000
1100
0000
0000
0101
0000
0000
0001
0000
,
1001
0000
1000
0000
0010
0100
0000
0000
0101
0000
0000
1010
0000
0000
1001
0000
,
1000
0100
1000
0000
0001
0100
0000
0001
1000
0100
1000
0000
0001
0000
0001
0000
,
0101
0000
0010
0000
1000
0100
0000
0000
0101
0000
0000
1100
0000
0000
0001
0000
,
0010
0001
0010
0000
0100
0010
0000
0100
1000
0000
0001
0000
0001
0000
0001
0000
,
0100
0000
0001
0000
0100
0001
0000
1000
0010
0100
0010
1000
0000
0000
1000
0000
,
0100
0000
0010
0000
0100
0000
0010
0000
0100
0000
0100
0000
0220
0000
0000
0330
,
0100
0000
1000
0000
0001
0000
0100
1000
0100
0001
0010
0000
0022
0000
0033
0000
,
0100
0000
1000
0000
1000
0100
1000
1000
0001
0000
0001
0000
0202
0000
0303
0000
,
0001
0000
0100
1000
0100
0001
0100
0000
0010
0000
0010
0000
0220
0000
0330
0000
,
0100
0001
1000
1000
0001
0000
0010
0000
0100
0000
2000
0001
0000
0000
3001
0000
,
0101
0000
0100
0010
1000
0100
1000
0000
0010
0000
0010
0000
2020
0000
3030
0000
,
0100
0001
0100
0100
0001
0000
0001
1000
0100
1000
0001
0000
2002
0000
3003
0000
,
1000
0100
0010
0100
1000
0001
1000
0000
0010
0000
0010
0000
0220
0000
0330
0000
,
0110
0000
1001
0000
0110
0000
1001
0000
1000
0100
1000
0100
0010
0001
0010
0001
,
0100
0000
0001
0000
1001
0000
1000
0001
0000
0001
0000
0100
0001
0000
0001
0000
,
1000
0000
0100
0000
0100
0000
0001
0100
0000
0100
0000
1000
0001
0000
1000
0000
,
0010
0000
0100
1000
0100
0001
0001
0100
0000
0010
0000
1000
0100
0000
0100
0000
,
0010
0000
0001
0000
0001
0000
1000
0000
0001
0000
0000
1000
0001
0000
0010
0000
,
1100
0101
1001
0220
1001
0330
0000
1000
,
2002
0000
0000
0000
0110
0000
3003
0000
1001
0000
0000
0100
0000
0000
0010
0000
,
1001
0000
0000
0001
1000
0000
0100
0000
1000
0000
1000
0001
1000
0000
0100
0000
,
1000
0000
0010
0000
0001
0000
0010
0000
1000
0001
0100
0001
0020
0000
0130
1000
,
0100
0000
0100
1000
0010
0100
0010
1000
0001
0000
0100
0000
0101
0000
0000
0001
,
1000
0100
1000
0001
1000
0000
1000
0100
1000
0001
1000
0000
1100
0000
0000
0000
,
0001
0100
0001
0001
1000
0000
0100
0000
0010
0000
0100
0000
1001
0000
0100
0000
,
0010
0000
0100
0001
0100
1000
0100
0000
0001
0000
1000
0000
1100
0000
0001
0010
,
0001
0100
0001
0100
1000
0000
0100
0001
1000
0001
1000
0000
1100
0000
0010
0000
,
0100
0001
0010
0001
1000
0000
1000
0000
0001
0000
0100
0000
1001
0000
1000
0000
,
0001
0000
0001
0010
0100
1000
0100
0000
0010
0000
0001
0000
0101
0000
0000
0001
,
1000
0000
1000
0001
0100
0000
0100
0000
0010
0100
0010
0000
1001
0000
0000
0000
,
0101
0000
0000
0000
1010
0000
0000
0000
0100
0000
0000
1001
0000
0000
0010
0000
,
1001
0000
0000
0000
1010
0000
0000
0000
0001
0000
0000
1100
0000
0000
0001
0000
,
1100
0000
0000
0000
0011
0000
0000
0000
1000
0000
0000
0110
0000
0000
0001
0000
,
0010
0100
0010
0000
0100
1000
0000
0100
0010
0100
0010
0000
0001
0000
0001
0000
,
1001
0000
0000
0000
1100
0000
0000
0000
1000
0010
0000
0101
0000
0000
0010
0000
,
0101
0000
0000
0000
1100
0000
0000
0000
0001
0000
0000
0110
0000
1000
1000
0000
,
1100
0000
0000
0000
1001
0000
0000
0000
0010
0000
0000
1001
0000
1000
0001
1000
,
0001
0001
0100
0000
0100
0000
0010
0000
0100
0000
0000
0100
0002
0000
0000
0000
,
0103
0000
0010
0000
0010
0000
1000
0010
0000
0010
0000
0100
0010
0000
0010
0000
,
0100
0000
0001
0000
0001
0000
1000
0001
0000
0001
0000
0010
0100
0010
0001
0000
,
1000
0000
0010
1000
0010
0100
0001
0010
0000
0100
0000
0100
0010
0000
0010
0000
,
0100
0000
1000
0000
0100
0000
1000
0000
0001
0010
0001
0010
0000
0001
0010
0001
,
1000
0000
0100
0000
1000
0000
0100
0000
1000
0000
0100
1000
0000
1000
0100
1000
,
0001
0000
0100
0000
0001
0000
0100
0000
0001
0000
0100
0001
0000
0001
0100
0001
,
1000
0000
0010
0000
1000
0000
0010
0000
1000
0000
0010
1000
0000
1000
0010
0100
,
0010
0000
0010
0000
0120
0000
0100
0000
0130
0000
0100
0001
0100
0000
0000
0000
,
1010
0000
1000
0000
1010
0000
0100
0010
0000
0010
0000
1000
0001
0000
0100
0000
,
0001
0000
0010
0000
1000
0000
0010
0001
0000
1000
0000
0001
0100
1000
0100
0000
,
0101
0000
0100
0001
1000
0001
0100
0100
0000
1001
0000
0010
0100
0000
0010
0000
,
1000
0001
0010
0000
0100
0000
0100
0000
0100
1000
0001
0010
0100
0000
0100
0000
,
1000
0100
1000
0100
0001
0100
0001
0100
1000
0100
0100
1000
0100
0100
1000
0100
,
0010
0001
0010
0001
0010
1000
0010
1000
0010
0001
0001
0010
0001
0001
0010
0001
,
0010
0100
1000
0100
0010
0001
0100
0001
0010
1000
1000
0010
0001
0001
0100
0001
,
1000
0100
0010
0001
0001
0010
0100
1000
1100
0000
0000
1000
0020
0000
0000
0000
,
0030
0000
0000
0000
;

//---------------dance-single - ----------------
#NOTES:
     dance-single:
     :
     Hard:
     9:
     0.692,0.638,0.624,0.230,0.386,486.000,76.000,28.000,0.000,0.000,0.000,0.692,0.638,0.624,0.230,0.386,486.000,76.000,28.000,0.000,0.000,0.000:
0000
0000
0000
0000
,
0000
0000
1001
0000
,
2010
0000
0000
0000
0002
0000
0000
0000
0000
0003
0000
0200
0000
0000
0300
0000
,
3002
0000
0000
0000
0020
0000
0000
0000
0000
0030
0000
0200
0000
0000
0300
0000
,
2003
0000
0000
0000
0020
0000
0000
0000
0000
0030
0000
0200
0000
0000
0300
0000
,
3002
0000
0000
0000
0020
0000
0000
0000
0000
0030
0000
0200
0000
0000
0303
0000
,
1001
0000
0000
0000
1000
0000
0000
0000
0101
0000
0000
0101
0000
0000
1000
0000
,
0001
0000
0000
0000
1000
0000
0000
0000
0100
0000
0000
0100
0000
0000
0100
0000
,
1000
0100
1000
0200
0000
0000
0310
0001
0010
0002
0000
0000
,
1003
0100
1000
0001
0100
0001
1000
0001
1000
0200
0000
0300
,
1001
0000
0000
0000
0110
0000
0000
0000
1001
0000
0000
1001
0000
0000
0100
0000
,
1000
0000
0000
0000
0001
0000
0000
0000
1000
0000
0000
1000
0000
0000
0100
0000
,
1100
0000
0000
0000
0101
0000
0000
0000
1100
0000
0000
0101
0000
0000
0001
0000
,
1000
0000
0000
0000
1000
0000
0010
0000
0100
0000
0000
0100
0000
0000
0010
0000
,
0110
0000
0000
0000
0100
0000
0001
0000
0100
0000
0000
0001
0000
0000
0100
0000
,
0010
0000
1000
0000
0010
0000
0000
0000
1000
0000
0000
0001
0000
0000
0100
0000
,
0110
0000
0000
0000
0001
0000
0100
0000
1000
0000
0000
1000
0000
0000
0100
0000
,
0001
0000
0010
0000
0001
0000
0010
0000
0001
0000
0000
0001
0000
0000
0100
0000
,
0110
0000
0010
0000
1000
0010
0000
0000
0100
0000
0000
1001
0000
0000
0100
0000
,
0001
0000
1000
0000
0100
1000
0000
0000
0010
0000
0000
1001
0000
0000
0010
0000
,
0100
0000
0001
0000
1000
0001
0000
0000
0100
0000
0000
1001
0000
0000
0100
0000
,
0001
0000
0001
0000
0100
0001
0000
0100
0001
0000
1000
0000
0010
0000
0010
0000
,
0100
0000
0001
0000
0100
0010
0000
0000
1000
0000
0000
0110
0000
0000
1000
0000
,
0100
0000
0001
0000
0100
1000
0000
0000
0001
0000
0000
0110
0000
0000
0001
0000
,
0100
0000
0001
0000
0100
0001
0000
0000
1100
0000
0000
0101
0000
0000
1100
0000
,
1000
0000
0001
0000
1000
0000
0001
0000
1000
0000
0100
0000
0020
0000
0000
0030
,
0100
1000
0001
0100
1000
0100
0002
0003
,
0100
0010
0001
1000
0100
0001
2000
3000
,
0100
0001
0100
1000
0010
0100
0002
0003
,
1000
0000
0010
0100
0010
0000
0001
0000
1000
0000
0200
0000
0001
0000
0300
0000
,
0010
0100
0100
1000
0010
0010
0002
0003
,
0010
1000
0100
0001
1000
0010
0002
0003
,
1000
1000
1000
0001
0010
0010
0200
0300
,
0010
0000
0010
0000
0010
0000
0010
0000
0001
1000
0001
1000
0001
1000
0001
0000
,
1001
0000
0000
0000
1001
0000
0000
0000
0110
0000
0000
1001
0000
0000
0100
0000
,
1001
0000
0000
0000
1001
0000
0000
0000
0110
0000
0000
1001
0000
0000
0010
0000
,
1001
0000
0000
0000
1100
0000
0000
0000
0101
0000
0000
0001
0000
0000
0100
0000
,
0110
0000
0000
0000
1000
0000
0010
0000
0100
0000
0000
0100
0000
0000
0010
0000
,
1001
0000
0110
0000
1001
0000
0110
0000
1002
0000
0000
1000
0000
0000
0103
0000
,
0110
0000
0000
0000
1001
0000
0000
0000
0010
0000
0000
0010
0000
0000
0100
0000
,
1001
0000
0000
0001
1000
0000
0100
0000
1000
0000
1000
0001
1000
0000
0100
0000
,
1000
0000
0010
0000
1000
0000
0010
0000
0100
0001
0100
0001
0020
0000
0030
0000
,
1100
0001
0100
1000
0100
0001
1000
0100
,
0001
0001
0100
0001
0001
0100
1100
0000
,
0001
0100
0010
1000
0010
0100
1001
0100
,
0100
0001
1000
0010
0001
0010
1001
0001
,
1000
1000
0001
1000
1000
0001
0101
0010
,
1000
0010
0001
0010
1000
0100
1001
1000
,
0010
0000
0100
0000
1000
0000
0100
0000
0001
0000
0010
0000
0110
0000
0000
0001
,
1000
0000
0001
0000
1000
0000
0100
0000
0010
0100
0010
0000
1001
0000
0000
0000
,
0101
0000
0000
0000
1010
0000
0000
0000
0100
0000
0000
0001
0000
0000
0100
0000
,
0110
0000
0000
0000
1001
0000
0000
0000
0100
0000
0000
1000
0000
0000
0100
0000
,
1100
0000
0000
0000
0101
0000
0000
0000
1000
0000
0000
0001
0000
0000
1000
0000
,
1001
0000
0000
0000
0011
0000
0001
0000
1000
0000
0000
0101
0000
0000
1000
0000
,
1100
0000
0000
0000
0101
0000
0000
0000
0010
0000
0000
0001
0000
0000
0010
0000
,
0110
0000
0000
0000
1100
0000
0000
0000
0001
0000
0000
1000
0000
0000
0001
0000
,
0101
0000
0000
0000
1001
0000
0000
0000
0100
0000
0000
0010
0000
0000
0100
0000
,
0101
0000
0000
0000
0100
0000
0010
0000
0100
0000
0000
0100
0002
0000
0000
0000
,
0103
0000
0000
0000
0100
0000
0000
0000
0100
0000
0000
0001
0000
0001
0000
1000
,
0001
0000
0000
0000
0001
0000
0000
0000
0001
0000
0000
1000
0000
1000
0000
0100
,
1000
0000
0000
0000
1000
0000
0000
0000
1000
0000
0000
0010
0000
0010
0000
0100
,
0010
0000
0000
0000
0010
0000
0000
0000
0010
0000
0000
1000
0000
0001
0000
1000
,
0100
0000
0100
0000
1000
0000
1000
0000
0100
0000
0001
0100
0000
1000
0100
0000
,
1000
0000
1000
0000
0001
0000
0001
0000
1000
0000
0010
0001
0000
0010
1000
0000
,
0001
0000
0001
0000
0100
0000
0100
0000
0001
0000
0010
1000
0000
0010
0001
0000
,
1000
0000
0100
0000
0020
0000
0000
0000
0030
0000
0001
1000
0001
0000
0000
0000
,
1010
0000
0100
0000
0001
0000
0100
0000
0110
0000
0000
1001
0000
0000
0100
0000
,
0001
0000
0001
0000
0010
0000
0100
0000
1000
0000
0010
1000
0000
0001
0100
0000
,
0101
0000
1000
0000
0001
0000
0100
0000
0110
0000
0000
1010
0000
0000
0101
0000
,
0001
0000
1000
0000
0100
0000
0100
0000
0010
0001
0010
0001
0100
0000
0100
0000
,
0010
0000
1000
0000
0001
0000
0100
0000
1000
0000
0100
0001
0000
1000
0100
0000
,
0010
0000
0001
0000
1000
0000
0100
0000
0001
0000
0100
1000
0000
0001
1000
0000
,
0001
0000
0010
0000
1000
0000
0001
0000
0100
0000
1000
0001
0000
0010
1000
0000
,
0010
0000
0001
0000
0100
0000
0010
0000
1001
0000
0000
0100
0020
0000
0000
0000
,
0030
0000
0000
0000
;
