#TITLE:BEAUTIFUL ANGEL;
#SUBTITLE:;
#ARTIST:DJ SWAN (Toshiaki Komiya & Keiichi Ueno);
#TITLETRANSLIT:;
#SUBTITLETRANSLIT:;
#ARTISTTRANSLIT:;
#CREDIT:;
#BANNER:BEAUTIFUL ANGEL-bn.png;
#BACKGROUND:Title Card-bg.png;
#LYRICSPATH:;
#CDTITLE:NEMESetupLOGO.PNG;
#MUSIC:BEAUTIFUL ANGEL.mp3;
#OFFSET:-3.623;
#SAMPLESTART:15.880;
#SAMPLELENGTH:12.000;
#SELECTABLE:YES;
#DISPLAYBPM:172.000;
#BPMS:0.000=172.020;
#STOPS:;
#BGCHANGES:4.000=Black-bg.png=1.000=1=0=1,
8.000=BEAUTIFUL ANGEL-bg.png=1.000=1=0=0,
9.500=BEAUTIFUL ANGEL-bg.png=1.000=0=0=0,
12.000=Black-bg.png=1.000=1=0=1,
16.000=BEAUTIFUL ANGEL-bg.png=1.000=1=0=1,
17.500=BEAUTIFUL ANGEL-bg.png=1.000=1=0=1,
19.000=BEAUTIFUL ANGEL-bg.png=1.000=1=0=1,
20.000=BEAUTIFUL ANGEL-bg.png=1.000=1=0=1,
20.500=Black-bg.png=1.000=1=0=1,
24.000=BEAUTIFUL ANGEL-bg.png=1.000=1=0=1,
26.000=BEAUTIFUL ANGEL-bg.png=1.000=1=0=1,
28.000=BEAUTIFUL ANGEL-bg.png=1.000=1=0=1,
30.000=BEAUTIFUL ANGEL-bg.png=1.000=1=0=1,
32.000=BEAUTIFUL ANGEL-bg.png=1.000=1=0=1,
33.000=BEAUTIFUL ANGEL-bg.png=1.000=1=0=1,
34.000=BEAUTIFUL ANGEL-bg.png=1.000=1=0=1,
35.000=BEAUTIFUL ANGEL-bg.png=1.000=1=0=1,
36.000=BEAUTIFUL ANGEL-bg.png=1.000=1=0=1,
40.000=-random-=1.000=0=0=1,
68.500=BEAUTIFUL ANGEL-bg.png=1.000=0=0=1,
68.750=-random-=1.000=0=0=1,
69.000=BEAUTIFUL ANGEL-bg.png=1.000=0=0=1,
69.250=-random-=1.000=0=0=1,
69.500=BEAUTIFUL ANGEL-bg.png=1.000=0=0=1,
69.750=-random-=1.000=0=0=1,
70.000=BEAUTIFUL ANGEL-bg.png=1.000=0=0=1,
70.250=-random-=1.000=0=0=1,
70.500=BEAUTIFUL ANGEL-bg.png=1.000=0=0=1,
70.750=-random-=1.000=0=0=1,
71.000=BEAUTIFUL ANGEL-bg.png=1.000=0=0=1,
71.250=-random-=1.000=0=0=1,
71.500=BEAUTIFUL ANGEL-bg.png=1.000=0=0=1,
71.750=-random-=1.000=0=0=1,
72.000=-random-=1.000=0=0=1,
75.000=BEAUTIFUL ANGEL-bg.png=1.000=0=0=1,
75.250=-random-=1.000=0=0=1,
75.500=BEAUTIFUL ANGEL-bg.png=1.000=0=0=1,
75.750=Black-bg.png=1.000=1=0=1,
76.500=-random-=1.000=0=0=1,
88.000=BEAUTIFUL ANGEL-bg.png=1.000=0=0=1,
89.500=-random-=1.000=0=0=1,
92.000=BEAUTIFUL ANGEL-bg.png=1.000=0=0=1,
93.500=-random-=1.000=0=0=1,
96.000=BEAUTIFUL ANGEL-bg.png=1.000=0=0=1,
96.500=-random-=1.000=0=0=1,
97.000=BEAUTIFUL ANGEL-bg.png=1.000=0=0=1,
97.500=-random-=1.000=0=0=1,
98.000=BEAUTIFUL ANGEL-bg.png=1.000=0=0=1,
98.500=-random-=1.000=0=0=1,
99.000=BEAUTIFUL ANGEL-bg.png=1.000=0=0=1,
99.500=-random-=1.000=0=0=1,
100.000=BEAUTIFUL ANGEL-bg.png=1.000=0=0=1,
100.250=-random-=1.000=0=0=1,
100.500=BEAUTIFUL ANGEL-bg.png=1.000=0=0=1,
100.750=-random-=1.000=0=0=1,
101.000=BEAUTIFUL ANGEL-bg.png=1.000=0=0=1,
101.250=-random-=1.000=0=0=1,
101.500=BEAUTIFUL ANGEL-bg.png=1.000=0=0=1,
101.750=-random-=1.000=0=0=1,
102.000=BEAUTIFUL ANGEL-bg.png=1.000=0=0=1,
102.250=-random-=1.000=0=0=1,
102.500=BEAUTIFUL ANGEL-bg.png=1.000=0=0=1,
102.750=-random-=1.000=0=0=1,
103.000=BEAUTIFUL ANGEL-bg.png=1.000=0=0=1,
104.000=BEAUTIFUL ANGEL-bg.png=1.000=1=0=1,
107.000=BEAUTIFUL ANGEL-bg.png=1.000=1=0=1,
108.500=-random-=1.000=0=0=1,
112.000=BEAUTIFUL ANGEL-bg.png=1.000=0=0=1,
112.063=Black-bg.png=1.000=1=0=1,
115.000=BEAUTIFUL ANGEL-bg.png=1.000=0=0=1,
116.500=-random-=1.000=0=0=1,
120.000=BEAUTIFUL ANGEL-bg.png=1.000=0=0=1,
120.063=Black-bg.png=1.000=1=0=1,
123.000=BEAUTIFUL ANGEL-bg.png=1.000=0=0=1,
124.500=-random-=1.000=0=0=1,
128.000=BEAUTIFUL ANGEL-bg.png=1.000=0=0=1,
128.750=-random-=1.000=0=0=1,
129.500=BEAUTIFUL ANGEL-bg.png=1.000=0=0=1,
130.250=-random-=1.000=0=0=1,
131.000=BEAUTIFUL ANGEL-bg.png=1.000=0=0=1,
131.750=-random-=1.000=0=0=1,
132.500=BEAUTIFUL ANGEL-bg.png=1.000=0=0=1,
133.250=-random-=1.000=0=0=1,
134.000=BEAUTIFUL ANGEL-bg.png=1.000=0=0=1,
134.500=-random-=1.000=0=0=1,
135.000=BEAUTIFUL ANGEL-bg.png=1.000=0=0=1,
135.500=-random-=1.000=0=0=1,
136.000=BEAUTIFUL ANGEL-bg.png=1.000=0=0=1,
136.063=Black-bg.png=1.000=1=0=1,
139.000=BEAUTIFUL ANGEL-bg.png=1.000=0=0=1,
140.500=-random-=1.000=0=0=1,
144.000=BEAUTIFUL ANGEL-bg.png=1.000=0=0=1,
144.063=Black-bg.png=1.000=1=0=1,
147.000=BEAUTIFUL ANGEL-bg.png=1.000=0=0=1,
148.500=-random-=1.000=0=0=1,
152.000=BEAUTIFUL ANGEL-bg.png=1.000=0=0=1,
152.063=Black-bg.png=1.000=1=0=1,
155.000=BEAUTIFUL ANGEL-bg.png=1.000=0=0=1,
156.500=-random-=1.000=0=0=1,
160.000=BEAUTIFUL ANGEL-bg.png=1.000=0=0=1,
160.750=-random-=1.000=0=0=1,
161.500=BEAUTIFUL ANGEL-bg.png=1.000=0=0=1,
162.250=-random-=1.000=0=0=1,
163.000=BEAUTIFUL ANGEL-bg.png=1.000=0=0=1,
163.750=-random-=1.000=0=0=1,
164.500=BEAUTIFUL ANGEL-bg.png=1.000=0=0=1,
165.250=-random-=1.000=0=0=1,
166.000=BEAUTIFUL ANGEL-bg.png=1.000=0=0=1,
167.000=BEAUTIFUL ANGEL-bg.png=1.000=0=0=1,
168.000=BEAUTIFUL ANGEL-bg.png=1.000=1=0=1,
170.000=BEAUTIFUL ANGEL-bg.png=1.000=1=0=1,
172.000=BEAUTIFUL ANGEL-bg.png=1.000=1=0=1,
174.000=BEAUTIFUL ANGEL-bg.png=1.000=1=0=1,
176.000=BEAUTIFUL ANGEL-bg.png=1.000=1=0=1,
178.000=BEAUTIFUL ANGEL-bg.png=1.000=1=0=1,
180.000=BEAUTIFUL ANGEL-bg.png=1.000=1=0=1,
182.000=BEAUTIFUL ANGEL-bg.png=1.000=1=0=1,
184.000=BEAUTIFUL ANGEL-bg.png=1.000=1=0=1,
186.000=BEAUTIFUL ANGEL-bg.png=1.000=1=0=1,
188.000=BEAUTIFUL ANGEL-bg.png=1.000=1=0=1,
190.000=BEAUTIFUL ANGEL-bg.png=1.000=1=0=1,
192.000=BEAUTIFUL ANGEL-bg.png=1.000=1=0=1,
193.000=BEAUTIFUL ANGEL-bg.png=1.000=1=0=1,
194.000=BEAUTIFUL ANGEL-bg.png=1.000=1=0=1,
195.000=BEAUTIFUL ANGEL-bg.png=1.000=1=0=1,
198.500=-random-=1.000=0=0=1,
199.000=BEAUTIFUL ANGEL-bg.png=1.000=0=0=1,
199.500=-random-=1.000=0=0=1,
200.000=BEAUTIFUL ANGEL-bg.png=1.000=0=0=1,
200.500=-random-=1.000=0=0=1,
224.000=BEAUTIFUL ANGEL-bg.png=1.000=0=0=1,
226.000=-random-=1.000=0=0=1,
228.000=BEAUTIFUL ANGEL-bg.png=1.000=0=0=1,
230.000=-random-=1.000=0=0=1,
232.000=BEAUTIFUL ANGEL-bg.png=1.000=0=0=1,
232.500=-random-=1.000=0=0=1,
233.000=BEAUTIFUL ANGEL-bg.png=1.000=0=0=1,
233.500=-random-=1.000=0=0=1,
234.000=BEAUTIFUL ANGEL-bg.png=1.000=0=0=1,
234.500=-random-=1.000=0=0=1,
235.000=BEAUTIFUL ANGEL-bg.png=1.000=0=0=1,
235.500=-random-=1.000=0=0=1,
236.000=BEAUTIFUL ANGEL-bg.png=1.000=0=0=1,
236.250=-random-=1.000=0=0=1,
236.500=BEAUTIFUL ANGEL-bg.png=1.000=0=0=1,
236.750=-random-=1.000=0=0=1,
237.000=BEAUTIFUL ANGEL-bg.png=1.000=0=0=1,
237.250=-random-=1.000=0=0=1,
237.500=BEAUTIFUL ANGEL-bg.png=1.000=0=0=1,
237.750=-random-=1.000=0=0=1,
238.000=BEAUTIFUL ANGEL-bg.png=1.000=0=0=1,
238.250=-random-=1.000=0=0=1,
238.500=BEAUTIFUL ANGEL-bg.png=1.000=0=0=1,
238.750=-random-=1.000=0=0=1,
239.000=BEAUTIFUL ANGEL-bg.png=1.000=0=0=1,
239.250=-random-=1.000=0=0=1,
239.500=BEAUTIFUL ANGEL-bg.png=1.000=0=0=1,
239.750=-random-=1.000=0=0=1,
240.000=BEAUTIFUL ANGEL-bg.png=1.000=1=0=1,
248.000=-random-=1.000=0=0=1,
296.000=BEAUTIFUL ANGEL-bg.png=1.000=0=0=1,
296.500=-random-=1.000=0=0=1,
300.000=BEAUTIFUL ANGEL-bg.png=1.000=0=0=1,
300.500=-random-=1.000=0=0=1,
304.000=BEAUTIFUL ANGEL-bg.png=1.000=0=0=1,
304.500=-random-=1.000=0=0=1,
312.000=BEAUTIFUL ANGEL-bg.png=1.000=0=0=1,
312.500=-random-=1.000=0=0=1,
320.000=BEAUTIFUL ANGEL-bg.png=1.000=0=0=1,
320.667=-random-=1.000=0=0=1,
321.333=BEAUTIFUL ANGEL-bg.png=1.000=0=0=1,
322.000=-random-=1.000=0=0=1,
322.667=BEAUTIFUL ANGEL-bg.png=1.000=0=0=1,
323.333=-random-=1.000=0=0=1,
324.000=BEAUTIFUL ANGEL-bg.png=1.000=0=0=1,
324.667=-random-=1.000=0=0=1,
325.333=BEAUTIFUL ANGEL-bg.png=1.000=0=0=1,
326.000=-random-=1.000=0=0=1,
326.667=BEAUTIFUL ANGEL-bg.png=1.000=0=0=1,
327.333=-random-=1.000=0=0=1,
328.000=BEAUTIFUL ANGEL-bg.png=1.000=0=0=1,
329.667=Black-bg.png=1.000=1=0=1,
99999=-nosongbg-=1.000=0=0=0 // don't automatically add -songbackground-
;

//---------------dance-single - NEMESetup----------------
#NOTES:
     dance-single:
     NEMESetup:
     Easy:
     3:
     0.276,0.403,0.291,0.194,0.000:
0000
0000
0000
0000
,
0000
0000
0000
0000
,
1002
0000
1000
0000
,
0000
0000
1000
0000
,
2003
0000
0010
0000
,
0000
0000
0010
0000
,
3020
0000
0100
0000
,
0000
0000
0100
0030
,
0220
0000
0000
0000
,
0000
0000
0330
0110
,
1001
0000
0001
0000
,
1000
0000
0001
0100
,
1000
0000
0100
0000
,
0001
0000
1000
0010
,
0001
0000
0010
0000
,
1000
0000
0001
0010
,
1000
0000
0010
0000
,
0100
0000
1000
1000
,
1000
0000
0001
0002
,
0000
0003
0100
0100
,
0100
0000
0001
0000
,
1000
0000
0100
0010
,
0001
0000
1000
0000
,
0001
0000
0100
0000
,
0020
0000
0000
0000
,
2000
0000
3030
0000
,
1001
0000
0000
1001
,
0000
0001
1000
0000
,
0110
0000
0000
0110
,
0000
1000
0010
0100
,
1001
0000
0000
1001
,
0000
0001
0100
0010
,
0011
0000
0000
0011
,
0000
0000
1001
1001
,
1001
0000
0000
1010
,
0000
1000
0100
0010
,
1001
0000
0000
1001
,
0000
0010
0100
0001
,
0110
0000
0000
0110
,
0000
1000
0010
0100
,
1100
0000
0000
1100
,
0000
0000
0001
0100
,
1002
0000
0100
0000
,
0000
0100
0103
0000
,
2001
0000
0010
0000
,
0000
0010
3010
0000
,
0210
0000
1000
0000
,
0000
1000
1300
0000
,
0202
0000
0000
0000
,
0303
0000
0101
0101
,
1001
0000
0000
0010
,
1000
0000
0100
0000
,
1000
1000
1000
0000
,
0010
0000
0100
0000
,
0001
0001
0001
0000
,
1000
0000
0001
0000
,
0200
0000
0320
0000
,
2030
0000
3200
0000
,
0320
0000
0032
0000
,
0203
0000
2300
0000
,
3200
0000
0000
0000
,
0000
0000
0000
0000
,
0310
1000
0000
0100
,
1000
0001
0000
0100
,
0001
0010
0000
0100
,
1000
0001
0000
1000
,
0001
0010
0000
0010
,
0001
0100
0000
0100
,
0001
1000
0000
1000
,
0010
0100
0010
0100
,
0110
0100
0000
0010
,
1000
0100
0000
1000
,
0001
0100
0000
0010
,
1000
0001
0000
0001
,
0100
1000
0000
1000
,
0100
0001
0000
0001
,
1000
0000
0010
0000
,
0100
0000
0001
0000
,
0010
0000
1000
0000
,
0010
0000
0001
0000
,
0101
0000
1001
0000
,
1010
0000
0110
1001
,
0220
0000
0000
0000
,
0330
0000
0000
0000
;

//---------------dance-single - NEMESetup----------------
#NOTES:
     dance-single:
     NEMESetup:
     Medium:
     6:
     0.379,0.470,0.308,0.202,0.032:
0000
0000
0000
0000
,
0000
0000
0000
0000
,
0200
0000
0000
0002
0000
0000
0000
0000
,
0000
0303
0101
0000
,
2000
0000
0000
0010
0000
0000
0010
0000
,
0020
3030
1010
0000
,
2000
0000
0000
0002
0000
0000
0000
0000
,
0000
3003
1001
0000
,
1000
1000
1000
1000
,
0001
1000
0001
1000
0001
0000
0110
0000
,
1001
0000
0000
1000
0000
0000
0001
0000
,
0100
0000
0010
1000
,
0100
0000
0000
0010
0000
0000
0001
0000
,
0001
0000
1000
0100
,
1000
0000
0000
1000
0000
0000
0010
0000
,
0100
0000
0001
1000
,
0010
0000
0000
0010
0000
0000
1000
0000
,
1000
0100
0010
0100
,
1000
0000
0000
1000
0000
0000
0001
0200
,
0000
0000
0310
0000
0000
0010
0100
0000
,
0010
0000
1000
0000
0000
0100
1000
0000
,
0001
0000
0100
0000
0000
0001
1000
0000
,
0010
0000
0000
0100
0000
0000
0001
0000
,
1000
0000
0000
0001
0000
0000
0100
0000
,
0002
0000
0000
0000
,
2000
0000
0000
3003
,
1010
0000
0000
0101
0000
0000
1001
0000
,
0000
0010
1000
0000
0100
0000
0010
0000
,
0011
0000
0000
1010
0000
0000
1001
0000
,
0000
0010
1000
0000
0100
0000
0010
0000
,
0101
0000
0000
1100
0000
0000
0011
0000
,
0000
0001
0100
0000
1000
0000
0100
0000
,
1100
0000
0000
0110
0000
0000
0011
0000
,
0000
1001
0000
0000
1001
0000
0100
0000
,
1001
0000
0000
1010
0000
0000
0110
0000
,
0000
0001
0100
0000
0010
0000
1000
0000
,
0011
0000
0000
1010
0000
0000
0110
0000
,
0000
0010
1000
0000
0100
0000
0001
0000
,
0110
0000
0000
0011
0000
0000
1100
0000
,
0000
0001
0100
0000
1000
0000
0100
0000
,
0110
0000
0000
1010
0000
0000
0101
0000
,
0000
0011
0000
0000
0100
0000
0010
0000
,
0012
0010
0010
0000
,
0003
1000
0010
0000
0000
0100
0010
0000
,
2000
0000
0010
0000
0010
0000
0000
3010
,
0000
1000
0010
0000
0000
0100
0001
0000
,
0200
0000
1000
0000
1000
0000
0000
0300
,
0000
0001
0100
0000
0000
0010
1000
0000
,
0220
0000
0000
0000
,
0330
0000
0110
0110
,
1001
0000
0100
0000
0000
0100
1000
0000
,
0100
0000
0000
0010
0000
0000
0001
0000
,
0100
0100
0100
0001
,
1000
0000
0000
0010
0000
0100
0010
0000
,
1000
1000
1000
0000
,
0001
0000
0000
0100
0000
0010
1000
0000
,
0002
0000
2003
0000
,
3200
0000
0320
0000
,
2030
0000
3020
0000
,
0032
0000
0203
0000
,
0002
0000
0000
0000
,
0000
0000
0000
0303
,
0001
0100
0001
0100
0000
0000
0001
0000
,
1000
0000
0000
0010
0000
0000
1000
0000
,
0000
1000
0100
1000
0000
0000
0010
0000
,
1000
0000
0000
0001
0000
0000
0100
0000
,
0000
0100
0010
0100
0000
0000
0010
0000
,
1000
0000
0000
0001
0000
0000
0010
0000
,
0000
1000
0100
1000
0000
0000
0100
0000
,
1000
0000
0000
0001
0100
0001
0100
0000
,
0010
0100
0010
0100
0000
0000
0001
0000
,
1000
0001
1000
0100
,
0010
0001
0010
0001
0000
0000
0010
0000
,
0100
1000
0001
0100
,
0010
0000
1000
0000
0000
0100
0010
0000
,
0001
0000
1000
0000
0000
0010
0100
0000
,
0001
0100
0010
0100
,
0001
0010
0100
0010
,
0001
1000
0010
0100
,
1000
0100
0001
0010
,
0100
0000
1000
0000
1000
0000
1000
0000
0010
0000
0010
0000
,
0010
0000
0100
0000
0100
0000
0100
0000
0001
0000
0001
0000
,
2002
0000
0000
0000
,
3003
0000
0000
0000
;

//---------------dance-single - NEMESetup----------------
#NOTES:
     dance-single:
     NEMESetup:
     Hard:
     8:
     0.556,0.571,0.526,0.316,0.113:
0000
0000
0000
0000
,
0000
0000
0000
0000
,
2100
0000
0000
0020
0000
0000
0030
0000
,
0100
0100
0001
3001
,
0102
0000
0000
0010
0000
0000
1000
0000
,
2000
3003
0110
0000
,
1002
1000
1000
1000
,
0100
0100
0100
0103
,
1000
0100
0010
0001
,
1000
0001
1000
0001
1000
0001
0110
0000
,
1001
0000
0000
0200
0000
1300
0010
0000
,
0101
0001
0100
0001
1000
0100
0010
0001
,
0101
0000
0000
0020
0000
1030
0100
0000
,
1100
1000
0100
1000
0010
0100
0001
1000
,
1001
0000
0000
0002
0000
1003
0010
0000
,
0100
0001
1000
0001
0010
1000
0010
0100
,
0110
0000
0000
2010
0000
0000
0002
0000
,
3003
0100
0100
0010
1000
0100
0010
0001
,
0101
0000
0000
1020
0000
0030
0100
2002
,
0000
3003
0110
0000
0001
1000
0100
0000
,
0011
0000
0000
2001
0000
3001
0100
0000
,
0010
0010
1000
0100
0010
0100
1000
0001
,
0101
0000
0000
1010
0000
0000
0100
0000
,
0110
0000
0000
1001
0000
0000
0100
0000
,
1002
1000
1000
1000
,
0203
0010
0310
0110
,
0011
0000
0000
0100
0000
0000
1002
0000
,
0003
1000
0010
1000
0100
0010
0100
1000
,
1010
0000
0000
0001
0000
0000
2100
0000
,
3000
0001
1000
0010
0100
1000
0100
0001
,
0011
0000
0000
0100
0000
0000
0210
0000
,
0300
0010
0100
1000
0100
0001
0010
0100
,
1100
0000
0000
0011
0000
0000
0110
0000
,
0000
1001
0000
0000
1100
0000
0101
0000
,
1100
0000
0000
0010
0000
0000
0102
0000
,
0003
1000
0010
0100
0001
0010
1000
0010
,
0110
0000
0000
0001
0000
0000
0201
0000
,
0300
1000
0100
0001
1000
0100
0010
0001
,
0011
0000
0000
1000
0000
0000
2100
0000
,
3000
0100
1000
0001
1000
0100
0010
0001
,
0011
0000
0000
1100
0000
0000
0101
0000
,
0000
1010
0000
0000
0011
0000
1010
0000
,
0012
0100
0010
0003
,
0000
1000
0001
1000
0000
0001
0100
0010
,
2000
0000
0100
0000
0010
0000
3000
0010
,
0000
1000
0100
0010
0000
0100
0010
0001
,
0200
0010
1000
0300
,
0000
1000
0100
0001
0000
0001
0010
1000
,
0020
0001
0002
0000
,
0033
0000
0011
0110
,
1100
0000
0000
0001
0000
0100
0010
0000
,
2000
0000
3000
0001
0000
0100
0001
0000
,
0011
1100
0101
0010
,
0110
0000
0000
1001
0000
1000
0001
0100
,
1100
0110
1010
0100
,
1100
0000
0000
0011
0000
0100
1000
0001
,
0200
0000
0302
0000
,
0023
0000
0230
0000
,
2300
0000
3002
0000
,
0203
0000
2300
0000
,
0200
0000
0000
0000
,
0000
0000
0000
3300
,
1000
0100
0001
0010
0000
0010
0001
1000
,
0000
1000
0100
0001
0000
0001
0100
1000
,
0001
0001
0010
1000
0000
1000
0010
0100
,
0000
0100
1000
0001
0000
0001
0100
0010
,
1000
0100
0010
0001
0000
0001
1000
0010
,
0000
0010
0100
1000
0000
1000
0100
0001
,
0010
0100
1000
0100
0000
0100
1000
0010
,
0000
0010
0100
0001
0010
0001
0010
0001
,
0010
0100
1000
0010
0000
0010
1000
0100
,
0000
0100
0010
0001
0001
0100
0001
0100
,
0010
1000
0100
0010
0000
0010
0100
1000
,
0010
0000
0010
0100
1000
0000
1000
0000
,
0100
0000
0001
0000
0000
0001
0000
0000
1000
0000
0000
1000
0000
0000
1000
0000
,
0000
0000
0100
0000
0000
0010
0000
0000
0010
0000
0000
0010
0000
0000
0001
0000
,
1000
0000
0100
0000
0100
0000
1000
0000
1000
0000
1000
0000
,
0010
0000
0010
0000
0010
0000
0100
0000
0100
0000
0100
0000
,
1001
0000
0001
0000
0001
0000
0010
0000
0010
0000
0010
0000
,
0100
0000
0100
0000
0100
0000
1000
0000
1000
0000
1000
0000
,
1010
0000
1000
0000
0010
0000
0001
0000
0010
0000
1000
0000
,
0100
0000
0001
0000
0100
0000
1000
0000
0010
0000
0100
0000
,
2002
0000
0000
0000
,
3003
0000
0000
0000
;

//---------------dance-single - NEMESetup----------------
#NOTES:
     dance-single:
     NEMESetup:
     Beginner:
     1:
     0.113,0.202,0.049,0.146,0.000:
0000
0000
0000
0000
,
0000
0000
0000
0000
,
0020
0000
0000
0000
,
0030
0000
0000
0000
,
2000
0000
0000
0000
,
3000
0000
0000
0000
,
0200
0000
0000
0000
,
0300
0000
0000
0000
,
0002
0000
0000
0000
,
0000
0000
0003
0000
,
1001
0000
0000
0000
,
0001
0000
0000
0000
,
1000
0000
0000
0000
,
0001
0000
0000
0000
,
0010
0000
0000
0000
,
0100
0000
0000
0000
,
0010
0000
0000
0000
,
2000
0000
0000
0000
,
3000
0000
0000
0000
,
0001
0000
0000
0000
,
0001
0000
0000
0000
,
1000
0000
0000
0000
,
0100
0000
0000
0000
,
0100
0000
0000
0000
,
0020
0000
0000
0000
,
0000
0000
0030
0000
,
0110
0000
0000
0000
,
0010
0000
0000
0000
,
1000
0000
0000
0000
,
1000
0000
0000
0000
,
0001
0000
0000
0000
,
0001
0000
0000
0000
,
0010
0000
0000
0000
,
0010
0000
0010
0010
,
0010
0000
0000
0000
,
0100
0000
0000
0000
,
0100
0000
0000
0000
,
1000
0000
0000
0000
,
1000
0000
0000
0000
,
0010
0000
0000
0000
,
0010
0000
0000
0000
,
0000
0000
0010
0010
,
0020
0000
0000
0000
,
0030
0000
0000
0000
,
0200
0000
0000
0000
,
0300
0000
0000
0000
,
2000
0000
0000
0000
,
3000
0000
0000
0000
,
0002
0000
0000
0000
,
0000
0000
0003
0000
,
1001
0000
0000
0000
,
0000
0000
0000
0000
,
2000
0000
0000
0000
,
3000
0000
0000
0000
,
0020
0000
0000
0000
,
0030
0000
0000
0000
,
0200
0000
0000
0000
,
0000
0000
0300
0000
,
0020
0000
0000
0000
,
0000
0000
0030
0000
,
2002
0000
0000
0000
,
0000
0000
3003
0000
,
0110
0000
0000
0000
,
0000
0000
0000
0000
,
0001
0000
0000
0000
,
1000
0000
1000
0000
,
0100
0000
0000
0000
,
0010
0000
0000
0000
,
0010
0000
0000
0000
,
0001
0000
0001
0001
,
0001
0000
0000
0000
,
1000
0000
0000
0000
,
1000
0000
0000
0000
,
0010
0000
0000
0000
,
0010
0000
0000
0000
,
1000
0000
0000
0000
,
0100
0000
0100
0000
,
0100
0000
0000
0000
,
0001
0000
0001
0000
,
0001
0000
0000
0000
,
0010
0000
0010
0000
,
0010
0000
0010
0000
,
0220
0000
0000
0000
,
0330
0000
0000
0000
;

//---------------dance-single - NEMESetup----------------
#NOTES:
     dance-single:
     NEMESetup:
     Challenge:
     10:
     0.767,0.874,0.599,0.453,0.352: // measure 1
0000
0000
0000
0000
,  // measure 2
0000
0000
0000
0000
,  // measure 3
2000
0000
0100
3000
0001
0000
0200
0000
0001
0000
0001
0000
0301
0000
0100
0000
,  // measure 4
0010
1000
0010
1000
0010
0001
0010
0001
,  // measure 5
0020
0000
1000
0030
0100
0000
0002
0000
0100
0000
0100
0000
0203
0000
0000
0000
,  // measure 6
2300
0000
0001
3000
0100
0000
0010
0000
1000
0000
0001
0000
0010
0000
0001
0000
,  // measure 7
1000
0000
1000
0100
1000
0000
0100
0010
0100
0000
0010
0001
0010
0000
0001
1000
,  // measure 8
0001
0000
1000
0010
1000
0000
0010
0100
0010
0000
0100
1000
0100
0000
0010
0100
,  // measure 9
0010
1000
0100
0010
0001
1000
0100
0010
,  // measure 10
0001
0100
0001
0100
0001
0100
0001
0100
0001
0100
0001
0100
0002
0000
0003
0000
,  // measure 11
1001
0000
0000
0000
1000
0000
0200
0000
0000
0301
0100
0000
1001
0000
0000
0000
,  // measure 12
1000
0000
0010
0000
0100
0000
0001
1000
0000
1000
0010
0000
0100
0000
0001
0000
,  // measure 13
0011
0000
0000
0000
0100
0000
2000
0000
0000
3010
0100
0000
1100
0000
0000
0000
,  // measure 14
0100
0000
0001
0000
1000
0000
0010
0100
0000
0100
1000
0000
0100
0000
0001
0000
,  // measure 15
0101
0000
0000
0000
0001
0000
0020
0000
0000
0130
0001
0000
0011
0000
0000
0000
,  // measure 16
0001
0000
0100
0000
0010
0000
1000
0001
0000
0001
0100
0000
0010
0000
1000
0000
,  // measure 17
2200
0000
3300
0220
0000
0330
0202
0000
,  // measure 18
0303
0100
0100
0001
0010
1000
0001
1000
,  // measure 19
2100
0000
0000
0001
0000
0000
3010
1002
,  // measure 20
0000
1000
1003
0010
0001
0010
0100
0001
,  // measure 21
0011
0000
0000
0000
0100
0000
2000
0000
0000
3100
0010
0000
0110
0000
0000
0000
,  // measure 22
0010
0000
0001
0000
1000
0000
0100
0001
0000
0001
0100
0000
1000
0000
0010
0000
,  // measure 23
0120
0000
0000
1000
0000
0000
0031
0000
,  // measure 24
0210
0000
0000
0001
0000
0000
1300
0000
,  // measure 25
1002
1000
1003
0100
0001
0001
0001
0100
,  // measure 26
1000
0001
1000
0001
1000
0001
1000
0001
1000
0001
1000
0001
2000
0000
3000
0000
,  // measure 27
1001
0000
0000
0110
0000
0000
0022
0000
,  // measure 28
0033
0001
0100
0100
0010
1000
1000
0100
,  // measure 29
0110
0000
0000
0011
0000
0000
2200
0000
,  // measure 30
3300
1000
0010
0010
0001
0010
0010
0100
,  // measure 31
0110
0000
0000
0101
0000
0000
2002
0000
,  // measure 32
3003
0001
1000
1000
0010
0001
0001
0010
,  // measure 33
1010
0000
0000
0010
0001
0000
0011
0000
0000
0010
1000
0000
1010
0000
0000
0010
,  // measure 34
0100
0000
0110
0000
0100
0010
0100
0000
1001
0000
0000
0000
0110
0000
0000
0000
,  // measure 35
1001
0000
0000
0110
0000
0000
2200
0000
,  // measure 36
3300
1000
0010
0010
0100
0001
0001
0010
,  // measure 37
0110
0000
0000
1100
0000
0000
0022
0000
,  // measure 38
0033
0001
0100
0100
1000
0100
0100
0010
,  // measure 39
0110
0000
0000
1010
0000
0000
2002
0000
,  // measure 40
3003
1000
0001
0001
0100
1000
1000
0100
,  // measure 41
0101
0000
0000
0100
1000
0000
1100
0000
0000
0100
0001
0000
0101
0000
0000
0100
,  // measure 42
0010
0000
0110
0000
0010
0100
0010
0000
1001
0000
0000
0000
0110
0000
0000
0000
,  // measure 43
2001
0200
0001
3300
,  // measure 44
0000
1000
0100
0001
0101
0001
0100
1000
,  // measure 45
0002
0200
1000
0303
,  // measure 46
0000
0001
0100
1000
1100
1000
0100
0001
,  // measure 47
2000
0002
0010
3003
,  // measure 48
0000
1000
0001
0010
0110
0010
0001
1000
,  // measure 49
0002
2000
0200
0000
,  // measure 50
3303
0000
1100
0011
,  // measure 51
0110
1000
0010
0001
0000
0001
0010
1000
,  // measure 52
0001
0000
0100
0000
0001
0000
0100
0010
0000
0010
0100
0000
1000
0000
0100
0000
,  // measure 53
0110
0001
0010
1000
0000
1000
0010
0001
,  // measure 54
1000
0000
0100
0000
1000
0000
0100
0010
0000
0010
0100
0000
0001
0000
0100
0000
,  // measure 55
0110
1000
0100
0001
0000
0001
0100
1000
,  // measure 56
0010
0000
0100
0000
0010
0000
0100
0001
0000
0001
1000
0000
0001
0000
0100
0000
,  // measure 57
0210
0000
0010
0010
0320
1000
1000
1000
,  // measure 58
2030
0000
0001
0001
3002
0100
0100
0100
,  // measure 59
0103
0010
0100
0010
1000
0001
1000
0001
,  // measure 60
1000
0100
1000
0100
0010
0100
0010
0100
0010
0001
0010
0001
1000
0001
1000
0001
,  // measure 61
0200
0000
0002
0000
,  // measure 62
2000
0000
0020
3333
,  // measure 63
1001
0001
0100
0010
0000
0010
1000
0100
,  // measure 64
0000
0100
1000
0001
0000
0001
0100
1000
,  // measure 65
1100
0100
0001
0010
0000
0010
0001
0100
,  // measure 66
0000
0100
0001
1000
0000
1000
0100
0001
,  // measure 67
0101
0001
0100
1000
0000
0001
0100
1000
,  // measure 68
0000
0001
0010
1000
0000
0001
0010
1000
,  // measure 69
1010
1000
0010
0001
0000
1000
0010
0001
,  // measure 70
0000
1000
0100
0001
0001
1000
0100
0001
,  // measure 71
0101
0100
1000
0020
0000
0130
0010
0100
,  // measure 72
0010
1000
0100
0010
0001
0010
0100
1000
,  // measure 73
1000
0100
0001
0200
0000
0310
0100
0010
,  // measure 74
0100
0000
0010
0001
1000
0000
0100
0000
0010
0001
0010
0001
1000
0100
1000
0100
,  // measure 75
0000
0000
1000
0000
0000
1000
0000
0000
0010
0000
0000
0010
0000
0000
0110
0000
,  // measure 76
0000
0000
0001
0000
0000
0001
0000
0000
0010
0000
0000
0010
0000
0000
0110
0000
,  // measure 77
0000
0000
1000
0000
1000
0000
0001
0000
0001
0000
0001
0000
,  // measure 78
1000
0000
0100
0000
0010
0000
0001
0000
0010
0000
0100
0000
,  // measure 79
0110
0000
0100
0000
0100
0000
0010
0000
0010
0000
0010
0000
,  // measure 80
0001
0000
0010
0000
0100
0000
1000
0000
0100
0000
0010
0000
,  // measure 81
0001
0000
0011
0000
0001
0000
1001
0000
1000
0000
1010
0000
,  // measure 82
0110
0000
1100
0000
0110
0000
0011
0000
0101
0000
1001
0000
,  // measure 83
2200
0000
0000
0000
,  // measure 84
3300
0000
0000
0000
;
