#TITLE:Z #00;
#SUBTITLE:"Over and Out";
#ARTIST:choife;
#TITLETRANSLIT:;
#SUBTITLETRANSLIT:;
#ARTISTTRANSLIT:;
#CREDIT:;
#BANNER:z_00_banner.png;
#BACKGROUND:z_00_bg.png;
#LYRICSPATH:;
#CDTITLE:../cdtitle.png;
#MUSIC:z_00.mp3;
#OFFSET:-0.040;
#SAMPLESTART:40.113;
#SAMPLELENGTH:12.200;
#SELECTABLE:YES;
#DISPLAYBPM:0.000:0.001;
#BPMS:0.000=400.000,64.000=800.000,80.000=400.000,208.000=190.000,240.000=400.000,304.000=50.000,304.250=400.000,305.750=50.000,306.000=400.000,308.500=50.000,308.625=400.000,309.625=50.000,309.750=400.000,310.750=50.000,311.000=400.000,311.500=50.000,311.750=400.000,313.750=50.000,314.000=400.000,316.500=50.000,316.625=400.000,319.625=50.000,319.628=400.000,320.500=200.000,320.625=400.000,321.125=200.000,321.250=400.000,321.750=200.000,321.875=400.000,322.375=200.000,322.500=400.000,322.750=200.000,323.250=100.000,323.500=200.000,323.750=50.000,340.000=64.000,342.000=78.000,344.000=91.000,346.000=105.000,348.000=120.000,350.000=135.000,352.000=144.000,354.000=160.000,356.000=173.000,358.000=188.000,360.000=202.000,362.000=214.000,364.000=228.000,366.000=244.000,368.000=258.000,370.000=274.000,372.000=288.000,374.000=304.000,376.000=316.000,378.000=328.000,380.000=338.000,382.000=352.000,384.000=368.000,386.000=384.000,388.000=800.000,404.000=400.000,460.000=200.000,462.000=400.000,530.000=800.000,562.000=750.000,566.000=700.000,570.000=650.000,574.000=600.000,578.000=550.000,582.000=500.000,586.000=450.000,590.000=400.000,592.000=350.000,594.000=300.000,596.000=250.000,598.000=200.000,599.000=150.000,600.000=100.000,600.500=800.000;
#STOPS:304.500=0.080
,307.000=0.075
,311.000=0.075
,314.250=0.060
,319.625=0.206
,320.250=0.112
,323.000=0.100
;
#BGCHANGES:32.000=z_00_bg_ch=1.000=0=0=1,
56.000=fz2_00.AVI=2.000=0=0=1,
60.000=fz3_00.AVI=2.000=0=0=1,
64.000=z_1_00.AVI=1.000=0=0=1,
80.000=z_2_00.AVI=1.000=1=0=1,
144.000=sz3_00.AVI=1.000=1=0=1,
208.000=last_z00.AVI=0.100=0=0=1,
240.000=z_2_00.AVI=2.000=0=0=1,
304.000=last_z00.AVI=2.000=0=1=1,
305.750=last_z00.AVI=2.000=0=1=1,
307.500=last_z00.AVI=2.000=0=1=1,
309.625=last_z00.AVI=2.000=0=1=1,
311.500=last_z00.AVI=2.000=0=1=1,
313.750=last_z00.AVI=2.000=0=1=1,
315.500=last_z00.AVI=2.000=0=1=1,
318.625=last_z00.AVI=2.000=0=1=1,
320.375=fz_00.AVI=1.000=1=0=1,
324.000=fz2_00.AVI=0.100=1=0=1,
340.000=fz3_00.AVI=0.200=1=0=1,
348.000=fz2_00.AVI=0.400=1=0=1,
356.000=fz3_00.AVI=0.600=1=0=1,
364.000=fz2_00.AVI=0.800=1=0=1,
372.000=fz3_00.AVI=1.000=0=0=1,
380.000=fz2_00.AVI=1.400=0=0=1,
384.000=fz3_00.AVI=1.800=0=0=1,
388.000=z_1_00.AVI=1.000=0=0=1,
404.000=z_2_00.AVI=1.000=0=0=1,
460.000=fz_00.AVI=2.000=0=0=1,
462.000=sz3_00.AVI=2.000=0=0=1,
466.000=sz3_00_ch=2.000=0=0=1,
498.000=fz3_00_ch=2.000=0=0=1,
522.000=zzzzz.png=1.000=0=0=1,
522.250=fz3_00_ch=1.000=0=0=1,
522.500=zzzzz.png=1.000=0=0=1,
522.750=fz3_00_ch=1.000=0=0=1,
523.000=zzzzz.png=1.000=0=0=1,
523.250=fz3_00_ch=1.000=0=0=1,
523.500=zzzzz.png=1.000=0=0=1,
523.750=fz3_00_ch=1.000=0=0=1,
524.000=zzzzz.png=1.000=0=0=1,
524.250=fz3_00_ch=1.000=0=0=1,
524.500=zzzzz.png=1.000=0=0=1,
524.750=fz3_00_ch=1.000=0=0=1,
525.000=zzzzz.png=1.000=0=0=1,
525.250=fz3_00_ch=1.000=0=0=1,
525.500=zzzzz.png=1.000=0=0=1,
525.750=fz3_00_ch=1.000=0=0=1,
526.000=zzzzz.png=1.000=0=0=1,
526.250=fz3_00_ch=1.000=0=0=1,
526.500=zzzzz.png=1.000=0=0=1,
526.750=fz3_00_ch=1.000=0=0=1,
527.000=zzzzz.png=1.000=0=0=1,
527.250=fz2_00.AVI=1.000=0=0=1,
527.500=zzzzz.png=1.000=0=0=1,
527.750=fz2_00.AVI=1.000=0=0=1,
528.000=zzzzz.png=1.000=0=0=1,
528.250=z_1_00.AVI=1.000=0=0=1,
528.500=zzzzz.png=1.000=0=0=1,
528.750=z_1_00.AVI=1.000=0=0=1,
529.000=zzzzz.png=1.000=0=0=1,
529.250=z_2_00.AVI=1.000=0=0=1,
529.500=zzzzz.png=1.000=0=0=1,
529.750=z_2_00.AVI=1.000=0=0=1,
530.000=z_1_00.AVI=1.000=0=0=1,
544.000=../flash_black.png=1.000=1=0=1,
590.000=zzzzz.png=1.000=1=0=1,
603.000=zzzzz_bg_ch=1.000=0=0=1,
620.000=z_00_bg.png=1.000=1=0=1,
99999=-nosongbg-=1.000=0=0=0 // don't automatically add -songbackground-
;

//---------------dance-single - ----------------
#NOTES:
     dance-single:
     :
     Easy:
     9:
     0.697,1.000,0.430,0.248,0.025: // measure 1
2002
0000
0000
0000
,  // measure 2
0000
0000
3003
0000
,  // measure 3
0010
0100
0001
1000
,  // measure 4
0100
0010
0100
0000
,  // measure 5
0220
0000
0000
0000
,  // measure 6
0000
0000
0330
0000
,  // measure 7
0001
1000
0010
0100
,  // measure 8
0001
1000
0100
0010
,  // measure 9
0220
0000
0000
0000
,  // measure 10
0000
0000
0330
0000
,  // measure 11
1000
0010
0100
0001
,  // measure 12
0010
0100
1000
0001
,  // measure 13
2002
0000
0000
0000
,  // measure 14
0000
0000
3003
0000
,  // measure 15
0010
0100
0010
0100
,  // measure 16
0010
0100
0010
0100
,  // measure 17
2002
0000
0000
0000
,  // measure 18
0000
0000
0000
0000
,  // measure 19
0000
0000
0000
0000
,  // measure 20
0000
0000
0000
3003
,  // measure 21
0010
1000
0100
0010
,  // measure 22
0100
1000
0010
0001
,  // measure 23
0010
0100
0001
0010
,  // measure 24
1000
0010
1000
0010
,  // measure 25
0100
1000
0010
0100
,  // measure 26
0001
0100
0001
0100
,  // measure 27
0010
1000
0100
0010
,  // measure 28
1000
0010
1000
0010
,  // measure 29
0100
1000
0001
1000
,  // measure 30
0100
1000
0010
1000
,  // measure 31
0001
0100
0001
1000
,  // measure 32
0001
0010
0001
0010
,  // measure 33
0001
1000
0010
0100
,  // measure 34
0001
0010
0100
1000
,  // measure 35
0010
0010
0100
0100
,  // measure 36
0010
0100
0110
0110
,  // measure 37
1000
0001
0010
0100
,  // measure 38
1000
0010
0100
0001
,  // measure 39
1001
0001
0100
0010
,  // measure 40
1000
0100
0010
0000
,  // measure 41
1001
0100
0010
0001
,  // measure 42
1000
0010
0100
0001
,  // measure 43
1001
1000
0010
0100
,  // measure 44
0001
1000
0100
0000
,  // measure 45
0110
0010
0100
0000
,  // measure 46
0110
0010
0100
0000
,  // measure 47
0110
0100
0010
0100
,  // measure 48
0010
0100
0010
0100
,  // measure 49
1000
0001
0100
0010
,  // measure 50
0100
0001
0010
1000
,  // measure 51
0010
0001
0100
0010
,  // measure 52
1000
0001
1000
0010
,  // measure 53
0100
0100
0100
0100
,  // measure 54
0100
0010
0100
0001
0010
0100
1000
0000
,  // measure 55
0001
0001
0001
0001
,  // measure 56
1000
0100
0010
0001
1000
0010
0100
0000
,  // measure 57
0110
1000
0001
0000
0110
0001
1000
0000
,  // measure 58
0110
1000
0001
0000
0110
0001
1000
0000
,  // measure 59
0110
1000
0001
0000
0110
0001
1000
0000
,  // measure 60
0001
1000
0001
1000
0010
0010
0010
0010
,  // measure 61
1000
0100
0010
0001
,  // measure 62
1000
0100
0010
0001
,  // measure 63
0001
0010
0100
1000
,  // measure 64
0001
0010
0100
1000
,  // measure 65
1000
0100
0010
0001
,  // measure 66
1000
0100
0010
0001
,  // measure 67
0001
0010
0100
1000
,  // measure 68
0001
0010
0100
1000
,  // measure 69
1100
0100
0010
0001
,  // measure 70
0011
0010
0100
1000
,  // measure 71
1100
0100
0010
0001
,  // measure 72
0011
0010
0100
1000
,  // measure 73
1001
0000
0000
0110
0000
0000
1001
0000
,  // measure 74
1000
0001
1000
0001
,  // measure 75
0010
0100
0010
0100
,  // measure 76
0010
0100
0010
0100
0010
0100
0010
0100
,  // measure 77
0020
0000
0000
0000
0030
0000
0000
2002
0000
0000
0000
0000
3003
0000
0200
0000
,  // measure 78
0000
0000
0000
0000
0300
0000
0000
0000
0000
0000
0000
0000
0000
1001
0000
0000
0000
0000
0000
0000
0000
0000
1001
0000
0000
0000
0000
0000
0020
0000
0000
0000
,  // measure 79
0000
0000
0030
0000
0000
0000
0000
2002
0000
0000
0000
3003
0000
0000
0200
0000
,  // measure 80
0000
0000
0000
0000
0300
0000
0000
0000
0000
0000
0000
0000
0000
0000
0000
0000
0000
0000
0000
0000
0000
0200
0000
0000
0000
0000
0000
0000
0000
0300
0000
0000
,  // measure 81
0000
0000
0000
2002
0000
0000
0000
0000
0000
0000
0000
0000
0000
0000
0000
0000
0000
0000
0000
0000
0000
0000
0000
0000
0003
0000
0000
0000
0000
0000
0000
0000
,  // measure 82
3010
0020
0100
0230
,  // measure 83
0001
0302
1000
1003
,  // measure 84
0210
0010
0310
0000
0120
0100
0130
0000
,  // measure 85
0010
0001
0100
0000
0010
1000
0100
0000
,  // measure 86
0010
0001
0100
1000
0010
0001
0100
1000
,  // measure 87
0001
0010
0100
1000
0001
0010
0100
1000
,  // measure 88
1000
0100
1000
0100
0010
0001
0010
0001
,  // measure 89
1000
0100
1000
0100
0010
0001
0010
0001
,  // measure 90
0100
0010
0100
0010
1001
0000
1001
0000
,  // measure 91
0010
0100
0010
0100
1001
0000
1001
0000
,  // measure 92
0011
0100
1000
0000
0011
0100
1000
0000
,  // measure 93
1010
0100
0001
0000
1010
0100
0001
0000
,  // measure 94
0010
0100
0010
0100
0001
1000
0001
0000
,  // measure 95
0010
0100
0010
0100
1000
0001
1000
0000
,  // measure 96
0010
0010
0010
0010
,  // measure 97
0010
0100
0010
0100
0010
0100
0010
0000
,  // measure 98
2002
0000
0000
0000
,  // measure 99
0000
0000
0000
0000
,  // measure 100
0000
0000
0000
0000
,  // measure 101
0000
0000
0000
3003
,  // measure 102
0110
0001
1000
0000
,  // measure 103
0010
1000
0100
0010
,  // measure 104
0100
1000
0001
0100
,  // measure 105
0010
0010
0100
0000
,  // measure 106
1001
0100
0010
0000
,  // measure 107
0110
0001
1000
0010
,  // measure 108
0100
0001
0010
0100
,  // measure 109
1000
0100
0001
0100
,  // measure 110
1000
0001
1000
0000
,  // measure 111
0010
0100
0010
0000
,  // measure 112
0001
0100
0010
1000
,  // measure 113
0100
0010
0100
1000
,  // measure 114
0010
0001
1000
0000
,  // measure 115
0010
0100
0001
1000
,  // measure 116
0110
0000
0100
0100
,  // measure 117
0100
0100
1001
0010
,  // measure 118
0001
0010
1000
0100
,  // measure 119
0010
1000
0010
0001
,  // measure 120
1000
0010
0001
0010
,  // measure 121
0001
1000
0100
0001
,  // measure 122
0100
1000
0100
0001
,  // measure 123
0010
0100
1000
0100
,  // measure 124
0001
1000
0010
1000
,  // measure 125
0010
0001
0110
0100
,  // measure 126
1000
0000
0110
0001
,  // measure 127
0010
0000
1001
0001
,  // measure 128
0010
0000
1001
1000
,  // measure 129
0010
0000
0100
0010
,  // measure 130
0100
0001
0100
1000
,  // measure 131
0001
0010
0100
0010
,  // measure 132
0100
0000
0110
0000
0010
0100
0010
0100
,  // measure 133
0010
0100
0010
0100
0020
0000
0000
0000
,  // measure 134
0000
0000
0000
0000
,  // measure 135
0000
0000
0000
0000
,  // measure 136
0000
0000
0000
0000
,  // measure 137
0000
0000
0000
0000
,  // measure 138
0000
0000
0000
0000
,  // measure 139
0000
0000
0000
0000
,  // measure 140
0000
0000
0000
0000
,  // measure 141
0000
0000
0000
0000
,  // measure 142
0000
0000
0000
0000
,  // measure 143
0000
0000
0000
0000
,  // measure 144
0000
0000
0000
0000
,  // measure 145
0000
0000
0000
0000
,  // measure 146
0000
0000
0000
0000
,  // measure 147
0000
0000
0000
0000
,  // measure 148
0000
0000
0000
0000
,  // measure 149
0000
0000
0000
0000
,  // measure 150
0000
0000
0000
0000
,  // measure 151
0000
0030
0000
0000
0000
0000
0200
0000
,  // measure 152
0000
0000
0000
0000
,  // measure 153
0300
0000
0000
0000
;

//---------------dance-single - ----------------
#NOTES:
     dance-single:
     :
     Medium:
     11:
     0.749,1.000,0.273,0.182,0.045:
0001
0000
0000
1000
,
0000
0001
0000
1000
,
0010
0000
0000
0010
0000
0000
0010
0000
,
0100
0001
1000
0000
,
0100
0000
0000
0100
,
0000
0100
0000
0100
,
0010
0001
1000
0010
,
0100
0100
0100
0100
,
0010
1000
0001
0100
,
0000
1000
0001
0100
,
0010
0010
0100
0010
,
0010
0100
0001
1000
,
0100
0100
0010
0100
,
0100
0010
0100
0000
,
1000
0001
1000
0001
,
0010
0100
0010
0100
0010
0100
0010
0000
,
2002
0000
0000
0000
,
0000
0000
0000
0000
,
0000
0000
0000
0000
,
0000
0000
0000
3003
,
0010
1000
0010
1000
,
0010
0100
0001
0010
,
1000
0010
1000
0010
,
0100
1000
0001
0100
,
0010
0010
0100
0100
,
0010
1000
0100
0010
,
0001
0001
1000
1000
,
0010
0000
0100
0001
0100
0000
0010
0100
,
0010
1000
0002
0000
,
1003
0100
0010
0100
,
1000
0010
0002
0000
,
0013
0100
0001
1000
,
0100
0100
0010
0010
,
0100
1000
0002
0000
,
0103
0100
0010
0010
,
1000
0000
0001
1000
0001
1000
0001
0000
,
0100
0010
0120
0000
,
1030
0001
0200
0000
,
0310
0010
0120
0000
,
1030
0001
0200
0000
,
0301
1000
0100
0100
,
1000
0001
0200
0000
,
0310
0010
1000
0001
,
0010
0010
0100
0000
,
1001
1000
0200
0000
,
1300
0001
0100
0100
,
0010
0100
0002
0000
,
0013
0001
2000
0000
,
3100
0000
0110
0000
,
0010
0001
2000
0000
,
3010
0000
0110
0000
,
0100
0000
0010
0100
0010
0100
0010
0000
,
1002
1000
1000
1000
,
1000
0000
1000
0000
1003
0001
0020
0000
,
0100
0100
0100
0100
,
0130
0010
0100
0010
0001
1000
0010
0001
,
0010
0000
0010
0100
0001
0000
0001
0010
,
1000
0000
1000
0001
0100
0000
0100
0010
,
0001
0000
0001
1000
0100
0000
0100
1000
,
0010
0010
1000
1000
0101
1010
0011
1100
,
0001
1000
0100
0100
,
1000
0001
0100
0100
,
0010
1000
0001
0001
,
0010
0001
1000
1000
,
0010
0000
1000
0100
1000
0000
0100
0000
,
0010
0000
0001
0100
0001
0000
0100
0000
,
0010
0000
1000
0010
1000
0000
0010
0000
,
0100
0000
0001
0010
0001
0000
1000
0000
,
0110
0001
1000
0000
,
0110
0001
1000
0000
,
0110
1000
0001
0000
,
0110
1000
0001
0000
,
1010
0000
0000
0011
0000
0000
1100
0000
,
0001
0100
1000
0100
,
0001
0010
0001
0010
0100
1000
0100
0000
,
1000
0010
1000
0010
0100
0001
0100
0000
,
0001
0000
0000
0010
0000
0000
0000
0100
0000
0000
0000
0000
1000
0000
0010
0000
,
0000
0000
0000
0000
0001
0000
0000
0000
0000
0000
0000
0000
0000
0010
0000
0000
0000
0000
0000
0000
0000
0000
0110
0000
0000
0000
0000
0000
1001
0000
0000
0000
,
0000
0000
0000
0010
0000
0000
0000
0100
0000
0000
0100
0000
0000
0000
0001
0000
,
0000
0000
0000
0000
1000
0000
0000
0000
0000
0000
0000
0000
0000
0001
0000
0000
0000
0000
0000
0000
0000
0100
0000
0000
0000
0000
0000
0000
0000
1000
0000
0000
,
0000
0000
0200
0020
0000
0000
0000
0000
0000
0000
0000
0000
0000
0000
0000
0000
0000
0000
0000
0000
0000
0000
0000
0000
0300
0000
0000
0000
0000
0000
0000
0000
,
1030
1000
1000
1000
0001
0001
0001
0001
,
0010
0010
0010
0010
0100
0100
0100
0100
,
0010
0001
0100
1000
0010
0001
0100
1000
,
0100
0001
0010
1000
0100
0001
0010
1000
,
0110
1001
0110
0110
1001
1100
1001
0101
,
0010
0100
0010
0100
0001
1000
0001
1000
,
0010
0000
0110
0000
1000
0001
0010
0000
,
0100
0000
0110
0000
1000
0001
0100
0000
,
0010
1000
0010
0000
0100
0001
0100
0000
,
0001
0010
0001
0000
1000
0100
1000
0000
,
0001
1000
0100
0000
1000
0001
0100
0000
,
0001
1000
0010
0000
1000
0001
0010
0000
,
0001
0010
0001
0000
1000
0010
1000
0000
,
0001
0100
0001
0000
1000
0100
1000
0000
,
0001
0010
0001
0010
0100
1000
0100
1000
,
0010
1000
0010
1000
0001
0100
0001
0000
,
2002
0000
0000
0000
,
0000
0000
0000
0000
,
0000
0000
0000
0000
,
0000
0000
0000
3003
,
1000
0010
0100
0001
,
0010
0100
1000
0100
,
0010
0001
0100
0010
,
1000
0010
0001
0010
,
0100
0001
1000
1000
,
0001
0100
0010
0010
,
0100
0001
0010
0100
,
1000
0000
0001
0100
0001
0000
1000
0100
,
1000
0001
1000
1000
,
0010
0100
0001
0001
,
0010
0100
1000
0010
,
1000
0001
0010
0010
,
0001
1000
0001
1000
,
0001
1000
0001
1000
0001
1000
0001
1000
,
0001
0000
0000
0000
0010
0100
0010
0100
,
0010
0000
0000
0000
0010
1000
0010
0000
,
0100
0000
0010
0000
0001
0010
0001
0000
,
0010
0000
1000
0000
0010
0100
0001
0010
,
1000
0000
0010
0000
0100
1000
0001
0100
,
0010
0000
0100
0000
0001
1000
0100
1000
,
0010
0000
0100
0000
0010
0001
0010
0100
,
0001
0000
0010
0000
0001
1000
0100
1000
,
0010
0000
0100
0000
0001
1000
0100
0000
,
0010
0000
0010
0000
1000
0010
0001
0000
,
1100
0000
0000
0000
0001
0100
1000
0000
,
0101
0000
0000
0000
0001
1000
0010
0100
,
1000
0000
0000
0000
1000
0100
0001
0010
,
1000
0000
0000
0000
0010
0001
0100
0000
,
0010
1000
0100
0000
0001
0100
1000
0000
,
0001
0010
1000
0000
0010
1000
0010
1000
,
0001
0100
0001
0100
1000
0010
0100
1000
,
0100
0010
0001
0010
0200
0000
0000
0000
,
0000
0000
0000
0000
,
0000
0000
0000
0000
,
0000
0000
0000
0000
,
0000
0000
0000
0000
,
0000
0000
0000
0000
,
0000
0000
0000
0000
,
0000
0000
0000
0000
,
0000
0000
0000
0000
,
0000
0000
0000
0000
,
0000
0000
0000
0000
,
0000
0000
0000
0000
,
0000
0000
0000
0000
,
0000
0000
0000
0000
,
0000
0000
0000
0000
,
0000
0000
0000
0000
,
0000
0000
0000
0000
,
0000
0000
0000
0000
,
0000
0300
0000
0000
0000
0000
0020
0000
,
0000
0000
0000
0000
,
0030
0000
0000
0000
;

//---------------dance-single - ----------------
#NOTES:
     dance-single:
     :
     Hard:
     12:
     0.998,1.000,1.000,0.372,0.062:
1002
1000
1000
1000
,
1000
1000
1000
1003
,
0110
0000
0000
1001
0000
0000
0120
0000
,
1000
1000
1000
2030
,
0001
0001
0001
0001
,
0001
0001
0001
3001
,
1001
0000
0000
0110
0000
0000
2001
0000
,
0001
0001
0001
3001
,
1001
0100
0010
1001
,
0100
1010
0100
1001
,
0110
0000
0000
1001
0000
0000
0110
0000
,
0001
1000
0100
0010
,
1001
0100
1000
0101
,
1000
1010
0001
0101
,
1000
0001
1000
0001
,
0010
0100
0010
0100
0010
0100
0010
0100
,
0020
0000
0000
0000
,
0000
0000
0000
0000
,
0000
0000
0000
0000
,
0000
0000
0000
0030
,
1001
0100
1000
0010
,
0100
0001
1000
0010
,
0101
0001
1000
0100
,
0010
0001
1000
0100
,
1010
0100
0001
1000
,
0100
0010
0001
1000
,
1100
0010
0100
0001
,
1001
0000
0100
0010
0100
0000
0001
1000
,
0001
0100
0010
1000
,
0100
0010
0001
1000
,
1100
0010
0100
0001
,
0010
0100
1000
0010
,
0101
0001
1000
0010
,
0100
0001
0010
0100
,
1001
0100
0010
0001
,
1000
0000
0100
0010
0100
0010
0100
0010
,
0100
1000
0010
0100
,
0001
0010
0100
1000
,
0001
1000
0100
0010
,
0001
0100
0010
1000
,
0001
0001
1000
0100
,
0010
0010
0100
1000
,
0010
0001
1000
0100
,
0001
0010
0100
1000
,
0001
0001
1000
0100
,
0010
0010
0100
1000
,
0010
0010
0100
0001
,
0010
0010
0001
1000
,
0010
1000
0001
0100
,
0001
0010
1000
0010
,
0001
0100
1000
0001
,
0010
0000
1000
0001
0100
0010
1000
0001
,
0100
0100
0010
0010
0100
0100
0010
0010
,
0100
0001
0010
0100
1000
0010
0100
0001
,
0010
0010
0100
0100
0010
0010
0100
0100
,
0010
0100
1000
0010
0100
0001
0010
0100
,
0011
0010
0100
0100
1010
0010
0100
0100
,
0101
0010
0100
0001
1010
0100
1000
0010
,
0101
0100
0010
0010
1100
0100
0100
0010
,
1001
0000
0110
0000
1001
0000
0110
0000
1000
0100
0001
0010
0100
1000
0001
0010
,
1001
0010
1000
0100
,
1001
0100
0010
0001
,
0110
0001
1000
0100
,
0110
0001
1000
0100
,
0011
0100
1000
0001
,
1100
0001
0100
0001
,
1010
0001
0100
1000
,
0101
0000
0001
0000
0100
0000
0010
0100
,
0110
0000
0100
0000
0001
0000
1000
0100
,
1100
0000
0001
0000
0100
0000
0001
0010
,
0011
0000
0100
0000
1000
0000
0001
1000
,
1001
0010
0100
0010
,
1001
0000
0000
0110
0000
0000
1001
0000
,
1000
0100
0010
1000
0100
0010
0001
1000
,
0001
0010
0100
1000
0001
0010
0100
1000
,
0001
0010
0100
1000
0001
0010
0100
1000
,
2020
0030
0000
0200
0000
3300
0000
0022
0000
0000
0030
0000
0203
0000
0020
0000
,
0330
0000
0000
0000
0000
0000
0000
0000
0022
0000
0000
0000
0000
0000
0000
0000
0000
0000
0033
0000
0000
0000
0000
0000
0000
0000
2020
0000
0000
0000
0000
0000
0000
0000
0000
0000
3030
0000
0000
0000
0000
0000
0000
0000
0220
0000
0000
0000
0000
0330
0000
0000
0000
0000
0000
0000
2002
0000
0000
0000
0000
0000
0000
0000
,
0000
0003
0000
0200
0000
3300
0000
0220
0030
0000
0020
0000
0330
0000
2200
0000
,
3300
0000
0000
0000
0022
0000
0000
0000
0000
0033
0000
0000
0000
2200
0000
0000
0000
3300
0000
0000
0000
2002
0000
0000
0000
3003
0000
0000
0000
0202
0000
0000
,
0300
0000
0000
0000
0020
0003
0200
0000
0000
0000
0000
0000
0000
0000
0000
0000
0000
0000
0000
0000
0000
0000
0000
0000
0000
0000
0000
0000
0000
0000
0000
0000
0000
0000
0000
0000
0000
0000
0000
0000
0000
0000
0000
0000
0000
0000
0000
0000
0000
0000
0000
0000
0000
0000
0000
0000
0000
0000
0000
0000
0000
0000
0030
0300
,
0210
0010
0010
0010
0010
0010
0010
0310
,
0120
0100
0100
0100
0100
0100
0100
0130
,
1010
1010
1010
1010
1010
1010
1010
1010
,
0101
0101
0101
0101
0101
0101
0101
0101
,
0011
0100
1100
0010
0011
0100
1100
0010
,
0011
0100
1100
0010
0011
0100
1100
0010
,
0101
0010
1100
0010
0101
0010
1100
0010
,
0101
0010
1100
0010
0101
0010
1100
0000
,
1010
0100
0011
0000
1010
0100
0011
0000
,
0011
0100
1010
0000
0011
0100
1010
0000
,
1001
1000
0100
0000
1001
0001
0100
0000
,
1001
1000
0010
0000
1001
0001
0010
0000
,
0100
1000
0100
1000
0001
0010
0001
0010
,
0100
1000
0100
1000
0001
0100
0010
0000
,
0010
0100
0010
0100
0010
0100
0010
0100
,
0001
1000
0001
1000
0001
1000
0001
1000
,
2002
0000
0000
0000
,
0000
0000
0000
0000
,
0000
0000
0000
0000
,
0000
0000
0000
3003
,
1001
0100
0010
0001
,
1000
0100
0010
0001
,
1010
0100
0001
0010
,
0100
1000
0001
0100
,
0011
0001
0100
0001
,
1100
1000
0100
1000
,
0010
0001
0010
1000
,
0110
0000
0001
0100
0001
0000
1000
0100
,
1100
0010
0100
0010
,
0001
1000
0100
0001
,
0010
0100
1000
0001
,
0010
0100
0001
1000
,
0010
0010
0100
0100
,
0010
0100
0010
0100
0010
0100
0010
0100
,
0020
0000
0000
0000
0031
1000
0001
1000
,
0200
0000
0000
0000
0310
0100
0010
0100
,
1000
0100
1000
0100
1000
0010
1000
0010
,
0100
0001
0100
0001
0010
0001
0010
0001
,
0010
0100
0010
0100
1000
0100
1000
0100
,
0001
0100
1000
0010
0100
0001
1000
0001
,
0100
0000
1001
0000
0100
0001
1000
0100
,
1000
0010
0110
0000
0001
1000
0010
0100
,
0010
0100
0010
0000
0010
0100
1000
0100
,
0001
0100
0010
0001
1000
0100
0001
1000
,
0100
0001
0100
1000
0001
0100
0010
1000
,
0001
0100
0010
0000
0011
0010
0100
0010
,
1000
0100
0001
0100
1000
0100
1000
0001
,
0010
0100
1100
0000
0010
0001
0010
1000
,
0010
0001
0010
0100
1000
0001
0010
0100
,
0010
0001
0100
0010
1010
0000
0101
0000
,
1000
0100
0010
1000
0010
0001
0100
1000
,
0100
0001
0010
0100
2002
0000
0000
0000
,
0000
0000
0000
0000
,
0000
0000
0000
0000
,
0000
0000
0000
0000
,
0000
0000
0000
0000
,
0000
0000
0000
0000
,
0000
0000
0000
0000
,
0000
0000
0000
0000
,
0000
0000
0000
0000
,
0000
0000
0000
0000
,
0000
0000
0000
0000
,
0000
0000
0000
0000
,
0000
0000
0000
0000
,
0000
0000
0000
0000
,
0000
0000
0000
0000
,
0000
0000
0000
0000
,
0000
0000
0000
0000
,
0000
0000
0000
0000
,
0000
0000
3003
0020
,
0000
0000
0000
0000
,
0030
0000
0000
0000
;

//---------------dance-single - ----------------
#NOTES:
     dance-single:
     :
     Challenge:
     13:
     1.000,1.000,1.000,0.819,0.393:
1010
0011
1100
0101
,
1010
0011
1100
0101
,
1001
0000
0000
0110
0000
0000
1001
0000
,
0110
0002
2003
3001
,
0101
1100
0011
1010
,
0101
1100
0011
1010
,
1001
0000
0000
1001
0000
0000
0110
0000
,
0110
2000
3002
1003
,
1001
0101
1100
0101
,
1010
0011
1010
0101
,
1010
0000
0000
0101
0000
0000
1010
0000
,
0011
1100
0101
1010
,
0011
1100
0011
1100
,
0101
1010
0011
1100
,
0101
0010
1000
0001
0100
0010
1000
0001
,
0100
0010
1000
0001
1000
0100
0010
0001
,
1001
0000
0020
0000
,
0200
0000
0000
0000
,
0000
0000
0000
0000
,
0000
0000
0000
0000
0000
0000
0000
0000
0000
0000
0000
0000
0000
0000
0000
0000
0000
0000
0000
0000
0000
0000
0000
0000
0000
0000
0000
0000
0000
0000
0000
0000
0000
0000
0000
0000
0000
0000
0000
0000
0000
0000
0000
0000
0000
0000
0000
0000
0000
0000
0000
0000
0000
0000
0000
0000
0000
0000
0000
0000
0000
0000
0000
0330
,
1001
0000
0010
0100
0010
0000
0002
0000
,
1003
0000
0001
0010
0001
0000
2000
0000
,
3010
0000
0100
0001
0100
0000
0020
0000
,
1030
0000
0001
1000
0100
0000
1000
0001
,
0100
0000
0010
0100
0010
0000
0200
0000
,
0301
0000
0010
1000
0010
0000
0002
0000
,
1003
0000
0010
0001
0010
0000
0200
0000
,
0301
0000
1000
0100
0010
0000
0001
0100
,
0010
2000
3010
0200
,
0301
1000
0100
0000
1000
0001
0100
0010
,
0200
0301
0020
0130
,
1000
0010
0001
0010
1000
0100
0001
0100
,
2000
3100
0020
0031
,
0001
0010
1000
0001
0100
1000
0010
0100
,
0002
0103
0020
1030
,
0001
1000
0001
1000
0010
0100
0010
0100
,
0010
1010
0100
1010
,
0002
0023
0230
1300
,
0101
1010
0101
1001
,
0100
0010
0001
0000
0010
0100
1000
0000
,
1001
1010
0110
0101
,
0001
1000
0100
1000
0001
0100
0001
0000
,
0011
1010
0011
1100
,
0001
1000
0100
1000
0010
0100
0001
0000
,
0012
0000
1003
0000
0001
0010
0100
0000
,
2100
0000
3001
0000
0100
0010
1000
0000
,
0102
0000
0013
0000
1000
0001
0010
0000
,
2010
0000
3100
0000
0001
1000
0100
0000
,
0010
0001
0010
0001
1000
0100
1000
0000
,
1000
0010
1000
0010
0100
0001
0100
0000
,
0010
0001
0200
0000
0310
1000
0200
0000
,
0301
1000
0001
1000
0010
0100
0010
0100
,
2001
0000
0001
0000
0001
0001
0001
3001
,
1002
0000
1000
0000
1000
1000
1000
1003
,
0210
0000
0010
0000
0010
0001
0010
1300
,
0120
0000
0000
0000
0100
0000
0000
0000
0100
0000
0001
0000
1030
0000
1000
0100
,
0002
0000
0000
0000
0003
0000
0001
0100
2000
0000
0000
0000
3000
0000
1000
0100
,
0002
0000
0000
0000
0003
0000
0001
0100
2000
0000
0000
0000
3000
0000
0110
0000
,
2002
0000
3003
1001
0220
0000
0330
0100
,
1001
0000
0110
0000
1001
0000
0110
0000
0001
0100
0010
1000
0001
0100
0010
1000
,
0010
1000
0100
0001
0100
1000
0010
0001
,
1000
0100
1000
0100
0001
0010
2000
0000
,
3010
0100
1000
0010
0100
0001
2000
0000
,
3001
0100
0010
1000
0001
0010
0200
0000
,
0310
0001
1000
0010
0100
0001
2000
0000
,
3001
0100
0010
1000
0100
0010
0002
0000
,
0103
0010
1000
0001
1000
0100
0020
0000
,
0130
1000
0001
0100
0010
0100
0001
1000
,
2001
0000
3100
0010
0001
1000
0010
0100
,
0210
0000
0301
1000
0100
0010
0001
1000
,
2100
0000
3010
0001
1000
0010
0100
0001
,
0201
0000
0301
1000
0010
0100
0001
0010
,
0012
0000
1003
2010
0000
3001
0021
0000
,
0031
1000
0010
0100
0010
1000
0100
0001
,
0100
0010
1000
0010
0100
0001
0100
1000
,
0001
0010
0100
1000
0010
0100
1000
0000
,
0102
0000
0000
1000
0003
0100
0000
0002
0000
0000
0000
0000
1003
0000
0001
0000
,
0100
0000
0000
0000
2000
0000
0000
0000
0000
0000
0000
0000
0000
3001
0000
0000
0000
0000
0000
0000
0000
0000
2100
0000
0000
0000
0000
0000
3002
0000
0000
0000
,
0000
0103
0000
1000
0000
0100
0000
0002
0000
0000
1003
0000
0100
0000
0001
0000
,
0100
0000
0000
0000
2000
0000
0000
0000
0000
0000
0000
0000
0000
3010
0000
0000
0000
0100
0000
0000
0000
0001
0000
0000
0000
1000
0000
0000
0000
0001
0000
0000
,
0000
0000
1001
0220
0000
0000
0000
0000
0000
0000
0000
0000
0000
0000
0000
0000
0000
0000
0000
0000
0000
0000
0000
0000
0000
0000
0000
0000
0000
0000
0000
0300
,
0130
0100
0120
0000
0130
0100
0210
0000
0310
0010
0210
0000
0310
0010
0120
0000
,
1030
0001
1000
0000
2100
0000
0000
0000
3001
1000
0001
0000
0102
0000
0000
0000
1003
0001
1000
0000
2010
0000
0000
0000
3001
1000
0001
0000
0011
0000
0000
0000
,
1001
0100
0110
1000
1001
0010
0110
1000
0011
0100
1010
0100
0011
0100
1010
0000
,
1001
0100
0110
0001
1001
0010
0110
1000
1001
1100
1001
0101
1001
1010
1001
0011
,
0120
0000
2030
0000
3001
0100
0010
1000
0100
0100
0100
0100
0010
0010
0010
0010
,
2001
0100
0000
3100
1002
0100
0000
0103
2001
0010
0000
3010
1002
0010
0000
0013
,
1000
0010
0100
0100
0001
0010
0200
0000
0301
1000
0010
0010
1000
0100
0002
0000
,
0103
1000
0001
0010
0100
1000
0010
0000
0010
1000
0001
0010
0100
1000
0010
0000
,
0010
0100
0001
0000
0010
0100
1000
0000
0001
1000
0100
0000
1000
0001
0100
0000
,
1000
0000
0001
0000
0010
0001
1000
0000
0010
1000
0100
0001
0100
1000
0010
0000
,
0010
0100
0010
0100
0010
0100
0010
0000
0100
0010
0100
0010
0100
0010
0100
0000
,
0001
0010
0001
0000
0010
0001
0010
0000
1000
0010
1000
0000
0010
1000
0010
0000
,
0001
0010
0100
1000
0001
0100
0010
1000
,
0001
0001
1000
1000
0010
0010
0100
0100
,
0010
1000
0100
0001
0100
1000
0010
0001
,
0010
0100
0010
0100
0001
0010
0100
1000
,
1001
0000
0020
0000
,
0200
0000
0000
0000
,
0000
0000
0000
0000
,
0000
0000
0000
0000
0000
0000
0000
0000
0000
0000
0000
0000
0000
0000
0000
0000
0000
0000
0000
0000
0000
0000
0000
0000
0000
0000
0000
0000
0000
0000
0000
0000
0000
0000
0000
0000
0000
0000
0000
0000
0000
0000
0000
0000
0000
0000
0000
0000
0000
0000
0000
0000
0000
0000
0000
0000
0000
0000
0000
0000
0000
0000
0000
0330
,
1001
0110
1001
0110
,
1010
0101
1100
0101
,
1010
1100
0011
0101
,
1100
0101
0011
1010
,
1001
0200
0310
1010
,
0200
0301
0110
1001
,
1100
1000
1100
1000
,
0101
0001
0101
0001
,
0110
0200
0320
0130
,
0110
0020
0230
0310
,
1002
1000
1000
1003
,
2001
0001
0001
3001
,
0110
1001
0110
1001
,
0110
0000
0001
0010
0100
1000
0010
0001
,
2000
0010
3200
0302
,
2003
0000
3001
0000
0010
0100
0010
0100
,
1000
0100
1000
0100
0001
0100
0001
0100
,
0010
0100
0010
0100
0010
0001
0010
0001
,
0010
0100
0010
0100
0010
1000
0010
1000
,
0010
0001
0100
1000
0100
0010
1000
0100
,
0010
0001
0100
0010
0100
0001
0010
0100
,
1000
0010
0001
0010
1000
0100
0001
0100
,
1000
0010
0001
0010
0100
1000
0001
0010
,
0100
1000
0100
0001
2010
0001
3100
0000
,
0110
1000
0001
0000
1010
0100
0010
0000
,
0011
0100
0010
0000
1001
1000
0100
0000
,
1001
0001
0100
0000
1010
0100
0001
0000
,
0011
0100
1000
0000
1002
1000
0103
0001
,
1000
0010
0100
1000
0001
0100
0010
0001
,
0010
1000
0010
0001
0010
1000
0100
0001
,
0100
0010
0001
1000
2001
0100
3010
0100
,
1002
0010
0103
0010
0110
0000
0000
0000
,
0002
0000
2000
0000
,
0000
0000
0000
0000
,
0000
0000
0000
0000
,
0000
0000
0000
0000
,
0000
0000
0000
0000
,
0000
0000
0000
0000
,
0000
0000
0000
0000
,
0000
0000
0000
0000
,
0000
0000
0000
0000
,
0000
0000
0000
0000
,
0000
0000
0000
0000
,
0000
0000
0000
0000
,
0000
0000
0000
0000
,
0000
0000
0000
0000
,
0000
0000
0000
0000
,
0000
0000
0000
0000
,
0000
0000
0000
0000
,
0000
0000
0000
0000
0000
0000
0000
0000
0000
0000
0000
0000
0000
0000
0000
0000
0000
0000
0000
0000
0000
0000
0000
0000
0000
0000
0000
0000
0000
0000
0000
0000
0000
0000
0000
0000
0000
0000
0000
0000
0000
0000
0000
0000
0000
0000
0000
3003
0020
0000
0000
0000
0000
0000
0000
0000
0000
0000
0000
0000
0000
0000
0000
0000
,
0000
0000
0000
0000
,
0030
0000
0000
0000
;

//---------------dance-single - ----------------
#NOTES:
     dance-single:
     :
     Beginner:
     4:
     0.232,0.561,0.256,0.000,0.021:
1001
0000
0000
0000
,
0000
0000
0000
0000
,
0110
0000
0000
0000
,
0000
0000
0000
0000
,
1001
0000
0000
0000
,
0000
0000
0000
0000
,
0010
0000
0000
0000
,
0000
0000
0000
0000
,
1001
0000
0000
0000
,
0000
0000
0000
0000
,
0100
0000
0000
0000
,
0000
0000
0000
0000
,
1001
0000
0000
0000
,
0000
0000
0000
0000
,
0010
0000
0000
0000
,
0010
0000
0000
0000
,
0010
0000
0000
0000
,
0000
0000
0000
0000
,
0000
0000
0000
0000
,
0000
0000
0000
0000
,
0100
0000
0000
0000
,
0000
0000
0000
0000
,
0010
0000
0000
0000
,
0000
0000
0000
0000
,
0100
0000
0000
0000
,
0000
0000
0000
0000
,
0001
0000
0000
0000
,
1000
0000
1000
0000
,
0010
0000
0000
0000
,
0000
0000
0000
0000
,
0100
0000
0000
0000
,
0000
0000
0000
0000
,
0001
0000
0000
0000
,
0000
0000
0000
0000
,
0010
0000
0000
0000
,
0100
0000
0100
0000
,
1000
0000
0000
0000
,
0000
0000
0000
0000
,
0001
0000
0000
0000
,
0010
0000
0000
0000
,
0100
0000
0000
0000
,
0000
0000
0000
0000
,
1000
0000
0000
0000
,
0010
0000
0010
0000
,
0100
0000
0000
0000
,
0000
0000
0000
0000
,
0001
0000
0000
0000
,
1000
0000
0000
0000
,
0100
0000
0000
0000
,
0000
0000
0000
0000
,
0010
0000
0010
0000
,
0010
0000
0010
0000
,
0100
0000
0000
0000
,
1001
0000
0000
0000
,
0010
0000
0000
0000
,
1001
0000
0000
0000
,
0100
0000
0010
0000
,
0100
0000
0010
0000
,
0100
0000
0010
0000
,
0100
0000
0000
0000
,
1001
0000
0000
0000
,
0100
0000
0000
0000
,
1001
0000
0000
0000
,
0100
0000
0000
0000
,
1001
0000
0000
0000
,
0100
0000
0000
0000
,
1001
0000
0000
0000
,
0100
0000
0000
0000
,
0010
0000
0000
0000
,
0110
0000
0000
0000
,
0010
0000
0000
0000
,
0110
0000
0000
0000
,
0010
0000
0000
0000
,
0010
0000
0000
0000
,
0100
0000
0000
0000
,
0100
0000
0000
0000
,
1001
0000
0000
0000
0000
0000
0000
1000
0000
0000
0000
0000
0000
0000
0001
0000
,
0000
0000
0000
0000
0000
0000
0000
0000
0000
0000
0000
0000
0000
1000
0000
0000
0000
0000
0000
0000
0000
0000
0000
0000
0000
0000
0000
0000
0001
0000
0000
0000
,
0000
0000
0000
0000
0000
0000
0000
1000
0000
0000
0000
0000
0000
0000
0001
0000
,
0000
0000
0000
0000
0000
0000
0000
0000
0000
0000
0000
0000
0000
0000
0000
0000
0000
0000
0000
0000
0000
1000
0000
0000
0000
0000
0000
0000
0000
0000
0000
0000
,
0000
0000
0000
1001
0000
0000
0000
0000
0000
0000
0000
0000
0000
0000
0000
0000
0000
0000
0000
0000
0000
0000
0000
0000
0000
0000
0000
0000
0000
0000
0000
0000
,
0100
0100
0100
0100
,
0001
0001
0001
0001
,
1000
1000
1000
1000
,
0100
0100
0100
0100
,
0010
0000
0100
0000
,
0010
0000
0100
0000
,
0001
0000
1000
0000
,
0010
0000
0100
0000
,
0001
0000
1000
0000
,
0100
0000
0010
0000
,
0001
0000
1000
0000
,
0010
0000
0100
0000
,
0001
0000
0001
0000
,
1000
0000
1000
0000
,
0010
0000
0100
0000
,
0010
0000
0100
0000
,
0110
0000
0000
0000
,
0000
0000
0000
0000
,
0000
0000
0000
0000
,
0000
0000
0000
0000
,
1001
0000
0000
0000
,
0010
0000
0000
0000
,
1001
0000
0100
0000
,
1000
0000
0001
0000
,
0110
0000
0000
0000
,
0001
0000
0000
0000
,
1001
0000
0100
0000
,
0001
0000
0010
0000
,
0110
0000
0000
0000
,
0001
0000
0000
0000
,
1000
0000
0010
0000
,
0100
0000
0001
0000
,
0110
0000
0000
0000
,
1001
0000
0000
0000
,
1000
0000
1000
0000
,
0000
0000
0001
0000
,
0000
0000
0110
0000
,
0000
0000
1000
0000
,
0000
0000
0110
0000
,
0000
0000
0001
0000
,
0000
0000
1000
0000
,
0000
0000
0100
0000
,
0010
0000
0001
0000
,
1000
0000
0110
0000
,
0000
0000
0110
0000
,
0000
0000
1001
0000
,
0000
0000
0110
0000
,
0000
0000
1001
0000
,
0100
0010
0100
0010
,
0100
0000
0010
0100
,
0010
0100
0010
0100
,
0010
0000
1001
0000
,
0000
0000
0000
0000
,
0000
0000
0000
0000
,
0000
0000
0000
0000
,
0000
0000
0000
0000
,
0000
0000
0000
0000
,
0000
0000
0000
0000
,
0000
0000
0000
0000
,
0000
0000
0000
0000
,
0000
0000
0000
0000
,
0000
0000
0000
0000
,
0000
0000
0000
0000
,
0000
0000
0000
0000
,
0000
0000
0000
0000
,
0000
0000
0000
0000
,
0000
0000
0000
0000
,
0000
0000
0000
0000
,
0000
0000
0000
0000
,
0000
0000
0000
0010
;

//---------------dance-double - ----------------
#NOTES:
     dance-double:
     :
     Easy:
     9:
     0.596,1.000,0.422,0.207,0.012:
00011000
00000000
00000000
00000000
,
00001000
00000000
00001000
00000000
,
01010000
00000000
00101000
00000000
,
00010100
00000000
00001010
00000000
,
00011000
00000000
00000000
00000000
,
00010000
00000000
00010000
00000000
,
00001010
00000000
00010100
00000000
,
00101000
00000000
01010000
00000000
,
00011000
00000000
00000000
00000000
,
00001000
00010000
00001000
00000000
,
01000000
00100000
00010000
00000000
,
00001000
00000100
00000010
00000000
,
00011000
00000000
00000000
00000000
,
00010000
00001000
00010000
00000000
,
00000010
00000100
00001000
00000000
,
00010000
00100000
01000000
00000000
,
00022000
00000000
00000000
00000000
,
00000000
00000000
00000000
00000000
,
00000000
00000000
00000000
00000000
,
00000000
00000000
00000000
00033000
,
00000010
00000000
00000001
00000000
,
00001000
00000010
00001000
00000001
,
00000010
00000000
00001000
00000000
,
00010000
00001000
00100000
00010000
,
10000000
00000000
01000000
00000000
,
10000000
00100000
01000000
00001000
,
00010000
00000000
00001000
00000000
,
00010000
00001000
00000000
00010000
,
00000100
00000000
00000010
00000000
,
00000001
00001000
00000001
00000100
,
00000010
00000000
00010000
00000000
,
00001000
00100000
00010000
01000000
,
00001000
00000000
00010000
00000000
,
01000000
10000000
00100000
00000000
,
10000000
01000000
10000000
01000000
,
00100000
00001000
00100000
00001000
,
00010000
00000000
00001000
00000000
,
00010000
00010000
00000100
00000000
,
00001000
00001000
00000001
00000000
,
00000001
00000001
00001000
00000000
,
00000001
00000000
00000100
00000000
,
00001000
00000000
00010000
00000000
,
01000000
00000000
01100000
00000000
,
00010000
10000000
00010000
00000000
,
10000000
00000000
01000000
00000000
,
10000000
10000000
00010000
00000000
,
01000000
01000000
00001000
00000000
,
00010000
00010000
00000100
00000000
,
00001000
00000000
00000001
00000000
,
00000100
00000000
00000001
00000000
,
00000010
00000001
00000010
00000001
,
00000010
00001000
00010000
00000000
,
00011000
00001000
00100000
00001000
,
00100000
00001000
00100000
00001000
,
00000100
00010000
00000100
00010000
,
00000100
00010000
00000100
00010000
,
01100000
00100000
01000000
00000000
00110000
00100000
00010000
00000000
,
00011000
00001000
00010000
00000000
00001100
00001000
00000100
00000000
,
00000110
00000010
00001001
00001000
,
00000001
00001000
00000001
00001000
00000010
00000100
00001000
00010000
,
00001000
00100000
00010000
00000000
,
01000000
00010000
01000000
00000000
,
00100000
10000000
01000000
00000000
,
00100000
00001000
00010000
00000000
,
00000100
00000010
00000001
00000000
,
00000010
00000100
00010000
00000000
,
00001000
00010000
00001000
00000000
,
01000000
00010000
01000000
00000000
,
11000000
00000000
00000000
00010000
,
00101000
00000000
00000000
00001000
,
00011000
00000000
00000000
00001000
,
00010100
00000000
00000000
00001000
,
00001001
00000000
00000000
00000110
00000000
00000000
00001001
00000000
,
00000001
00000100
00000001
00000100
,
00001000
00010000
00001000
00010000
,
00100000
00000000
01000000
00100000
01000000
00100000
01000000
00100000
,
20000000
00000000
00000000
00000000
30000000
00000000
00000000
02000000
00000000
00000000
00000000
03000000
00000000
00000000
00200000
00000000
,
00000000
00000000
00300000
00000000
00000000
00000000
00000000
00002000
00000000
00000000
00000000
00003000
00000000
00000000
00020000
00000000
,
00000000
00000000
00030000
00000000
00000000
00000000
00000000
00000020
00000000
00000000
00000000
00000030
00000000
00000000
00000200
00000000
,
00000000
00000300
00000000
00000000
00000000
00000002
00000000
00000003
,
00000000
00002002
00000000
00000000
00000000
00000000
00000000
00003003
,
00000010
00010000
00001000
01010000
00001000
00010000
01000000
10000000
,
00100000
10000000
00100000
01001000
00100000
00001000
00000100
00000001
,
00000101
00000100
00001000
00101000
00010000
00010000
01000000
01100000
,
10010000
00010000
00100000
01100000
00001000
00001000
00010000
00010100
,
00001000
00000100
00001000
00000100
00000001
00000100
00000001
00000100
,
00000010
00001000
00000010
00001000
00010000
00001000
00010000
00001000
,
00100000
00010000
01010000
00000000
00100000
10000000
11000000
00000000
,
10000000
01000000
01010000
00000000
01000000
00010000
00011000
00000000
,
00001000
00000100
00000010
00000000
00000100
00000001
00001000
00000000
,
00000001
00000010
00001000
00000000
00010000
00001000
00010000
00000000
,
00100000
00110000
00010000
01010000
,
10000000
11000000
00010000
01010000
,
20000000
01000000
32000000
00010000
,
03020000
00001000
00032000
00000100
,
00003200
00000302
00000023
00000230
,
00010300
00000000
00001000
00100000
00001000
00100000
00001000
00000000
,
20020000
00000000
00000000
00000000
,
00000000
00000000
00000000
00000000
,
00000000
00000000
00000000
00000000
,
00000000
00000000
00000000
30030000
,
01000000
00000000
10000000
00000000
,
00100000
10000000
00010000
01000000
,
00001000
00000000
00010000
00000000
,
00001000
00000100
00000010
00000100
,
00000001
00000000
00000010
00000000
,
00000001
00000010
00001000
00010000
,
00001000
00000000
00100000
00000000
,
00001000
00010000
00000000
00001000
,
01000000
00000000
00100000
00000000
,
01000000
00010000
00100000
01000000
,
10000000
00000000
00100000
00000000
,
00010000
00100000
00010000
00001000
,
00000100
00000000
00000010
00000000
,
00001000
00000100
00000010
00001000
,
00011000
00000000
00001000
00010000
,
00001000
00010000
01000000
10000000
,
01000000
10000000
00100000
01000000
,
00010000
00100000
00001000
00100000
,
00010000
00100000
00001000
00010000
,
00000100
00001000
00000010
00000100
,
00000001
00001000
00000010
00000100
,
00001000
00000100
00001000
00010000
,
00001000
00100000
00001000
00010000
,
00001000
00000000
00110000
00010000
,
00100000
00000000
11000000
10000000
,
00100000
00000000
00110000
00010000
,
00001000
00000000
00001100
00000100
,
00000010
00000000
00000200
00000000
,
00000001
00000000
00001000
00000000
,
00000301
00000000
00000001
00000010
,
00000100
00000000
00010000
00000000
00001000
00000000
00100000
01000000
,
00100000
01000000
00100000
01000000
00200000
00000000
00000000
00000000
,
00000000
00000000
00000000
00000000
,
00000000
00000000
00000000
00000000
,
00000000
00000000
00000000
00000000
,
00000000
00000000
00000000
00000000
,
00000000
00000000
00000000
00000000
,
00000000
00000000
00000000
00000000
,
00000000
00000000
00000000
00000000
,
00000000
00000000
00000000
00000000
,
00000000
00000000
00000000
00000000
,
00000000
00000000
00000000
00000000
,
00000000
00000000
00000000
00000000
,
00000000
00000000
00000000
00000000
,
00000000
00000000
00000000
00000000
,
00000000
00000000
00000000
00000000
,
00000000
00000000
00000000
00000000
,
00000000
00000000
00000000
00000000
,
00000000
00000000
00000000
00000000
,
00000000
00300000
00000000
00000000
00000000
00000000
00020000
00000000
,
00000000
00000000
00000000
00000000
,
00030000
00000000
00000000
00000000
;

//---------------dance-double - ----------------
#NOTES:
     dance-double:
     :
     Medium:
     10:
     0.762,1.000,0.207,0.207,0.107:
00011000
00000000
00000000
00001000
,
00000000
00010000
01000000
10000000
,
00100000
00000000
00000000
00100000
00000000
00000000
00100000
00000000
,
00000000
00010000
00000000
00000000
00001000
00000000
00000100
00000000
,
00000001
00000000
00000000
00000010
,
00000000
00000001
00000010
00001000
,
00010000
00000000
00000000
00010000
00000000
00000000
00010000
00000000
,
00001000
00010000
00100000
01000000
,
10010000
00000000
00000000
01100000
,
00000000
00100000
10000000
00100000
,
10000000
10000000
01000000
01000000
,
00100000
00001000
00010000
00000100
,
00000010
00000000
00000000
00001001
,
00000000
00000100
00000001
00000100
,
00001000
00010000
00001000
00100000
,
00001000
00100000
00001000
00100000
00001000
00100000
00001000
00000000
,
00020000
00000000
00000000
00000000
,
00000000
00000000
00000000
00000000
,
00000000
00000000
00000000
00000000
,
00000000
00000000
00000000
00030000
,
10000000
00100000
10000000
00100000
,
01000000
00010000
01000000
00010000
,
00100000
00001000
00100000
00001000
,
00010000
00000100
00010000
00000000
,
00000010
00001000
00000010
00001000
,
00000100
00010000
00000100
00010000
,
00001000
01000000
00001000
01000000
,
00100000
10000000
00100000
00000000
,
10000000
01000000
00100000
01000000
,
10000000
01000000
00100000
00001000
,
00010000
00000100
00000010
00000001
,
00000010
00000100
00001000
00000100
,
00001000
00000100
00010000
00001000
,
01000000
00100000
10000000
00100000
,
01000000
00100000
01000000
00100000
,
10000000
00000000
00010000
10000000
00000000
00010000
10000000
00000000
,
00100000
00000000
10000000
00000000
,
01000000
00010000
00001000
00000010
,
00000001
00000000
00000100
00000000
,
00000001
00000100
00001000
00010000
,
01000000
00000000
00100000
00000000
,
10000000
01000000
00100000
00001000
,
00010000
00010000
00001000
00001000
,
00010000
00000000
00000010
00001000
00000000
00000010
00001000
00000000
,
00000001
00000000
00001000
00000000
,
00000010
00010000
00001000
01000000
,
00010000
00000000
00100000
00000000
,
00010000
00100000
00001000
00010000
,
00000100
00000000
00000010
00000000
,
00000001
00000100
00001000
00010000
,
01000000
10000000
01000000
10000000
,
00100000
01000000
00100000
01000000
00100000
01000000
00100000
00000000
,
10000000
00010000
00100000
00000000
00010000
01000000
00010000
00000000
,
00100000
00001000
00000010
00000000
00000001
00000100
00000001
00000000
,
00000010
00001000
00010000
00000000
00001000
00010000
00001000
00000000
,
00000010
00001000
00100000
00000000
00010000
01000000
00010000
00000000
,
20000000
00100000
00100000
30000000
00020000
01000000
01000000
00030000
,
00200000
00001000
00001000
00300000
00002000
00010000
00010000
00003000
,
00020000
00000010
00000010
00030010
00000200
00001000
00001000
00001300
,
00000001
00000000
00001000
00000000
00000001
00000000
00001000
00000000
00000100
00000010
00000100
00000010
00000100
00000010
00000100
00000000
,
00000010
00000001
00000010
00000001
,
00001000
00000010
00001000
00000010
,
00000100
00001000
00000100
00001000
,
00010000
00001000
00010000
00000000
,
01000000
10000000
01000000
10000000
,
00100000
01000000
00100000
01000000
,
00100000
00010000
00100000
00010000
,
00001000
00010000
00001000
00000000
,
00011000
00001000
00010000
00000000
,
01010000
01000000
10000000
00000000
,
10100000
00100000
01000000
00000000
,
01001000
01000000
00001000
00000000
,
00011000
00000000
00000000
00011000
00000000
00000000
00011000
00000000
,
00001000
00000000
00000100
00000000
00000001
00000100
00000001
00000100
,
00000001
00000010
00000001
00000010
,
00000100
00001000
00000100
00001000
00000100
00001000
00000100
00000000
,
00020000
00000000
00000000
00000000
00000000
00000000
00000000
00032000
00000000
00000000
00000000
00000000
00000000
00000000
00003020
00000000
,
00000000
00000000
00000000
00000000
00000032
00000000
00000000
00000000
00000000
00000000
00000000
00000000
00000000
00000200
00000003
00000000
00000000
00000000
00000000
00000000
00000000
00000000
00001300
00000000
00000000
00000000
00000000
00000000
00022000
00000000
00000000
00000000
,
00000000
00000000
00000000
00000000
00003000
00000000
00000000
00230000
00000000
00000000
00000000
00000000
00000000
00000000
10300000
00000000
,
00000000
00000000
00000000
00000000
22000000
00000000
00000000
00000000
00000000
00000000
30000000
00000000
00000000
03200000
00000000
00000000
00000000
00000000
00000000
00000000
00000000
00302000
00000000
00000000
00000000
00000000
00000000
00000000
00000000
00013000
00000000
00000000
,
00000000
00000020
00002000
00000000
00000000
00000000
00000000
00000000
00000000
00000000
00000000
00000000
00000000
00000000
00003030
00000000
,
00000001
00000000
00001000
00000000
00010000
00000000
10000000
00000000
00100000
10000000
01000000
00010000
00100000
10000000
01010000
00000000
,
10000000
00000000
00010000
00000000
00001000
00000000
00000001
00000000
00000010
00000001
00000100
00001000
00000010
00000100
00011000
00000000
,
00010000
00000000
00110000
00000000
00100000
01000000
01100000
00000000
10000000
00010000
00100000
00001000
00000010
00000001
00000100
00000000
,
00000001
00000100
00001001
00000000
00001000
00000100
00001100
00000000
00000001
00000100
00000010
00010000
00100000
10000000
01000000
00000000
,
10000000
00100000
10000000
01000000
00010000
00001000
00000010
00000001
,
00000100
00000001
00000010
00001000
00010000
00100000
10000000
01000000
,
00010000
00001000
00000100
00000001
00000010
00001000
00010000
01000000
,
10000000
01000000
00010000
00001000
00000010
00000001
00000100
00001000
,
00010000
01000000
10000000
00100000
10000000
01000000
00100000
00001000
,
00010000
00000100
00000010
00000001
00000100
00000010
00010000
00001000
,
00100000
01000000
10000000
00100000
10000000
01000000
00010000
00001000
,
00000010
00000100
00001000
00000001
00000100
00000010
00010000
00001000
,
00100000
01000000
10000000
00010000
00100000
00001000
00010000
00000100
,
00001000
00000001
00000010
00000100
00010000
00001000
00100000
01000000
,
10000000
00100000
10000000
00100000
10000000
00100000
10000000
00100000
,
01000000
00010000
01000000
00010000
01000000
00010000
01000000
00000000
,
00200000
00000000
00000000
00000000
,
00000000
00000000
00000000
00000000
,
00000000
00000000
00000000
00000000
,
00000000
00000000
00000000
00300000
,
00001000
01000000
00001000
01000000
,
00010000
10000000
01000000
00100000
,
00001000
00010000
00001000
00010000
,
00000100
00000010
00000001
00000000
,
00000100
00000001
00000100
00000001
,
00000100
00001000
00010000
00001000
,
00100000
00010000
00100000
00010000
,
01000000
10000000
01000000
00000000
,
00010000
00100000
01000000
10000000
,
00100000
01000000
00010000
00100000
,
00001000
00010000
00001000
00010000
,
00000100
00000010
00000001
00000100
,
00000101
00000001
00001000
00000010
,
00001010
00001000
00000001
00000100
,
00001000
00000000
00010000
00001000
,
00010000
00000000
01000000
00000000
10000000
01000000
10000000
01000000
,
10000000
01000000
10000000
00000000
01000000
00000000
00100000
00000000
,
00001000
00000000
00010000
00000000
00001000
00010000
00001000
00010000
,
00001000
00010000
00001000
00000000
00000100
00000000
00000001
00000000
,
00001000
00000001
00001000
00000000
00000001
00000010
00000001
00000010
,
00000001
00000010
00000001
00000000
00000010
00000000
00000100
00000000
,
00010000
00000000
00001000
00000000
00100000
00010000
00100000
00010000
,
00100000
00010000
00100000
00000000
01000000
10000000
01000000
10000000
,
01000000
10000000
01000000
00000000
10000000
00000000
00010000
00000000
,
01000000
00100000
01100000
00010000
,
10000000
01000000
11000000
00100000
,
00001000
00010000
00011000
00000010
,
00001000
00000000
00000010
00000000
00001000
00000100
00001000
00000000
,
00000001
00000100
00000001
00000000
00000010
00000001
00000010
00000000
,
00000100
00010000
00000100
00000000
00010000
00000000
00001000
00000000
,
01000000
00000000
00100000
00000000
10000000
00010000
01000000
00010000
,
10000000
01000000
10000000
00000000
02200000
00000000
00000000
00000000
,
00000000
00000000
00000000
00000000
,
00000000
00000000
00000000
00000000
,
00000000
00000000
00000000
00000000
,
00000000
00000000
00000000
00000000
,
00000000
00000000
00000000
00000000
,
00000000
00000000
00000000
00000000
,
00000000
00000000
00000000
00000000
,
00000000
00000000
00000000
00000000
,
00000000
00000000
00000000
00000000
,
00000000
00000000
00000000
00000000
,
00000000
00000000
00000000
00000000
,
00000000
00000000
00000000
00000000
,
00000000
00000000
00000000
00000000
,
00000000
00000000
00000000
00000000
,
00000000
00000000
00000000
00000000
,
00000000
00000000
00000000
00000000
,
00000000
00000000
00000000
00000000
,
00000000
03300000
00000000
00000000
00000000
00000000
00002000
00000000
,
00000000
00000000
00000000
00000000
,
00003000
00000000
00000000
00000000
;

//---------------dance-double - ----------------
#NOTES:
     dance-double:
     :
     Hard:
     12:
     0.862,1.000,0.438,0.248,0.099:
00011000
00001000
00010000
00100000
,
00010000
00001000
00000100
00000001
,
00000110
00000000
00000000
00001001
00000000
00000000
00000110
00000000
,
00001000
00000100
00000010
00000001
,
00001001
00001000
00000010
00010000
,
00001000
00010000
01000000
10000000
,
10010000
00000000
00000000
01100000
00000000
00000000
10010000
00000000
,
00100000
00000000
00100000
00000000
00010000
10000000
00010000
00000000
,
11000000
00000000
00000000
10010000
,
00000000
11000000
01100000
00101000
,
00011000
00000000
00000000
00000110
00000000
00000000
00011000
00000000
,
00010000
00100000
00010000
00001000
,
00001100
00000000
00000000
00010100
,
00000000
00010010
00000110
00000101
,
00001000
00000001
00001000
00000001
,
00000010
00000000
00000001
00000100
00000010
00000100
00000010
00000100
,
00002000
00000000
00000000
00000000
,
00000000
00000000
00000000
00000000
,
00000000
00000000
00000000
00000000
,
00000000
00000000
00000000
00000000
00000000
00000000
00000000
00000000
00000000
00000000
00000000
00000000
00000000
00000000
00000000
00000000
00000000
00000000
00000000
00000000
00000000
00000000
00000000
00000000
00000000
00000000
00000000
00000000
00000000
00000000
00000000
00000000
00000000
00000000
00000000
00000000
00000000
00000000
00000000
00000000
00000000
00000000
00000000
00000000
00000000
00000000
00000000
00000000
00000000
00000000
00000000
00000000
00000000
00000000
00000000
00000000
00000000
00000000
00000000
00000000
00000000
00000000
00000000
00003000
,
00100000
01000000
10000000
01000000
,
00100000
00001000
00010000
00001000
,
00000100
00000010
00000100
00000001
,
00000010
00000100
00001000
00000010
,
00000100
00000001
00000100
00001000
,
00010000
01000000
00100000
00010000
,
00100000
01000000
10000000
00100000
,
01000000
00000000
00100000
00010000
00001000
00000000
00000010
00001000
,
00010000
00001000
00000100
00000010
,
00000100
00000000
00001000
00000000
00010000
01000000
10000000
00000000
,
01000000
00100000
00010000
00001000
,
00000100
00000010
00000001
00000100
,
00000010
00000001
00000010
00000100
,
00001000
00000000
00010000
00000000
00001000
00100000
00010000
00000000
,
01000000
00000000
00100000
01000000
00100000
01000000
00100000
00000000
,
10000000
00000000
01000000
00100000
00000000
01000000
00100000
00000000
,
00001000
00020000
00001000
00031000
,
00000100
00000001
00001000
00001000
,
00000002
00000100
00000103
00000010
,
00001000
00000100
00010000
00001000
,
00020000
01000000
01030000
10000000
,
00100000
00100000
10000000
00010000
,
10000000
00100000
20000000
01000000
,
31000000
00200000
00310000
02000000
,
13000000
00100000
00020000
00001000
,
00031000
00010000
00000200
00001000
,
00001300
00000002
00000010
00000013
,
00000100
00010000
00001000
00100000
,
00020000
01000000
01030000
00100000
,
02000000
00010000
03010000
00100000
,
00002000
00023000
00030200
00002300
,
00003001
00000000
00001000
00000010
00000100
00000001
00001000
00000010
,
00000100
00000010
00000010
00000100
01000000
01000000
00100000
01000000
,
00100000
00000100
00000100
00000010
00000100
00000100
00100000
00100000
,
00000010
00000100
00000100
01000000
00100000
00100000
01000000
00100000
,
00000100
00000010
00000010
01000000
01000000
00100000
00000010
00000100
,
00000202
00000000
00000000
00000000
00000000
00000000
00000000
00000000
00000000
00000000
00000000
00000000
00000000
00000000
00000000
00000000
00000000
00000000
00000000
00000000
00000000
00000000
00000000
00000000
00000000
00000000
00000000
00000000
00000000
00000000
00000000
00000300
00000020
00000000
00000000
00000000
00000000
00000000
00000000
00000000
00000000
00000000
00000000
00000000
00000000
00000000
00000000
00000000
00000000
00000000
00000000
00000000
00000000
00000000
00000000
00000000
00000000
00000000
00000000
00000000
00000000
00000000
00000000
00000003
,
00002000
00000000
00000000
00000000
00000000
00000000
00000000
00000000
00000000
00000000
00000000
00000000
00000000
00000000
00000000
00000000
00000000
00000000
00000000
00000000
00000000
00000000
00000000
00000000
00000000
00000000
00000000
00000000
00000000
00000000
00000000
00000030
00200000
00000000
00000000
00000000
00000000
00000000
00000000
00000000
00000000
00000000
00000000
00000000
00000000
00000000
00000000
00000000
00000000
00000000
00000000
00000000
00000000
00000000
00000000
00000000
00000000
00000000
00000000
00000000
00000000
00000000
00000000
00300000
,
02000000
00000000
00000000
00000000
00000000
00000000
00000000
00000000
00000000
00000000
00000000
00000000
00000000
00000000
00000000
00003000
00200000
00000000
00000000
00000000
00000000
00000000
00000000
00000000
00000000
00000000
00000000
00000000
00000000
00000000
00000000
03000000
00020000
00000000
00000000
00000000
00000000
00000000
00000000
00000000
00000000
00000000
00000000
00000000
00000000
00000000
00000000
00030000
20000000
00000000
00000000
00000000
00000000
00000000
00000000
00000000
00000000
00000000
00000000
00000000
00000000
00000000
00000000
30300000
,
10020000
00000000
01000000
00000000
10000000
00000000
01030000
00000000
00100000
01000000
00010000
00100000
01000000
10000000
00100000
01000000
,
10010000
00100000
10000000
00010000
,
00100000
00001000
00000010
00000001
,
00000100
00000010
00000001
00000010
,
00010000
00001000
00100000
00001000
,
00100000
01000000
00010000
01000000
,
10000000
00100000
01000000
00010000
,
00001000
00000010
00000100
00000001
,
00000010
00000001
00001000
00000100
,
00000011
00001000
00000001
00000100
,
00010010
00001000
00010000
00100000
,
01001000
00010000
00100000
01000000
,
00101000
00010000
00100000
01000000
,
10010000
00000000
00000000
01100000
00000000
00000000
10010000
00000000
,
11000000
00000000
01010000
00000000
00110000
00010000
10000000
00010000
,
00100000
00001000
00010000
00000100
,
00000010
00000001
00000100
00000010
00001000
00000100
00000010
00000001
,
00001010
00000000
00000000
00000100
00000000
00000000
00000000
00010000
00000000
00000000
00000000
00000000
00001000
00000000
00110000
00000000
,
00000000
00000000
00000000
00000000
00101000
00000000
00000000
00000000
00000000
00000000
00000000
00000000
00000000
00011000
00000000
00000000
00000000
00000000
00000000
00000000
00000000
00000000
00010010
00000000
00000000
00000000
00000000
00000000
00011000
00000000
00000000
00000000
,
00000000
00000000
00000000
01010000
00000000
00000000
00000000
10000000
00000000
00000000
00100000
00000000
00000000
00000000
00010100
00000000
,
00000000
00000000
00000000
00000000
00001100
00000000
00000000
00000000
00000000
00000000
00000000
00000000
00000000
00000110
00000000
00000000
00000000
00000000
00000000
00000000
00000000
00001001
00000000
00000000
00000000
00000000
00000000
00000000
00000000
00000101
00000000
00000000
,
00000000
00000000
00000000
00000000
00000020
00000000
00000000
00000000
00020000
00000000
00000000
00000000
00000000
00000000
00000000
00000000
00000000
00000000
00000000
00000000
00000000
00000000
00000000
00000000
00000000
00000000
00000000
00000000
00000000
00000000
00000000
00000000
00000000
00000000
00000000
00000000
00000000
00000000
00000000
00000000
00000000
00000000
00000000
00000000
00000000
00000000
00000000
00000000
00000000
00000000
00000000
00000000
00000000
00000000
00000000
00000000
00000000
00000000
00000000
00000000
00000000
00000000
00000000
00030030
,
00001000
00000000
00010000
00000000
00001000
00000000
01000000
00000000
10000000
00100000
00010000
00100000
10000000
01000000
00010000
00000000
,
10000000
00000000
01000000
00000000
00100000
00000000
00001000
00000000
00000001
00000010
00001000
00000000
00000001
00000010
00000100
00000000
,
00010000
00000000
00001000
00000000
00000001
00000000
00001000
00000000
00010000
00000000
10000000
00000000
00010000
00001000
00010000
00000000
,
00001000
00000100
00000001
00000010
00000100
00000000
00001000
00000000
00000001
00000010
00010000
00000000
00001000
00100000
10000000
00000000
,
00100000
10000000
01000000
01000000
10000000
00100000
00010000
00010000
,
00001000
00001000
00000100
00000001
00001000
00001000
00000001
00000001
,
00000010
00010000
00100000
00100000
00001000
00010000
00001000
00001000
,
01000000
01000000
01000000
00010000
10000000
00100000
00100000
00010000
,
00001000
00001000
00010000
00000100
00000010
00000010
00001000
01000000
,
00100000
10000000
10000000
00100000
00000100
00000100
00000001
00001000
,
00000100
00000100
00000010
00001000
00100000
00100000
00001000
00010000
,
00010000
00000100
00000001
00000001
00000100
00010000
00001000
00001000
,
01000000
00100000
00100000
00010000
10000000
10000000
10000000
01000000
,
00001000
00010000
00010000
00000100
00000010
00000010
00000001
00000100
,
00000100
00001000
00010000
00010000
00100000
10000000
01000000
00100000
,
00010000
10000000
10000000
00100000
01000000
00010000
00100000
01000000
,
00020000
00000000
00000000
00000000
,
00000000
00000000
00000000
00000000
,
00000000
00000000
00000000
00000000
,
00000000
00000000
00000000
00000000
00000000
00000000
00000000
00000000
00000000
00000000
00000000
00000000
00000000
00000000
00000000
00000000
00000000
00000000
00000000
00000000
00000000
00000000
00000000
00000000
00000000
00000000
00000000
00000000
00000000
00000000
00000000
00000000
00000000
00000000
00000000
00000000
00000000
00000000
00000000
00000000
00000000
00000000
00000000
00000000
00000000
00000000
00000000
00000000
00000000
00000000
00000000
00000000
00000000
00000000
00000000
00000000
00000000
00000000
00000000
00000000
00000000
00000000
00000000
00030000
,
01000000
10000000
00100000
10000000
,
00100000
00010000
00001000
00010000
,
00000100
00000010
00000001
00000010
,
00000100
00001000
00010000
00100000
,
01000000
10000000
00100000
01000000
,
00010000
01000000
00100000
10000000
,
00100000
01000000
00010000
10000000
,
00100000
00000000
00010000
00001000
00000010
00000000
00001000
00010000
,
01000000
00010000
00001000
00000010
,
00000001
00000000
00000010
00000001
00000010
00000000
00000001
00000000
,
00000100
00000010
00001000
00010000
,
01000000
00000000
00100000
10000000
00100000
00000000
00010000
00000000
,
00001000
00000100
00000110
00000110
,
00000001
00000100
00000010
00010000
00001000
01000000
00010000
10000000
,
01000000
00000000
10000000
00010000
,
10000000
00000000
00010000
00000000
10000000
01000000
10000000
01000000
,
10000000
00100000
00010000
00000000
00001000
00010000
00001000
00000000
,
00000010
00000001
00000010
00000000
00000001
00000100
00000001
00000100
,
00000001
00000100
00001000
00000000
00010000
01000000
00010000
00000000
,
01000000
10000000
01000000
00000000
10000000
00100000
10000000
00100000
,
01000000
00001000
00010000
00000000
00000100
00000010
00000100
00000000
,
00001000
00000001
00001000
00000000
00000001
00000100
00000001
00000100
,
00000001
00000010
00001000
00000000
00010000
00000000
00000100
00000000
,
00000010
00000001
00001000
00000000
00001100
00000001
00000100
00000000
,
00000100
00000010
00000100
00000000
00011000
00010000
00001000
00000000
,
00001000
00010000
00001000
00000000
01010000
10000000
01000000
00000000
,
01000000
10000000
01000000
00000000
00101000
00010000
00100000
00000000
,
00100000
00010000
00100000
00000000
10000000
00000000
00100000
00000000
,
00001000
00010000
00001000
00000010
,
00010000
00000000
00000010
00000000
00000001
00000100
00000010
00001000
,
00000100
00000010
00000001
00000100
00000010
00010000
00001000
01000000
,
00010000
00100000
01000000
10000000
02000000
00000000
00000000
00000000
,
00000000
00000000
00000000
00000000
,
00000000
00000000
00000000
00000000
,
00000000
00000000
00000000
00000000
,
00000000
00000000
00000000
00000000
,
00000000
00000000
00000000
00000000
,
00000000
00000000
00000000
00000000
,
00000000
00000000
00000000
00000000
,
00000000
00000000
00000000
00000000
,
00000000
00000000
00000000
00000000
,
00000000
00000000
00000000
00000000
,
00000000
00000000
00000000
00000000
,
00000000
00000000
00000000
00000000
,
00000000
00000000
00000000
00000000
,
00000000
00000000
00000000
00000000
,
00000000
00000000
00000000
00000000
,
00000000
00000000
00000000
00000000
,
00000000
00000000
00000000
00000000
,
00000000
03000000
00000000
00000000
00000000
00000000
00001100
00000000
;

//---------------dance-double - ----------------
#NOTES:
     dance-double:
     :
     Challenge:
     13:
     1.000,1.000,1.000,0.248,0.248:
00001000
00010000
01000000
10000000
,
00010000
01000000
10000000
01000000
,
10100000
00000000
00000000
01001000
00000000
00000000
00011000
00000000
,
00000000
00010010
00000000
00000000
00001100
00000000
00000101
00000000
,
00001001
00000001
00000010
00001000
,
00010000
00100000
10000000
00010000
,
11000000
00000000
00000000
01010000
00000000
00000000
00011000
00000000
,
00001100
00000000
00011000
00000000
00001000
00000010
00000001
00000000
,
00001001
00000010
00000001
00000100
,
00001000
00101000
00011000
00101000
,
00011000
00000000
00000000
01100000
00000000
00000000
10010000
00000000
,
00100000
10000000
00100000
00010000
,
00011000
00000010
00000001
00000100
,
00000001
00000011
00001001
00000011
,
00001000
00000000
00000001
00000100
00000000
00000010
00010000
00000000
,
00001000
00100000
00001000
00010000
00000100
00000010
00000001
00000010
,
00002200
00000000
00000000
00000000
,
00000000
00000000
00000000
00000000
,
00000000
00000000
00000000
00000000
,
00000000
00000000
00000000
00000000
00000000
00000000
00000000
00000000
00000000
00000000
00000000
00000000
00000000
00000000
00000000
00000000
00000000
00000000
00000000
00000000
00000000
00000000
00000000
00000000
00000000
00000000
00000000
00000000
00000000
00000000
00000000
00000000
00000000
00000000
00000000
00000000
00000000
00000000
00000000
00000000
00000000
00000000
00000000
00000000
00000000
00000000
00000000
00000000
00000000
00000000
00000000
00000000
00000000
00000000
00000000
00000000
00000000
00000000
00000000
00000000
00000000
00000000
00000000
00003300
,
10100000
00010000
00100000
01000000
,
10000000
00100000
01000000
00001000
,
00010000
00000100
00000010
00000001
,
00001000
00001000
00000001
00001000
,
00000001
00000010
00001000
00010000
,
01000000
10000000
00010000
01000000
,
00100000
10000000
00010000
10000000
,
00100000
00000000
01000000
00001000
00000100
00000000
00000100
00001000
,
01000000
00010000
01000000
00100000
,
10000000
00010000
00100000
00001000
,
00010000
00001000
00000100
00000001
,
00001000
00001000
00000001
00000100
,
00000001
00000010
00000100
00001000
,
00010000
00100000
01000000
10000000
,
11000000
10010000
11000000
10010000
,
00100000
00010000
01000000
00100000
10000000
01000000
00010000
00001000
,
00000100
00000010
00000100
00000001
,
00000010
00000100
00010000
00001000
,
00010000
01000000
10000000
00010000
,
10000000
00010000
00010000
10000000
,
01000000
00010000
00001000
00000100
,
00000001
00000001
00001000
00000001
,
00000010
00001000
00000010
00000001
,
00001000
00000000
00000010
00010000
00100000
00000000
00100000
00010000
,
00000010
00010000
00001000
00010000
,
00100000
00100000
00010000
00010000
,
01000000
00100000
00010000
00001000
,
00010000
00001000
00010000
00001000
,
00000010
00000001
00000100
00000001
,
00000001
00001000
00010000
10000000
,
10100000
10010000
10100000
10010000
,
10000000
01000000
00100000
00001000
00010000
00000100
00000010
00000001
,
00000100
00000010
00000010
00001000
00000010
00001000
00000010
00000100
,
00001000
00010000
00100000
00010000
01000000
00010000
01000000
10000000
,
00010000
10000000
00100000
00100000
10000000
00100000
00010000
00100000
,
01000000
00100000
00010000
00010000
01000000
00001000
00000100
00010000
,
00020000
00000010
00000100
00030100
00001200
00000010
00000010
00001300
,
00000201
00000010
00000010
00001300
00012000
00010000
00010000
00013000
,
02010000
00100000
00100000
03010000
20100000
01000000
01000000
30010000
,
01100000
00000000
10010000
00000000
01100000
00000000
10010000
00000000
10000000
01000000
00100000
00010000
01000000
00100000
10000000
00010000
,
01100000
10000000
00100000
01000000
,
00010000
10000000
01000000
00010000
,
00001000
00000010
00001000
00010000
,
00001000
00001000
00010000
01000000
,
10000000
00100000
00010000
00001000
,
00010000
00001000
00000100
00000001
,
00001000
00001000
00000001
00001000
,
00000001
00000010
00001000
00010000
,
00101000
00010000
00101000
00000000
,
00010100
00001000
00010100
00000000
,
01001000
00100000
01001000
00000000
,
00010010
00000100
00010010
00000000
,
00011000
00000000
00000000
01100000
00000000
00000000
00000110
00000000
,
00010000
00001000
00000100
00000010
00001000
00000100
00010000
00001000
,
00100000
01000000
10000000
00100000
,
10000000
00100000
10000000
00100000
00010000
00001000
00000100
00000001
,
00000022
00000030
00000000
00000200
00000000
00000303
00000000
00020020
00000000
00000000
00000030
00000000
00032000
00000000
00200000
00303000
,
00000000
00000000
00000000
00000000
00020000
00000000
00200000
00000000
00000000
00000000
00330000
00000000
00000000
01000000
00000000
10000000
00000000
00000000
00000000
00000000
00000000
00000000
00100000
10000000
01000000
00000000
00000000
00000000
20020000
00000000
00000000
00000000
,
00000000
00030000
00000000
02000000
00000000
33000000
00000000
02200000
00300000
00000000
00200000
00000000
03300000
00000000
10000000
00000000
,
01000000
00000000
00000000
00000000
00000000
00000000
00000000
00000000
00100000
00010000
00000000
10000000
00000000
00000000
00000000
00000000
00000000
00000000
00000000
00100000
00000000
00000000
00000000
00000000
00000000
00000000
00010000
00000000
00000000
00000000
00000000
00000000
00000000
00000000
00001000
00000000
00000000
00000000
00000000
00000000
00000000
00000000
00010000
00000000
00000000
00000000
00000000
00000000
00000000
00000000
00000100
00000000
00000000
00000000
00000000
00000000
00000000
00000000
00000010
00000000
00000000
00000000
00000000
00000000
,
00000000
00000000
00000000
00000000
00000002
00000000
00000000
00000000
00000200
00000000
00000000
00000000
00000000
00000000
00000000
00000000
00000000
00000000
00000000
00000000
00000000
00000000
00000000
00000000
00000000
00000000
00000000
00000000
00000000
00000000
00000000
00000000
00000000
00000000
00000000
00000000
00000000
00000000
00000000
00000000
00000000
00000000
00000000
00000000
00000000
00000000
00000000
00000000
00000000
00000000
00000000
00000000
00000000
00000000
00000000
00000000
00000000
00000000
00000000
00000000
00000000
00000000
00000000
00000303
,
00110000
00001000
00010000
00001000
00010000
01000000
10000000
01000000
00100000
00010000
01000000
10000000
01000000
00010000
00100000
00100000
,
00001000
00010000
00000100
00000010
00000001
00000010
00001000
00000100
00000001
00000100
00001000
00000100
00000001
00000010
00001000
00000000
,
00011000
00010000
00011000
00001000
00101000
00010000
01010000
00100000
11000000
11000000
10010000
10010000
01010000
01100000
01010000
01100000
,
11000000
01000000
01100000
00100000
00101000
00001000
00011000
00010000
00011000
00010100
00011000
00010100
00001100
00001100
00000101
00000000
,
00001010
00000001
00001100
00000000
00101000
00010000
00101000
00000000
,
01100000
00010000
11000000
00000000
10010000
01000000
01010000
00000000
,
00101000
00010000
00110000
00000000
00010100
00000100
00010100
00000000
,
00001010
00000100
00001001
00000000
00010100
01000000
10100000
00000000
,
11000000
01000000
01001000
00000000
00011000
00000100
00000110
00000000
,
00001001
00001000
00110000
00000000
01001000
00100000
01100000
00000000
,
11000000
00100000
10010000
00000000
11000000
01000000
10010000
00000000
,
00101000
00001000
00011000
00000000
00010010
00001000
00010010
00000000
,
00001001
00000100
00000011
00000000
00011000
00001000
00011000
00000000
,
00110000
00100000
00110000
00000000
10100000
00010000
01010000
00000000
,
11000000
00100000
00101000
00000000
00010100
00001000
00011000
00000000
,
00001010
00000001
00000101
00000000
00011000
00010000
00011000
00000000
,
02020000
00000000
00000000
00000000
,
00000000
00000000
00000000
00000000
,
00000000
00000000
00000000
00000000
,
00000000
00000000
00000000
00000000
00000000
00000000
00000000
00000000
00000000
00000000
00000000
00000000
00000000
00000000
00000000
00000000
00000000
00000000
00000000
00000000
00000000
00000000
00000000
00000000
00000000
00000000
00000000
00000000
00000000
00000000
00000000
00000000
00000000
00000000
00000000
00000000
00000000
00000000
00000000
00000000
00000000
00000000
00000000
00000000
00000000
00000000
00000000
00000000
00000000
00000000
00000000
00000000
00000000
00000000
00000000
00000000
00000000
00000000
00000000
00000000
00000000
00000000
00000000
03030000
,
00101000
00001000
00010000
00000100
,
00000010
00000001
00000100
00000010
,
00000100
00001000
00000100
00010000
,
01000000
00010000
00100000
01000000
,
10000000
01000000
00100000
01000000
,
00001000
01000000
00010000
00000100
,
00000010
00000001
00000100
00000001
,
00001000
00000000
00000010
00010000
01000000
00000000
01000000
00010000
,
00000010
00001000
00000001
00000010
,
00000100
00001000
00010000
00100000
,
01000000
10000000
00010000
00100000
,
00010000
10000000
00100000
01000000
,
00010000
00001000
00000010
00000100
,
00000001
00000010
00000100
00001000
00000010
00000100
00001000
00010000
,
00100000
00000000
00000000
00000000
10000000
01000000
00100000
00010000
,
01000000
00100000
10000000
00010000
10000000
01000000
10000000
00100000
,
10000000
01000000
10000000
00100000
00010000
00001000
00010000
00001000
,
00010000
00001000
00010000
00000100
00001000
00000010
00000001
00000010
,
00001000
00000010
00000001
00000010
00000100
00000001
00000100
00000001
,
00000100
00000001
00000100
00000000
00000010
00001000
00000100
00001000
,
00000010
00001000
00000100
00010000
00001000
00100000
00001000
00100000
,
00001000
00100000
00001000
00010000
01000000
00010000
00001000
00010000
,
01000000
00010000
00001000
00100000
00010000
10000000
00010000
10000000
,
00010000
10000000
00010000
00000000
10100000
00010000
00100000
10000000
,
00100000
00010000
00100000
00000000
00101000
00010000
00001000
00000010
,
00001000
00010000
00001000
00000000
00010100
00000100
00001000
00000010
,
00001000
00000100
00001000
00000000
00000011
00000010
00000001
00000100
,
00001000
00000000
00000100
00000000
00000001
00000000
00000000
00000000
00001000
00000001
00000000
00000000
00000000
00000000
00000000
00000000
,
00001000
00010000
00000000
00000000
00000000
00000000
00000000
00000000
00010000
10000000
00000000
00000000
00000000
00000000
00000000
00000000
,
00001000
00010000
00000000
00000000
00000000
00000000
00000000
00000000
00001000
00100000
00000000
00000000
00010000
00001000
00000000
00000000
,
00001000
01000000
00000000
00000000
00010000
00001000
00000000
00000000
00001000
00000000
00000100
00000000
00000010
00000000
00000100
00000000
,
00001000
00010000
01000000
00010000
00022000
00000000
00000000
00000000
,
00000000
00000000
00000000
00000000
,
00000000
00000000
00000000
00000000
,
00000000
00000000
00000000
00000000
,
00000000
00000000
00000000
00000000
,
00000000
00000000
00000000
00000000
,
00000000
00000000
00000000
00000000
,
00000000
00000000
00000000
00000000
,
00000000
00000000
00000000
00000000
,
00000000
00000000
00000000
00000000
,
00000000
00000000
00000000
00000000
,
00000000
00000000
00000000
00000000
,
00000000
00000000
00000000
00000000
,
00000000
00000000
00000000
00000000
,
00000000
00000000
00000000
00000000
,
00000000
00000000
00000000
00000000
,
00000000
00000000
00000000
00000000
,
00000000
00000000
00000000
00000000
,
00000000
00000000
00000000
00000000
00000000
00000000
00000000
00000000
00000000
00000000
00000000
00000000
00000000
00000000
00000000
00000000
00000000
00000000
00000000
00000000
00000000
00000000
00000000
00000000
00000000
00000000
00000000
00000000
00000000
00000000
00000000
00000000
00000000
00000000
00000000
00000000
00000000
00000000
00000000
00000000
00000000
00000000
00000000
00000000
00000000
00000000
00000000
00033000
00000020
00000000
00000000
00000000
00000000
00000000
00000000
00000000
00000000
00000000
00000000
00000000
00000000
00000000
00000000
00000000
,
00000000
00000000
00000000
00000000
,
00000030
00000000
00000000
00000000
;
