#TITLE:Pwnage U N00bs;
#SUBTITLE:by *kXiPurriH*;
#ARTIST:Bonehead & Princess Of Darkness;
#TITLETRANSLIT:;
#SUBTITLETRANSLIT:;
#ARTISTTRANSLIT:;
#CREDIT:;
#BANNER:n00bs-Pwnage U N00bs BN.png;
#BACKGROUND:Pwnage U N00bs.png;
#LYRICSPATH:;
#CDTITLE:;
#MUSIC:Pwnage U N00bs.ogg;
#OFFSET:0.000;
#SAMPLESTART:12.640;
#SAMPLELENGTH:12.000;
#SELECTABLE:YES;
#DISPLAYBPM:150.000:999.000;
#BPMS:0.000=150.000,32.000=300.000,34.000=600.000,162.000=300.000,226.000=600.000,290.000=150.000,298.000=300.000,302.000=1200.000,366.000=300.004,430.000=150.002,438.000=600.000,566.000=300.000,573.000=600.000;
#STOPS:32.000=2.800
,298.000=0.200
,299.000=0.200
,300.000=0.200
,301.000=0.200
;
#BGCHANGES:;

//---------------dance-single - Copied from Renard----------------
#NOTES:
     dance-single:
     Copied from Renard:
     Challenge:
     13:
     0.782,1.000,0.495,0.076,0.000:
0000
0000
0000
0000
,
0000
0000
0000
0000
,
0000
0000
0000
0000
,
0000
0000
0000
0000
,
1000
1000
0100
0010
0001
0001
0010
0100
,
1000
1000
0100
0010
0001
1000
0001
1000
,
0001
0001
0010
0100
1000
1000
0100
0010
,
0001
0001
0010
0100
1000
0001
2000
0002
,
3013
0000
0001
0010
,
0100
1000
0100
0010
,
0001
1000
0100
0010
,
0001
0010
0100
1000
,
0001
0010
0100
1000
,
0100
0010
0001
1000
,
0100
0010
0001
0010
,
0100
1000
0001
1000
,
0001
1000
0001
0010
,
0100
1000
0100
0010
,
0001
1000
0100
0010
,
0001
0010
0100
1000
,
0001
0010
0100
1000
,
0100
0010
0001
1000
,
0100
0010
0001
0000
,
0001
0000
0001
0000
,
0001
0000
1000
0100
,
0010
0001
0010
0100
,
1000
0001
0010
0100
,
1000
0100
0010
0001
,
1000
0100
0010
0001
,
0010
0100
1000
0001
,
0010
0100
1000
0100
,
0010
0001
1000
0001
,
1000
0001
1000
0100
,
0010
0001
0010
0100
,
1000
0001
0010
0100
,
1000
0100
0010
0001
,
1000
0100
0010
0001
,
0010
0100
1000
0001
,
0010
0100
1000
0001
,
1000
0001
1000
0001
,
1000
0000
1001
1001
,
1010
1010
0101
0101
,
0011
0000
0100
1000
0100
0000
1100
0000
,
0011
0000
0011
0000
1001
0000
0001
1000
,
0100
1100
0011
0011
,
1100
1100
1010
1010
,
0101
0101
1010
1010
,
1001
1001
0101
0101
,
0010
1000
0100
1000
0001
0000
0101
0000
,
1010
1010
1100
1100
,
0011
0000
0001
1000
0100
0000
1100
0000
,
0011
0000
0011
0000
1001
0000
0001
1000
,
0100
1100
1100
0011
,
0011
1001
1001
0101
,
0101
1010
1010
0101
,
0101
1001
1001
1100
,
1000
0001
0010
0100
1000
0000
0001
0000
,
0100
0010
1000
0001
,
0100
0010
1000
0010
,
0100
0001
1000
0001
,
0100
0010
1000
0001
,
0100
0010
1000
0010
,
0100
0001
1000
0001
,
0100
0010
1000
0010
,
0100
0001
1000
0100
,
0010
0001
1000
0001
,
0010
0100
1000
0001
,
1000
0100
0010
0001
,
1000
0001
0010
0100
,
1000
0010
0100
0001
,
0100
0010
1000
0001
,
0010
0100
1000
0100
,
0010
0002
2000
0000
,
0000
0000
0000
0000
,
0000
0000
0000
0000
,
0000
3003
0001
1000
,
0001
1000
0001
1000
,
0001
1000
0001
1000
,
0001
1000
0001
1000
,
0001
1000
0001
1000
,
0001
1000
0001
1000
,
0001
1000
0001
1000
,
0001
1000
0001
1000
,
0001
1000
0001
1000
,
0001
1000
0001
1000
,
0001
1000
0001
1000
,
0001
1000
0001
1000
,
0001
1000
0001
0000
,
1000
0000
0001
0000
,
1000
0000
0001
0000
,
1000
0000
0001
0000
,
1000
0000
0001
0000
,
0001
0000
0001
0000
,
0001
0000
0001
0000
,
0001
0000
0001
0010
,
0100
1000
0100
0000
,
0100
0000
0100
0000
,
0100
0000
0100
0000
,
0100
0000
1000
0010
,
0100
0001
0010
0000
,
0010
0000
0010
0000
,
0010
0000
0010
0000
,
0010
0000
0001
0100
,
0010
1000
0001
0000
,
0001
0000
0001
0000
,
0001
0000
1000
0000
,
1000
0000
0100
0010
,
0001
2000
0002
0000
,
0000
0000
0000
0000
,
0000
0000
0000
3003
1000
0000
0100
0000
,
0010
0001
0010
0100
,
1000
0001
0010
0100
,
1000
0100
0010
0001
,
1000
0100
0010
0001
,
0010
0100
1000
0001
,
0010
0100
1000
0100
,
0010
0001
1000
0001
,
1000
0001
1000
0100
,
0010
0001
0010
0100
,
1000
0001
0010
0100
,
1000
0100
0010
0001
,
1000
0100
0010
0001
,
0010
0100
1000
0001
,
0010
0100
1000
0000
,
1000
0000
1000
0000
,
1000
0000
0001
0010
,
0100
1000
0100
0010
,
0001
1000
0100
0010
,
0001
0010
0100
1000
,
0001
0010
0100
1000
,
0100
0010
0001
1000
,
0100
0010
0001
0010
,
0100
1000
0001
1000
,
0001
1000
0001
0010
,
0100
1000
0100
0010
,
0001
1000
0100
0010
,
0001
0010
0100
1000
,
0001
0010
0100
1000
,
0100
0010
0001
1000
,
0100
0010
0001
1000
,
0001
1000
0001
1000
,
0001
1000
0220
0000
,
0000
0000
0000
0000
,
0000
0330
0000
0000
;

//---------------pump-single - ----------------
#NOTES:
     pump-single:
     :
     Challenge:
     13:
     0.801,1.000,0.143,0.048,0.000: // measure 1
10101
00000
10101
00000
,  // measure 2
10101
00000
10101
10101
,  // measure 3
10110
00000
10110
00000
,  // measure 4
10110
00000
10110
10110
,  // measure 5
10000
00001
10000
00001
10000
00001
10000
00001
,  // measure 6
10000
00100
10000
00100
10000
00100
10000
00100
,  // measure 7
01000
00010
00100
00001
10000
00100
01000
00010
,  // measure 8
10000
00100
10000
01000
10000
00010
10000
00100
,  // measure 9
02000
03000
00010
01000
,  // measure 10
00100
10000
00001
00010
,  // measure 11
00100
01000
00010
01000
,  // measure 12
00010
01000
00001
00100
,  // measure 13
00001
01000
00010
00100
,  // measure 14
01000
10000
00010
10000
,  // measure 15
00010
10000
00100
10000
,  // measure 16
00001
00100
00010
00100
,  // measure 17
01000
00100
00010
00100
,  // measure 18
00001
10000
01000
10000
,  // measure 19
00100
01000
00010
00100
,  // measure 20
00001
10000
00001
00100
,  // measure 21
10000
00100
00001
00100
,  // measure 22
00001
01000
00010
00100
,  // measure 23
00010
00100
00001
01000
,  // measure 24
00100
00000
00100
00000
,  // measure 25
00100
00000
01000
00010
,  // measure 26
00100
00001
10000
00100
,  // measure 27
10000
00001
01000
00010
,  // measure 28
01000
00100
10000
00010
,  // measure 29
10000
00100
01000
00010
,  // measure 30
00100
00001
10000
01000
,  // measure 31
00100
00010
10000
00100
,  // measure 32
10000
00010
01000
00100
,  // measure 33
01000
00010
00100
00010
,  // measure 34
10000
00100
01000
00001
,  // measure 35
00100
00010
10000
00100
,  // measure 36
01000
00001
10000
00100
,  // measure 37
10000
00010
00100
00010
,  // measure 38
10000
00010
00100
00010
,  // measure 39
01000
00001
00100
00010
,  // measure 40
01000
00100
10000
00001
,  // measure 41
00100
00010
01000
00010
,  // measure 42
00001
00010
01000
10000
,  // measure 43
01000
00010
10000
01000
,  // measure 44
00100
00010
01000
00010
,  // measure 45
00001
01000
10000
00100
,  // measure 46
10000
01000
10000
00001
,  // measure 47
00010
00100
01000
01000
,  // measure 48
01000
01000
00010
00010
,  // measure 49
00010
00010
10000
01000
,  // measure 50
00100
00010
01000
00100
,  // measure 51
00010
00001
10000
00100
,  // measure 52
01000
00100
10000
00001
,  // measure 53
00100
00010
01000
00100
,  // measure 54
01000
00010
10000
00100
,  // measure 55
10000
01000
10000
01000
,  // measure 56
00100
00010
00001
00010
,  // measure 57
00100
01000
10000
00100
,  // measure 58
10000
00001
10000
01000
,  // measure 59
00100
00010
01000
00100
,  // measure 60
01000
00010
10000
00100
,  // measure 61
01000
00010
00100
00001
,  // measure 62
01000
00100
10000
00010
,  // measure 63
00100
00001
01000
00100
,  // measure 64
10000
00010
00100
00001
,  // measure 65
01000
00100
10000
00010
,  // measure 66
00100
00001
01000
00010
,  // measure 67
01000
00010
01000
00010
,  // measure 68
01000
00010
10000
00100
,  // measure 69
10000
00100
10000
00100
,  // measure 70
10000
00100
10000
00001
,  // measure 71
10000
00001
10000
00001
,  // measure 72
10000
00001
00100
00010
,  // measure 73
01000
00100
20000
00000
,  // measure 74
00000
00000
00000
00000
,  // measure 75
00000
00000
00110
00101
,  // measure 76
00110
30101
10000
00001
,  // measure 77
10000
00001
10000
00001
,  // measure 78
10000
00001
10000
00001
,  // measure 79
10000
00001
10000
00001
,  // measure 80
10000
00001
10000
00001
,  // measure 81
10000
00001
10000
00001
,  // measure 82
10000
00001
10000
00001
,  // measure 83
10000
00001
10000
00001
,  // measure 84
10000
00001
10000
00001
,  // measure 85
10000
00001
10000
00001
,  // measure 86
10000
00001
10000
00001
,  // measure 87
10000
00001
10000
00001
,  // measure 88
10000
00001
10000
00001
,  // measure 89
10000
00001
10000
00001
,  // measure 90
10000
00001
10000
00001
,  // measure 91
10000
00001
10000
00001
,  // measure 92
10000
00001
10000
10000
,  // measure 93
10000
10000
10000
10000
,  // measure 94
10000
10000
00001
00001
,  // measure 95
00001
00001
00001
00001
,  // measure 96
00001
00001
00100
00100
,  // measure 97
00100
00100
00100
00100
,  // measure 98
00100
00100
00010
00010
,  // measure 99
00010
00010
00010
00010
,  // measure 100
00010
00010
01000
01000
,  // measure 101
01000
01000
01000
01000
,  // measure 102
01000
01000
00010
00100
,  // measure 103
00010
01000
00001
00100
,  // measure 104
10000
00100
00010
00100
,  // measure 105
01000
00100
00010
00100
,  // measure 106
00010
00100
00010
00100
,  // measure 107
01000
00100
00010
01000
,  // measure 108
00010
01000
02020
00000
,  // measure 109
00000
00000
00000
00000
,  // measure 110
03030
00000
00010
01000
,  // measure 111
00010
01000
00010
01000
,  // measure 112
00010
01000
00001
00100
,  // measure 113
00010
01000
00001
00100
,  // measure 114
00010
01000
00001
00100
,  // measure 115
00010
01000
00010
01000
,  // measure 116
00100
10000
00001
00100
,  // measure 117
00010
01000
00100
10000
,  // measure 118
00100
01000
00100
10000
,  // measure 119
01000
00100
00010
00100
,  // measure 120
00010
00100
00010
01000
,  // measure 121
00010
01000
00100
01000
,  // measure 122
00001
00100
00010
10000
,  // measure 123
00100
01000
00001
00100
,  // measure 124
00010
01000
00100
10000
,  // measure 125
00010
00100
00001
01000
,  // measure 126
00100
10000
00001
00010
,  // measure 127
00100
01000
00010
00100
,  // measure 128
01000
10000
00010
00100
,  // measure 129
00010
01000
00001
00100
,  // measure 130
00001
10000
00001
00100
,  // measure 131
00001
10000
00100
10000
,  // measure 132
00010
01000
00100
10000
,  // measure 133
00001
00100
00010
01000
,  // measure 134
00100
10000
00010
00100
,  // measure 135
00010
01000
00100
01000
,  // measure 136
00010
00100
00001
00100
,  // measure 137
00010
00100
00001
00100
,  // measure 138
00010
01000
00100
10000
,  // measure 139
00100
01000
00100
10000
,  // measure 140
00001
00100
00010
01000
,  // measure 141
00100
10000
00001
10000
,  // measure 142
00100
10000
00002
00000
,  // measure 143
00000
00000
00003
00000
;

//---------------pump-single - ----------------
#NOTES:
     pump-single:
     :
     Challenge:
     1:
     0.000,0.000,0.000,0.000,0.000: // measure 1
00000
00000
00000
00000
;
