#TITLE:BULSHIT DELTA;
#SUBTITLE:;
#ARTIST:ANDROID-TC;
#TITLETRANSLIT:;
#SUBTITLETRANSLIT:;
#ARTISTTRANSLIT:;
#CREDIT:;
#BANNER:;
#BACKGROUND:;
#LYRICSPATH:;
#CDTITLE:cdtitle.png;
#MUSIC:bullshitdelta.mp3;
#OFFSET:-0.040;
#SAMPLESTART:52.017;
#SAMPLELENGTH:12.000;
#SELECTABLE:YES;
#DISPLAYBPM:*;
#BPMS:0.000=100.000,5.000=101.000,6.000=102.000,7.000=103.000,8.000=104.000,9.000=105.000,10.000=106.000,11.000=107.000,12.000=108.000,13.000=109.000,14.000=110.000,15.000=111.000,16.000=112.000,17.000=113.000,18.000=114.000,19.000=115.000,20.000=116.000,21.000=117.000,22.000=118.000,23.000=119.000,24.000=120.000,25.000=121.000,26.000=122.000,27.000=123.000,28.000=124.000,29.000=125.000,30.000=126.000,31.000=127.000,32.000=128.000,33.000=129.000,34.000=130.000,35.000=131.000,36.000=132.000,37.000=133.000,38.000=134.000,39.000=135.000,40.000=136.000,41.000=137.000,42.000=138.000,43.000=139.000,44.000=140.000,45.000=141.000,46.000=142.000,47.000=143.000,48.000=144.000,49.000=145.000,50.000=146.000,51.000=147.000,52.000=148.000,53.000=148.980,54.000=150.000,55.000=151.000,56.000=152.000,57.000=153.000,58.000=154.000,59.000=155.000,60.000=156.000,61.000=157.000,62.000=158.000,63.000=159.000,64.000=160.000,65.000=161.000,66.000=162.000,67.000=163.000,68.000=164.000,69.000=165.000,70.000=166.000,71.000=167.000,72.000=168.000,73.000=169.000,74.000=170.000,75.000=171.000,76.000=172.000,77.000=173.000,78.000=174.000,79.000=175.000,80.000=176.000,81.000=177.000,82.000=178.000,83.000=179.000,84.000=180.000,85.000=181.000,86.000=182.000,87.000=183.000,88.000=184.000,89.000=185.000,90.000=186.000,91.000=187.000,92.000=188.000,93.000=189.000,94.000=190.000,95.000=191.000,96.000=192.000,97.000=193.000,98.000=194.000,99.000=195.000,100.000=196.000,101.000=197.000,102.000=198.000,103.000=199.000,104.000=200.000,105.000=201.000,106.000=202.000,107.000=203.000,108.000=204.000,109.000=205.000,110.000=206.000,111.000=207.000,112.000=208.000,113.000=209.000,114.000=210.000,115.000=211.000,116.000=212.000,117.000=213.000,118.000=214.000,119.000=215.000,120.000=216.000,121.000=217.000,122.000=218.000,123.000=219.000,124.000=220.000,125.000=221.000,126.000=222.000,127.000=223.000,128.000=224.000,129.000=225.000,130.000=226.000,131.000=227.000,132.000=228.000,133.000=229.000,134.000=230.000,135.000=231.000,136.000=232.000,137.000=233.000,138.000=234.000,139.000=235.000,140.000=236.000,141.000=237.000,142.000=238.000,143.000=239.000,144.000=240.000,145.000=241.000,146.000=242.000,147.000=243.000,148.000=244.000,149.000=245.000,150.000=246.000,151.000=247.000,152.000=248.000,153.000=249.000,154.000=250.000,155.000=251.000,156.000=252.000,157.000=253.000,158.000=254.000,159.000=255.000,160.000=256.000,161.000=257.000,162.000=258.000,163.000=259.000,164.000=260.000,165.000=261.000,166.000=262.000,167.000=263.000,168.000=264.000,169.000=265.000,170.000=266.000,171.000=267.000,172.000=268.000,173.000=269.000,174.000=270.000,175.000=271.000,176.000=272.000,177.000=273.000,178.000=274.000,179.000=275.000,180.000=276.000,181.000=277.000,182.000=278.000,183.000=279.000,184.000=280.000,185.000=281.000,186.000=282.000,187.000=283.000,188.000=284.000,189.000=285.000,190.000=286.000,191.000=287.000,192.000=288.000,193.000=289.000,194.000=290.000,195.000=291.000,196.000=292.000,197.000=293.000,198.000=294.000,199.000=295.000,200.000=296.000,201.000=297.000,202.000=298.000,203.000=299.000,204.000=300.000,205.000=301.000,206.000=302.000,207.000=303.000,208.000=304.000,209.000=305.000,210.000=306.000,211.000=307.000,212.000=308.000,213.000=309.000,214.000=310.000,215.000=311.000,216.000=312.000,217.000=313.000,218.000=314.000,219.000=315.000,220.000=316.000,221.000=317.000,222.000=318.000,223.000=319.000,224.000=320.000,225.000=321.000,226.000=322.000,227.000=323.000,228.000=324.000,229.000=325.000,230.000=326.000,231.000=327.000,232.000=328.000,233.000=329.000,234.000=330.000,235.000=331.000,236.000=332.000,237.000=333.000,238.000=334.000,239.000=335.000,240.000=336.000,241.000=337.000,242.000=338.000,243.000=339.000,244.000=340.000,245.000=341.000,246.000=342.000,247.000=343.000,248.000=344.000,249.000=345.000,250.000=346.000,251.000=347.000,252.000=348.000,253.000=349.000,254.000=350.000,255.000=351.000,256.000=352.000,257.000=353.000,258.000=354.000,259.000=355.000,260.000=356.000,261.000=357.000,262.000=358.000,263.000=359.000,264.000=360.000,265.000=361.000,266.000=362.000,267.000=363.000,268.000=364.000,269.000=365.000,270.000=366.000,271.000=367.000,272.000=368.000,273.000=369.000,274.000=370.000,275.000=371.000,276.000=372.000,277.000=373.000,278.000=374.000,279.000=375.000,280.000=376.000,281.000=377.000,282.000=378.000,283.000=379.000,284.000=380.000,285.000=381.000,286.000=382.000,287.000=383.000,288.000=384.000,289.000=385.000,290.000=386.000,291.000=387.000,292.000=388.000,293.000=389.000,294.000=390.000,295.000=391.000,296.000=392.000,297.000=393.000,298.000=394.000,299.000=395.000,300.000=396.000,301.000=397.000,302.000=398.000,303.000=399.000,304.000=400.000,305.000=401.000,306.000=402.000,307.000=403.000,308.000=404.000,309.000=405.000,310.000=406.000,311.000=407.000,312.000=408.000,313.000=409.000,314.000=410.000,315.000=411.000,316.000=412.000,317.000=413.000,318.000=414.000,319.000=415.000,320.000=416.000,321.000=417.000,322.000=418.000,323.000=419.000,324.000=420.000,325.000=421.000,326.000=422.000,327.000=423.000,328.000=424.000,329.000=425.000,330.000=426.000,331.000=427.000,332.000=428.000,333.000=429.000,334.000=430.000,335.000=431.000,336.000=432.000,337.000=433.000,338.000=434.000,339.000=435.000,340.000=436.000,341.000=437.000,342.000=438.000,343.000=439.000,344.000=440.000,345.000=441.000,346.000=442.000,347.000=443.000,348.000=444.000,348.500=445.000,349.000=446.000,349.500=447.000,350.000=448.000,350.500=449.000,351.000=450.000,351.500=451.000,352.000=452.000,353.000=453.000,354.000=454.000,355.000=455.000,356.000=456.000,357.000=457.000,358.000=458.000,359.000=459.000,360.000=460.000,361.000=461.000,362.000=462.000,363.000=463.000,364.000=464.000,365.000=465.000,366.000=466.000,367.000=467.000,368.000=468.000,369.000=469.000,370.000=470.000,371.000=471.000,372.000=472.000,373.000=473.000,374.000=474.000,375.000=475.000,376.000=476.000,377.000=477.000,378.000=478.000,379.000=479.000,380.000=480.000,381.000=481.000,382.000=482.000,383.000=483.000,384.000=484.000,385.000=485.000,386.000=486.000,387.000=487.000,388.000=488.000,389.000=489.000,390.000=490.000,391.000=491.000,392.000=492.000,393.000=493.000,394.000=494.000,395.000=495.000,396.000=496.000,397.000=497.000,398.000=498.000,399.000=499.000,400.000=500.000,401.000=500.980,402.000=502.000,403.000=503.000,404.000=504.000,405.000=505.000,406.000=506.000,407.000=507.000,408.000=508.000,409.000=509.000,410.000=510.000,411.000=511.000,412.000=512.000,413.000=513.000,414.000=514.000,415.000=515.000,416.000=516.000,417.000=517.000,418.000=518.000,419.000=519.000,420.000=520.000,421.000=521.000,422.000=522.000,423.000=523.000,424.000=524.000,425.000=525.000,426.000=526.000,427.000=527.000,428.000=528.000,429.000=529.000,430.000=530.000,431.000=531.000,432.000=532.000,433.000=533.000,434.000=534.000,435.000=535.000,436.000=536.000,437.000=537.000,438.000=538.000,439.000=539.000,440.000=540.000,441.000=541.000,442.000=542.000,443.000=543.000,444.000=544.000,445.000=545.000,446.000=546.000,447.000=547.000,448.000=548.000,449.000=549.000,450.000=550.000,451.000=551.000,452.000=552.000,453.000=553.000,454.000=554.000,455.000=555.000,456.000=556.000,457.000=557.000,458.000=558.000,459.000=559.000,460.000=560.000,461.000=561.000,462.000=562.000,463.000=563.000,464.000=564.000,465.000=565.000,466.000=566.000,467.000=567.000,468.000=568.000,469.000=569.000,470.000=570.000,471.000=571.000,472.000=572.000,473.000=573.000,474.000=574.000,475.000=575.000,476.000=576.000,477.000=577.000,478.000=578.000,479.000=579.000,480.000=580.000,481.000=581.000,482.000=582.001,483.000=583.001,484.000=584.001,485.000=585.001,486.000=586.001,487.000=587.001,488.000=588.001,489.000=589.001,490.000=590.001,491.000=591.001,492.000=592.001,493.000=593.001,494.000=594.001,495.000=595.001,496.000=596.001,497.000=597.001,498.000=598.002,499.000=599.002,500.000=600.002;
#STOPS:348.000=0.068
,348.500=0.067
,349.000=0.067
,349.500=0.067
,350.000=0.067
,350.500=0.067
,351.000=0.067
,351.500=0.067
;
#BGCHANGES:;

//---------------dance-single - ----------------
#NOTES:
     dance-single:
     :
     Easy:
     7:
     0.420,0.631,0.128,0.060,0.000:
0000
0000
0000
0000
,
1000
0100
1000
0100
,
0010
0001
0010
0001
,
0100
0010
0100
0010
,
1000
0000
0100
0000
0010
0000
0001
0100
,
0010
0010
1000
1000
,
0100
0100
0001
0010
,
1000
1000
0100
0100
,
0010
0010
0001
0000
,
1001
0100
1000
0010
,
0100
0001
0020
0000
,
0130
0010
0001
0100
,
0010
1000
0200
0000
,
1300
0010
1000
0100
,
0010
0001
0200
0000
,
0310
1000
0010
0100
,
0001
1000
1100
0000
,
0011
0001
0100
0001
,
1000
0100
1000
0000
,
0010
1000
0100
0010
,
0100
1000
0001
0010
,
1000
0100
1000
0010
,
0001
0100
0001
0010
,
1000
0100
0010
0001
,
0100
0010
1000
0000
,
1001
0000
0100
1000
,
0100
0010
0001
0100
,
0010
0000
0010
1000
,
0010
0100
0001
1000
,
0100
0000
1000
0001
,
1000
0000
0010
0100
,
0010
0000
1000
0000
,
0001
0100
0001
1000
,
1001
0000
0000
0000
,
1000
0010
0100
0001
,
1000
0000
0000
0000
,
0100
1000
0010
0100
,
0001
0000
0000
0000
,
0100
0001
0100
1000
,
0100
0000
0000
0000
,
0001
0010
0100
0000
,
1001
0000
0000
0000
,
1000
0010
0100
0001
,
1000
0000
0000
0000
,
0100
1000
0010
0100
,
0001
0000
0000
0000
,
1000
0010
0100
0001
,
1000
0000
0000
0000
,
0010
0100
0010
0000
,
1001
0000
0100
0000
,
1000
0000
0010
0000
,
0100
0000
0001
0000
,
1000
0100
1000
0000
,
0001
0000
0100
0000
,
0001
0000
1000
0000
,
0100
0000
0010
0000
,
0001
0100
0001
0000
,
1001
0000
0001
0000
,
0100
0000
0001
0000
,
0010
0000
0100
0000
,
1000
0010
1000
0000
,
0100
0000
0010
0000
,
0001
0000
0100
0000
,
0010
0000
1000
0000
,
0100
0010
0100
0000
,
2002
0000
0000
0000
,
0000
0000
0000
0000
,
0000
0000
0000
0000
,
0000
0000
0000
0000
,
0000
0000
0000
0000
,
0000
0000
0000
0000
,
0000
0000
0000
0000
,
0000
0000
3003
0000
,
1000
0000
0100
0000
,
1000
0000
0010
0000
,
0001
0000
0010
0000
,
1000
0100
1000
0000
,
0001
0000
0100
0000
,
0001
0000
0010
0000
,
0100
0000
1000
0000
,
0010
0100
0010
0000
,
1000
0000
0001
0000
,
0100
0000
0001
0000
,
1000
0000
0100
0000
,
0010
0000
0100
0000
,
1000
0000
0010
0000
,
0100
0000
0001
0000
,
1000
0001
1000
0001
1000
0001
1000
0001
,
1000
0000
0100
0000
,
1000
0000
0010
0000
,
0100
0000
0001
0000
,
1000
0001
1000
0000
,
0010
0100
0010
0100
,
0010
0100
0010
0000
,
1000
0001
1000
0001
,
1000
0001
1000
0000
,
0001
0100
0001
0000
,
1000
0100
1000
0000
,
0010
0100
0010
0000
,
0100
0001
0100
0000
,
0001
0000
0010
0000
,
0100
0000
1000
0000
,
0010
0000
0100
0000
,
1000
0001
1000
0001
,
1000
0000
0100
0000
,
1000
0000
0010
0000
,
0100
0000
0001
0000
,
0010
0000
0100
0000
,
1000
0000
0100
0000
,
0001
0000
0100
0000
,
1000
0000
0010
0000
,
0100
0000
0001
0000
,
1000
0100
1000
0100
,
1000
0100
1000
0000
,
0001
0010
0001
0010
,
0001
0010
0001
0000
,
0100
0001
0100
0000
,
0010
1000
0010
0000
,
1000
0001
1000
0001
,
1000
0000
0100
0000
,
1001
0000
0000
0000
,
0101
0000
0000
0000
,
1100
0000
0000
0000
,
0101
0000
0000
0000
,
0110
0000
0000
0000
,
2002
0000
0000
0000
,
0000
0000
0000
0000
,
0000
0000
0000
0000
,
0000
0000
0000
0000
,
0000
0000
0000
0000
,
0000
0000
0000
0000
,
0000
0000
0000
0000
,
0000
0000
0000
0000
,
0000
0000
0000
0000
,
3003
0000
0000
0000
;

//---------------dance-single - ----------------
#NOTES:
     dance-single:
     :
     Medium:
     8:
     0.541,0.745,0.111,0.086,0.000:
0000
0000
0000
0000
,
1000
0100
0100
1000
,
0001
0010
0010
0001
,
0100
0010
0010
0100
,
0001
0000
1000
0000
1000
0000
0100
0010
,
0001
0000
1000
0000
0100
0010
0100
0000
,
1000
0000
0001
0000
0100
0010
0100
0000
,
0001
0010
0100
0000
1000
0100
0010
0000
,
1001
0000
0110
0000
1000
0001
1000
0001
,
1000
1000
0100
0001
,
0100
0000
1000
0000
0010
0100
0010
0000
,
0100
0001
1000
0100
,
1000
0000
1000
0000
0010
0100
0010
0100
,
0010
1000
0100
0010
,
0001
0000
1000
0000
0100
0010
0100
0010
,
0100
1000
0010
0100
,
0001
1000
0100
0110
,
1001
0100
1000
0001
,
1000
0000
0100
0000
0010
0100
0010
0000
,
0100
1000
0001
0100
,
0001
0000
1000
0000
0010
0100
0010
0000
,
1000
0100
0010
0001
,
0100
0001
0010
0100
,
1000
0100
1000
0010
,
0001
0010
1000
0100
,
0010
0001
0100
0001
,
0010
0100
1000
0001
,
1000
0100
1000
0010
,
0100
0001
1000
0100
,
0010
0010
0100
1000
,
0001
0001
0100
0010
,
1000
1000
0010
0001
,
0100
0100
0001
1000
,
1001
0000
0000
0100
0000
0100
0000
0100
,
1000
0001
0100
0010
,
0000
0100
0000
0100
0000
0100
0000
0100
,
1000
0001
0010
1000
,
0000
0010
0000
0010
0000
0010
0000
0010
,
0100
0001
0010
1000
,
0000
0100
0000
0100
0000
0100
0000
0100
,
1000
0001
0100
0000
,
0010
1000
0000
1000
0000
1000
0000
1000
,
0010
0100
0100
0001
,
1000
0100
0000
0100
0000
0100
0000
0100
,
1000
0010
0100
0001
,
0010
0100
0000
0100
0000
0100
0000
0100
,
1000
0010
1000
0100
,
0010
0001
0000
0001
0000
0001
0000
0001
,
1000
0100
0010
0000
,
0001
0100
0001
0100
,
0010
1000
0010
1000
,
0100
0010
0100
0010
,
0001
0100
0010
0000
,
1000
0100
1000
0100
,
0010
0001
0010
0001
,
0100
0010
0100
0010
,
1000
0100
0010
0000
,
0001
0100
0001
1000
,
0001
0100
0001
0010
,
0100
1000
0100
1000
,
0001
0100
0010
0000
,
1000
0010
1000
0010
,
0100
0001
0100
0001
,
1000
0100
0010
0001
,
0100
0000
0010
0000
,
2002
0000
0000
0000
,
0000
0000
0000
0000
,
0000
0000
0000
0000
,
0000
0000
0000
0000
,
0000
0000
0000
0000
,
0000
0000
0000
0000
,
0000
0000
0000
0000
,
0000
0000
3003
0000
,
1000
0010
1000
0000
,
0001
0100
0001
0000
,
1000
0100
1000
0000
,
0010
0000
1001
0000
,
0100
0001
0100
0000
,
0010
1000
0010
0000
,
1000
0100
0010
0001
,
0100
0000
1001
0000
,
0010
1000
0100
0000
,
0010
0001
0100
0000
,
0001
0010
0100
1000
,
0010
0000
1001
0000
,
0100
0010
0100
0000
,
0010
0100
0010
0000
,
1000
0100
1000
0100
0010
0001
0010
0001
,
1000
0100
1000
0000
,
0001
0100
0001
0000
,
1000
0100
1000
0100
,
0010
0001
0010
0001
,
0100
0010
0100
0000
,
0001
0010
0001
0000
,
1000
0100
1000
0100
,
0010
0001
0010
0001
,
0100
0010
0100
0000
,
0001
1000
0001
0000
,
1000
0100
0010
0001
,
0100
0010
1000
0100
,
0010
0000
0001
0000
,
0010
0000
0100
0000
,
1000
0000
0010
0000
,
0100
0000
1001
0000
,
0100
0000
1000
0000
,
0001
0100
0001
0000
,
1000
0100
1000
0000
,
0010
0000
1001
0000
,
0100
0001
0100
0000
,
0010
1000
0010
0000
,
1000
0000
0100
0000
,
0010
0001
0010
0100
,
1000
0000
0001
0000
,
0100
0000
0010
0000
,
1000
0000
1000
0000
,
0100
0000
0001
0000
,
0010
0100
0010
0000
,
0100
0010
0100
0000
,
0010
0100
0010
0100
,
0010
0100
0010
0000
,
2000
0000
3100
0000
,
0002
0000
0103
0000
,
2000
0000
3010
0000
,
0020
0000
0130
0000
,
0220
0000
0330
0000
,
2002
0000
0000
0000
,
0000
0000
0000
0000
,
0000
0000
0000
0000
,
0000
0000
0000
0000
,
0000
0000
0000
0000
,
0000
0000
0000
0000
,
0000
0000
0000
0000
,
0000
0000
0000
0000
,
0000
0000
0000
0000
,
3003
0000
0000
0000
;

//---------------dance-single - ----------------
#NOTES:
     dance-single:
     :
     Hard:
     11:
     0.781,1.000,0.342,0.180,0.004: // measure 1
0000
0000
0000
0000
,  // measure 2
1000
1100
0001
0011
,  // measure 3
1000
1010
0001
0101
,  // measure 4
1000
1100
0010
0011
,  // measure 5
0100
0000
0101
0000
1000
0000
1100
0010
,  // measure 6
0001
0000
1100
0000
0010
0001
1100
0000
,  // measure 7
0001
0000
1100
0000
0010
1000
0101
0000
,  // measure 8
1200
0000
0301
0000
1000
0100
0001
0000
,  // measure 9
1001
0000
0110
0000
1000
0100
0001
0010
,  // measure 10
1100
0010
0001
0100
,  // measure 11
1000
0000
0010
0000
0101
0010
1000
0100
,  // measure 12
1001
0100
1000
0010
,  // measure 13
0100
0000
0001
0000
0011
0100
1000
0010
,  // measure 14
0101
1000
0010
0001
,  // measure 15
0100
0000
1000
0000
0010
0010
0001
0100
,  // measure 16
1001
0100
1000
0010
,  // measure 17
0001
0000
0010
0000
0100
0000
1000
0000
1001
0000
0100
1000
0100
0000
0010
0000
,  // measure 18
1001
0100
1000
0100
0010
0010
0001
0001
,  // measure 19
0100
1000
0100
0001
0010
1000
0100
0010
,  // measure 20
1000
0100
0001
0100
1000
0010
0001
0001
,  // measure 21
0010
1000
0100
0001
0001
0100
1000
0010
,  // measure 22
1000
0100
0001
0000
0001
0001
0100
1000
,  // measure 23
0010
0001
0100
0000
0001
0001
0010
1000
,  // measure 24
0100
0010
0001
0000
0010
1000
1000
0100
,  // measure 25
1000
0010
0001
0000
0100
0010
0010
1000
,  // measure 26
1001
0000
0100
0000
1000
0010
1000
0000
,  // measure 27
0001
0100
0001
0001
1000
0100
0010
0000
,  // measure 28
0101
0000
1010
0000
1000
0100
0001
0000
,  // measure 29
0001
0100
1000
1000
0010
0100
0001
0100
,  // measure 30
0010
1000
0100
0000
0010
0001
0100
0001
,  // measure 31
0010
1000
1000
0000
0010
0001
0001
0000
,  // measure 32
0100
1001
0010
1001
,  // measure 33
1000
0100
1000
0100
0010
0001
0010
0001
,  // measure 34
1000
0200
0000
1000
0000
1300
0000
0100
,  // measure 35
0010
0010
0001
0001
0100
0100
1000
1000
,  // measure 36
0010
0200
0000
0001
0000
0301
0000
0100
,  // measure 37
0010
0010
1000
1000
0001
0001
0100
0100
,  // measure 38
0010
1000
0000
0101
0000
1010
0000
1000
,  // measure 39
0100
0010
0001
0010
0100
1000
0010
0100
,  // measure 40
0001
0010
0000
0011
0000
0100
0000
0100
,  // measure 41
1000
0010
0100
0002
2000
0000
3003
0000
,  // measure 42
0010
1000
0000
1000
0000
1000
0000
1000
,  // measure 43
0100
0010
0001
0010
0100
1000
0010
0100
,  // measure 44
0001
0010
0000
0010
0000
0010
0000
0010
,  // measure 45
0001
0100
0001
1000
0100
1000
0010
0100
,  // measure 46
0001
1000
0000
0100
1000
0100
0000
0010
,  // measure 47
0001
0010
0001
0010
0100
1000
0100
1000
,  // measure 48
0001
0100
0000
0100
1000
0100
0000
0100
,  // measure 49
0001
0010
0100
1000
0001
0010
0100
1000
,  // measure 50
0001
0000
0100
0001
0000
0001
0100
0000
,  // measure 51
0010
0000
1000
0100
0000
2200
0000
3300
,  // measure 52
0010
0000
0100
0001
0000
0001
0100
0000
,  // measure 53
2020
3000
0230
0001
,  // measure 54
1300
0000
0010
0100
0000
0100
0010
0000
,  // measure 55
0001
0000
0100
0010
0000
2020
0000
3030
,  // measure 56
0100
0000
1000
0010
0000
0010
1000
0000
,  // measure 57
1100
1000
0010
0001
,  // measure 58
1000
0100
0001
0100
,  // measure 59
1000
0010
0100
0010
,  // measure 60
1000
0100
0001
0100
,  // measure 61
1100
1010
1001
0000
,  // measure 62
0001
0010
1000
0100
,  // measure 63
1000
0010
0001
0100
,  // measure 64
0001
0010
0100
1000
,  // measure 65
1000
0100
1000
0100
0010
0001
0010
0001
,  // measure 66
2002
0000
0000
0000
,  // measure 67
0000
0000
0000
0000
,  // measure 68
0000
0000
0000
0000
,  // measure 69
0000
0000
0000
0000
,  // measure 70
0000
0000
0000
0000
,  // measure 71
0000
0000
0000
0000
,  // measure 72
0000
0000
0000
0000
,  // measure 73
0000
0000
0000
3003
,  // measure 74
1000
0100
0001
0100
,  // measure 75
1000
0010
0100
0001
,  // measure 76
1000
1000
0100
0010
,  // measure 77
0001
0001
0100
0010
,  // measure 78
1000
0100
1000
0100
,  // measure 79
0010
0001
0010
0001
,  // measure 80
0100
0001
0100
1000
,  // measure 81
0100
0001
0010
1000
,  // measure 82
0010
0001
0100
1000
,  // measure 83
0100
0001
0010
0100
,  // measure 84
1000
0001
0100
0001
,  // measure 85
1000
0100
0010
0001
,  // measure 86
0100
0010
1000
0001
,  // measure 87
0100
0010
1000
0010
,  // measure 88
1000
0100
0010
0001
0100
0010
1000
0100
,  // measure 89
0010
0001
0100
0010
,  // measure 90
0001
0100
0010
0001
,  // measure 91
0100
1000
0100
0001
,  // measure 92
0010
1000
0100
0010
,  // measure 93
1000
0100
0010
1000
,  // measure 94
0100
0010
1000
0100
,  // measure 95
0001
0010
1000
0100
,  // measure 96
0010
0001
0010
0100
,  // measure 97
1000
0001
0010
1000
,  // measure 98
0010
0100
1000
0010
,  // measure 99
0001
1000
0100
0010
,  // measure 100
0001
0100
0001
0010
,  // measure 101
1000
0001
0010
0100
,  // measure 102
0010
0001
0100
0010
,  // measure 103
1000
0001
0100
1000
,  // measure 104
0100
0001
0010
0100
,  // measure 105
1000
0100
1000
0100
,  // measure 106
0010
0001
0010
0001
,  // measure 107
0100
0010
0100
0010
,  // measure 108
1000
0100
0010
0001
,  // measure 109
0100
0001
0100
0001
,  // measure 110
1000
0010
1000
0010
,  // measure 111
0100
0001
1000
0001
,  // measure 112
0100
0010
1000
0100
,  // measure 113
0010
0001
0010
0001
,  // measure 114
1000
0100
1000
0100
,  // measure 115
0010
0001
0010
0001
,  // measure 116
0100
0001
1000
0100
,  // measure 117
0010
0001
0010
0001
,  // measure 118
1000
0100
1000
0100
,  // measure 119
0010
0001
0010
0001
,  // measure 120
0100
0010
1000
0001
,  // measure 121
0200
0010
1300
0100
,  // measure 122
0020
0001
0130
0010
,  // measure 123
0002
1000
0013
0100
,  // measure 124
2000
0001
3010
1000
,  // measure 125
0020
0100
1030
0010
,  // measure 126
2002
0000
0000
0000
,  // measure 127
0000
0000
0000
0000
,  // measure 128
0000
0000
0000
0000
,  // measure 129
0000
0000
0000
0000
,  // measure 130
0000
0000
0000
0000
,  // measure 131
0000
0000
0000
0000
,  // measure 132
0000
0000
0000
0000
,  // measure 133
0000
0000
0000
0000
,  // measure 134
0000
0000
0000
0000
,  // measure 135
3003
0000
0000
0000
;

//---------------dance-single - ----------------
#NOTES:
     dance-single:
     :
     Beginner:
     5:
     0.280,0.374,0.086,0.094,0.000:
0000
0000
0000
0000
,
1001
0000
0100
0100
,
0100
0000
0010
0010
,
0010
0000
1000
1000
,
1000
0000
0100
0000
,
1001
0000
0010
0010
,
0010
0000
0100
0100
,
0100
0000
0001
0001
,
0001
0000
0010
0000
,
1001
0000
0100
0000
,
1000
0000
0010
0000
,
0100
0000
0001
0000
,
1000
0000
0100
0000
,
0010
0000
0100
0000
,
1000
0000
0001
0000
,
0100
0000
0010
0000
,
1000
0000
0100
0000
,
1001
0000
1000
1000
,
1000
0000
0100
0000
,
0010
0000
0001
0001
,
0001
0000
0100
0000
,
0010
0000
1000
1000
,
1000
0000
0100
0000
,
1000
0000
0010
0010
,
0010
0000
0100
0000
,
1001
0000
0100
0000
,
1000
0000
0100
0000
,
0010
0000
0001
0000
,
0100
0000
0010
0010
,
0010
0000
1000
0000
,
0010
0000
0001
0000
,
0010
0000
1000
0000
,
0100
0000
0010
0010
,
0020
0000
0000
0000
,
0130
0100
0100
0100
,
0020
0000
0000
0000
,
0130
0100
0100
0100
,
0002
0000
0000
0000
,
1003
1000
1000
1000
,
0002
0000
0000
0000
,
1003
1000
1000
0000
,
0200
0000
0000
0000
,
1300
0000
0010
0000
,
0002
0000
0000
0000
,
0103
0000
0010
0000
,
2000
0000
0000
0000
,
3100
0000
1000
0000
,
0020
0000
0000
0000
,
0130
0100
0100
0000
,
1001
0000
0000
0000
,
0100
0000
0000
0000
,
1000
0000
0000
0000
,
0010
0000
0000
0000
,
0100
0000
0000
0000
,
0001
0000
0000
0000
,
0010
0000
0010
0000
,
0100
0000
0000
0000
,
1000
0000
0000
0000
,
0001
0000
0000
0000
,
0100
0000
0010
0000
,
1000
0000
0000
0000
,
0010
0000
0000
0000
,
0100
0000
0000
0000
,
0001
0000
1000
0000
,
0100
0000
0000
0000
,
2002
0000
0000
0000
,
0000
0000
0000
0000
,
0000
0000
0000
0000
,
0000
0000
0000
0000
,
0000
0000
0000
0000
,
0000
0000
0000
0000
,
0000
0000
0000
0000
,
3003
0000
0000
0000
,
1000
0000
1000
0000
,
0100
0000
0100
0000
,
0001
0000
0001
0000
,
0010
0000
0010
0000
,
1000
0000
1000
0000
,
0100
0000
0100
0000
,
1000
0000
1000
0000
,
0010
0000
0000
0000
,
0100
0000
0100
0000
,
0001
0000
0001
0000
,
0010
0000
0010
0000
,
0100
0000
0100
0000
,
1000
0000
1000
0000
,
0010
0000
0010
0000
,
0200
0000
0000
0000
,
0310
0000
0010
0000
,
1000
0000
1000
0000
,
0001
0000
0001
0000
,
0100
0000
0010
0000
,
1000
0000
1000
0000
,
0100
0000
0010
0000
,
0001
0000
0100
0000
,
0001
0000
0000
0000
,
1000
0000
0010
0000
,
1000
0000
0100
0000
,
1000
0000
0001
0000
,
0100
0000
0001
0000
,
0010
0000
0100
0000
,
1000
0000
0010
0000
,
0100
0000
0001
0000
,
1000
0000
0000
0000
,
1001
0000
0000
0000
,
0100
0000
0000
0000
,
1000
0000
0000
0000
,
0001
0000
0000
0000
,
0100
0000
0000
0000
,
0010
0000
0000
0000
,
1000
0000
0000
0000
,
0100
0000
0000
0000
,
1001
0000
0000
0000
,
0010
0000
0000
0000
,
1000
0000
0000
0000
,
0100
0000
0000
0000
,
0001
0000
0000
0000
,
0010
0000
0000
0000
,
0100
0000
0000
0000
,
1000
0000
0000
0000
,
0100
0000
0000
0000
,
0100
0000
0000
0000
,
0100
0000
0000
0000
,
0100
0000
0000
0000
,
0010
0000
0000
0000
,
1001
0000
0000
0000
;

//---------------dance-single - ----------------
#NOTES:
     dance-single:
     :
     Challenge:
     13:
     1.000,1.000,0.890,0.539,0.021: // measure 1
0000
0000
0000
0000
,  // measure 2
1000
0100
1100
0100
1000
0010
0110
0100
,  // measure 3
0001
0010
0110
0100
0010
0001
0101
0100
,  // measure 4
1010
0010
0011
0010
1010
0010
0110
0010
,  // measure 5
0011
0001
0101
0001
1001
0001
0011
0001
,  // measure 6
0101
1000
1100
0010
0001
0100
1010
0100
,  // measure 7
1000
0010
0011
0100
1000
0010
0101
1000
,  // measure 8
1001
0100
1000
0010
0101
0010
0001
0100
,  // measure 9
1010
0100
1010
0001
0110
1100
0101
0011
,  // measure 10
1001
0100
1000
0010
0100
0001
1000
0100
,  // measure 11
0010
0001
0100
0010
1100
0011
1010
0101
,  // measure 12
1001
0010
1000
0100
1000
0010
0100
0001
,  // measure 13
0010
1000
0100
0010
1100
0011
1010
0101
,  // measure 14
1001
0010
1000
0100
0001
0010
0100
0010
,  // measure 15
0001
0100
1000
0100
0101
1100
0110
1010
,  // measure 16
1001
0100
1000
0100
0001
0010
1000
0010
,  // measure 17
0001
0000
0100
0000
1000
0000
0100
0000
1001
0000
0100
0010
0100
0000
0100
0000
,  // measure 18
1001
0000
0100
1000
0100
0000
0100
0000
0001
0000
0010
0000
1000
0000
0100
0000
,  // measure 19
0001
0000
0010
0100
0010
0000
0001
0000
1000
0000
0100
0000
0100
0000
0100
0000
,  // measure 20
0010
0000
0001
0100
0001
0000
0010
0000
0100
0000
0100
0000
0100
0000
0100
0000
,  // measure 21
1000
0000
0010
0100
0010
0000
1000
0000
0100
0000
0001
0000
0010
0000
0100
0000
,  // measure 22
1000
0010
0010
0010
0001
0010
1000
0100
,  // measure 23
0001
0010
0010
0010
1000
0010
0001
0100
,  // measure 24
1000
0010
0010
0010
0100
0001
0010
1000
,  // measure 25
0100
0001
0001
0001
0010
0100
1000
0001
,  // measure 26
0010
1000
1000
0100
0001
0010
0001
0100
,  // measure 27
1000
0010
0010
0100
0001
0010
1000
0100
,  // measure 28
1000
0010
0010
0001
0100
0010
1000
0100
,  // measure 29
0010
0001
0001
0100
0010
1000
0100
0010
,  // measure 30
0001
0100
0001
0010
1000
0100
1000
0010
,  // measure 31
0001
0100
0001
1000
0100
0001
0100
1000
,  // measure 32
0010
0100
0010
0001
1000
0100
0001
0010
,  // measure 33
0001
0100
0001
0010
1000
0100
1000
0010
,  // measure 34
0200
1000
0000
1000
0000
1000
0000
1300
,  // measure 35
0100
0100
0001
0001
0010
0010
1000
1000
,  // measure 36
0200
0001
0000
0001
0000
0001
0000
0301
,  // measure 37
0100
0100
1000
1000
0010
0010
0100
0100
,  // measure 38
0002
0010
0000
0010
0000
0010
0000
0013
,  // measure 39
0001
0001
0100
0100
1000
1000
0010
0010
,  // measure 40
0200
1000
0000
1000
0000
1000
0000
1300
,  // measure 41
0100
0100
0001
0001
0220
0000
0330
0000
,  // measure 42
1000
0100
0000
0101
0000
1100
0000
0001
,  // measure 43
0010
1000
0010
1000
0100
0001
0100
0001
,  // measure 44
1000
0100
0000
1100
0000
0101
0000
0010
,  // measure 45
1000
0100
1000
0100
0001
0100
0001
0100
,  // measure 46
1000
0010
0000
0110
0000
0101
0000
0010
,  // measure 47
1000
0100
1000
0100
0010
1000
0010
1000
,  // measure 48
0100
0001
0000
0011
0000
0110
0000
1000
,  // measure 49
0010
0001
0010
1000
0100
1000
0010
0001
,  // measure 50
1001
0000
0100
1000
0100
0000
0100
0000
,  // measure 51
1001
0000
0010
0001
0010
0000
0010
0000
,  // measure 52
1001
0000
0100
1000
0100
0000
0100
0000
,  // measure 53
1001
0010
0100
1000
,  // measure 54
1001
0000
0100
1000
0100
1000
0100
0000
,  // measure 55
1001
0000
0010
0100
0010
0100
0010
0000
,  // measure 56
1001
0000
0100
0001
0100
0001
0100
0000
,  // measure 57
1001
0010
1000
0100
,  // measure 58
1000
0010
1000
0000
0001
0100
0001
0000
,  // measure 59
1000
0100
1000
0000
0001
0010
0001
0000
,  // measure 60
0100
0001
0100
0000
0010
1000
0010
0000
,  // measure 61
1000
0001
1000
0000
0010
0100
0010
0000
,  // measure 62
1000
0100
1000
0100
1000
0100
1000
0000
,  // measure 63
0001
0010
0001
0010
0001
0010
0001
0000
,  // measure 64
0100
0001
0100
0000
0010
1000
0010
0000
,  // measure 65
0001
1000
0001
0100
0010
1000
0100
0010
,  // measure 66
2002
0000
0000
0000
,  // measure 67
0000
0000
0000
0000
,  // measure 68
0000
0000
0000
0000
,  // measure 69
0000
0000
0000
0000
,  // measure 70
0000
0000
0000
0000
,  // measure 71
0000
0000
0000
0000
,  // measure 72
0000
0000
0000
0000
,  // measure 73
0000
0000
0000
3003
,  // measure 74
1001
0101
1001
1010
,  // measure 75
1100
1010
1001
0101
,  // measure 76
0010
0001
0010
0100
,  // measure 77
1000
0000
0010
0000
0100
0010
0100
0000
,  // measure 78
1010
1001
1010
1100
,  // measure 79
0101
0110
0101
1100
,  // measure 80
0010
1000
0100
0010
,  // measure 81
0001
0000
0100
0000
0001
1000
0001
0000
,  // measure 82
1010
0101
1001
1010
,  // measure 83
1100
0110
0011
0101
,  // measure 84
0010
1000
0100
1000
,  // measure 85
0010
0000
0100
0000
0001
1000
0001
0000
,  // measure 86
1000
0100
1000
0000
0001
0010
0001
0000
,  // measure 87
1000
0010
1000
0000
0001
0100
0001
0000
,  // measure 88
2002
3003
0000
0000
0000
0000
0000
0000
0202
0303
0000
0000
0000
0000
0000
0000
0022
0033
0000
0000
0000
0000
0000
0000
0202
0303
0000
0000
0000
0000
0000
0000
2002
3003
0000
0000
0000
0000
0000
0000
2020
3030
0000
0000
0000
0000
0000
0000
2200
3300
0000
0000
0000
0000
0000
0000
2020
3030
0000
0000
0000
0000
0000
0000
,  // measure 89
1001
0100
0100
1000
,  // measure 90
0010
0010
1000
0100
,  // measure 91
0100
1000
0001
0001
,  // measure 92
0100
0010
1000
0010
,  // measure 93
0200
0001
0301
2000
,  // measure 94
0100
3100
0020
0001
,  // measure 95
0031
0200
0010
0310
,  // measure 96
1000
0100
0010
0001
,  // measure 97
0002
0100
0103
2000
,  // measure 98
0001
3001
0200
0010
,  // measure 99
0310
0002
1000
1003
,  // measure 100
1000
0100
0010
0001
,  // measure 101
1000
0100
0010
0100
,  // measure 102
0001
0001
1000
0100
,  // measure 103
1000
0010
0001
0100
,  // measure 104
0010
0100
1000
0010
,  // measure 105
2000
0000
3010
0200
,  // measure 106
0000
0301
0020
0000
,  // measure 107
0130
2000
0000
3001
,  // measure 108
0100
0010
0100
0010
,  // measure 109
2001
0000
3010
0200
,  // measure 110
0000
0301
2000
0000
,  // measure 111
3010
0002
0000
0103
,  // measure 112
0001
0010
1000
0100
,  // measure 113
2002
0000
3003
2200
,  // measure 114
0000
3300
0202
0000
,  // measure 115
0303
0220
0000
0330
,  // measure 116
1000
0100
0010
0001
,  // measure 117
2002
0000
3003
2200
,  // measure 118
0000
3300
0202
0000
,  // measure 119
0303
0220
0000
0330
,  // measure 120
1000
0100
0010
0001
,  // measure 121
0200
1000
0001
1300
,  // measure 122
0020
0001
1000
0031
,  // measure 123
2000
0010
0001
3010
,  // measure 124
0200
1000
0001
1300
,  // measure 125
0020
0100
1000
0130
,  // measure 126
2002
0000
0000
0000
,  // measure 127
0000
0000
0000
0000
,  // measure 128
0000
0000
0000
0000
,  // measure 129
0000
0000
0000
0000
,  // measure 130
0000
0000
0000
0000
,  // measure 131
0000
0000
0000
0000
,  // measure 132
0000
0000
0000
0000
,  // measure 133
0000
0000
0000
0000
,  // measure 134
0000
0000
0000
0000
,  // measure 135
3003
0000
0000
0000
;
