#TITLE:1-2-3;
#SUBTITLE:;
#ARTIST:Captain Jack;
#TITLETRANSLIT:;
#SUBTITLETRANSLIT:;
#ARTISTTRANSLIT:;
#CREDIT:Plaguefox (gamecast.org/plaguemix);
#BANNER:123-bn.png;
#BACKGROUND:123-bg.jpg;
#LYRICSPATH:;
#CDTITLE:pm3cd.png;
#MUSIC:123.ogg;
#OFFSET:0.007;
#SAMPLESTART:26.482;
#SAMPLELENGTH:13.314;
#SELECTABLE:YES;
#BPMS:0.000=145.020;
#STOPS:;
#BGCHANGES:;

//---------------dance-single - HEAVY----------------
#NOTES:
     dance-single:
     HEAVY:
     Hard:
     7:
     0.424,0.465,0.449,0.110,0.082: // measure 1
0000
0000
0000
0000
,  // measure 2
0000
0000
0000
0000
,  // measure 3
0000
0000
0000
0000
,  // measure 4
0000
0000
0000
0000
,  // measure 5
1000
0000
0000
1000
0000
0000
1000
0000
0000
0000
0000
0000
0000
0000
0000
0000
,  // measure 6
0000
0001
0100
0001
0000
0000
0000
0000
,  // measure 7
0010
0000
0000
0010
0000
0000
0010
0000
0000
0000
0000
0000
0000
0000
0000
0000
,  // measure 8
0000
0000
0000
1001
,  // measure 9
0000
0000
0010
0000
0000
0100
0000
0000
0001
0000
0000
0010
0000
0000
0100
0000
,  // measure 10
0000
0000
0010
0000
0000
0100
0000
0000
1000
0000
0000
0010
0000
0000
0100
0000
,  // measure 11
0000
0000
0010
0000
0000
0100
0000
0000
0001
0000
0000
0010
0000
0000
0100
0000
,  // measure 12
0000
0000
0010
0000
0000
0100
0000
0000
1000
0000
0000
0010
0000
0000
0100
0000
,  // measure 13
0000
0000
0100
0000
0000
0010
0000
0000
1000
0000
0000
0100
0000
0000
0010
0000
,  // measure 14
0000
0000
0100
0000
0000
0010
0000
0000
0001
0000
0000
0100
0000
0000
0010
0000
,  // measure 15
0000
0000
0100
0000
0000
0010
0000
0000
1000
0000
0000
0100
0000
0000
0010
0000
,  // measure 16
0000
0000
0100
0000
0000
0010
0000
0000
0001
0000
0000
0100
0000
0000
0010
0000
,  // measure 17
1001
0000
1001
0000
1001
0000
1000
0100
,  // measure 18
0010
0100
1000
0001
0000
0000
0100
0000
,  // measure 19
1001
0000
1001
0000
1001
0000
0001
0010
,  // measure 20
0100
0010
0001
1000
0000
0000
0000
0000
,  // measure 21
1000
0001
1000
0000
1001
0000
0010
0100
,  // measure 22
1000
0100
0010
0001
0000
0000
0110
0000
,  // measure 23
1001
0000
1001
0000
1001
0000
1000
0001
,  // measure 24
0000
1000
0001
0100
0010
1000
0001
0000
,  // measure 25
0002
0010
0100
0013
,  // measure 26
2000
0010
0100
3010
,  // measure 27
0002
0010
0100
1003
,  // measure 28
2000
0100
0001
3010
,  // measure 29
0020
0100
1000
0130
,  // measure 30
0200
0010
0001
0310
,  // measure 31
0002
0010
0100
1000
,  // measure 32
0013
0000
0100
0000
1000
0001
1000
0000
,  // measure 33
1001
0000
0000
1010
0000
0000
0101
0000
,  // measure 34
0000
0010
0000
0000
1000
0100
1000
0000
,  // measure 35
1001
0000
0000
0101
0000
0000
1010
0000
,  // measure 36
0000
0100
0000
0000
0001
0010
0001
0000
,  // measure 37
1100
0000
0000
1001
0000
0000
1010
0000
,  // measure 38
0000
1000
0000
0000
1000
0010
0100
0000
,  // measure 39
0101
0000
0000
1001
0000
0000
0011
0000
,  // measure 40
0000
1000
0100
0010
,  // measure 41
0001
0000
0001
0000
1000
0100
0010
0001
,  // measure 42
1000
0000
1000
0000
0001
0010
0100
1000
,  // measure 43
0001
0000
0001
0000
1000
0100
0010
0100
,  // measure 44
1000
0000
0001
1000
0000
0010
1000
0100
,  // measure 45
0020
0000
0031
0000
1000
0100
0010
0001
,  // measure 46
0200
0000
0310
0000
1000
0001
0010
0100
,  // measure 47
2000
0000
3100
0000
0010
0001
1000
0010
,  // measure 48
0000
0200
0000
0000
,  // measure 49
0301
0000
0101
0000
1001
0000
0001
0010
,  // measure 50
0100
0010
0001
1000
0000
0000
0010
0000
,  // measure 51
1100
0000
1010
0000
1001
0000
1000
0100
,  // measure 52
0010
0100
1000
0001
0100
0000
0100
0000
,  // measure 53
0001
1000
0001
0000
1100
0000
0100
0010
,  // measure 54
0001
0010
0100
1000
0000
0000
0101
0000
,  // measure 55
1010
0000
0101
0000
1010
0000
0000
0200
,  // measure 56
0000
0301
1000
0010
0100
0001
1000
0000
,  // measure 57
1001
0000
0000
0101
0000
0000
1010
0000
,  // measure 58
0000
0100
0000
0000
0001
0010
0001
0000
,  // measure 59
1001
0000
0000
1010
0000
0000
0101
0000
,  // measure 60
0000
0010
0000
0000
1000
0100
1000
0000
,  // measure 61
0011
0000
0000
1001
0000
0000
0101
0000
,  // measure 62
0000
0001
0000
0000
0001
0100
0010
0000
,  // measure 63
1010
0000
0000
1001
0000
0000
1100
0000
,  // measure 64
0110
0011
0101
0000
;

//---------------dance-single - STANDARD----------------
#NOTES:
     dance-single:
     STANDARD:
     Medium:
     6:
     0.400,0.407,0.128,0.275,0.000:
0000
0000
0000
0000
,
0000
0000
0000
0000
,
0000
0000
0000
0000
,
0000
0000
0000
0000
,
0000
0000
0000
0000
,
0000
0000
0000
0000
,
0000
0000
0000
0000
,
0000
0000
0000
1001
,
0100
0000
0100
0000
0010
0000
0001
1000
,
1000
0000
0100
0000
0100
0000
0010
0001
,
0001
0000
0100
0000
0100
0000
0010
1000
,
1000
0100
0100
0010
,
1001
0000
0010
0000
0100
0000
1000
0001
,
0001
0000
0010
0000
0010
0000
0100
1000
,
1000
0000
0010
0000
0010
0000
0100
0001
,
0001
0010
2000
3010
,
0001
0000
0001
0000
0001
0000
0100
0001
,
0100
0000
0001
0100
0001
0000
0100
0000
,
1000
0000
1000
0000
1000
0000
0010
1000
,
0010
0000
1000
0010
1000
0010
1000
0000
,
0010
0000
0010
0000
0010
0000
0100
0010
,
0100
0000
0010
0100
0010
0000
0100
0000
,
0100
0000
0100
0000
0100
0000
0001
0100
,
0001
0000
0100
0001
0100
0001
0100
0010
,
2000
3100
2000
3100
,
0020
0130
0020
0130
,
0002
0103
0002
0103
,
0020
0000
0130
0000
0010
0001
0100
0000
,
0002
0103
0002
0103
,
0020
0130
0020
0130
,
2000
3100
2000
3100
,
0020
0000
0130
0000
0010
1000
0100
0000
,
1010
0110
1010
0000
,
0010
0010
0010
0100
,
0101
0110
0101
0000
,
0100
0100
0100
0010
,
1010
1001
1100
0000
,
0010
0010
0010
0100
,
0101
1001
0011
0000
,
0100
0100
0100
0000
,
0010
0000
0010
0000
0010
1000
0010
1000
,
0100
0000
0100
0000
0100
0010
0100
0010
,
0001
0000
0001
0000
0001
0100
0001
0100
,
0010
1000
0100
0010
,
0001
0000
0001
0000
0001
0100
0001
0100
,
0010
0000
0010
0000
0010
1000
0010
1000
,
0100
0000
0100
0000
0100
0010
0100
0010
,
0001
0002
1000
1003
,
1000
0000
1000
0000
1000
0000
0010
1000
,
0010
0000
1000
0010
1000
0000
0010
0000
,
0001
0000
0001
0000
0001
0000
0100
0001
,
0100
0000
0001
0100
0001
0100
0001
0000
,
0100
0000
0100
0000
0100
0000
0010
0100
,
0010
0000
0100
0010
0100
0000
0010
0000
,
0010
0000
0010
0000
0010
0000
1000
0010
,
1000
0000
0010
1000
0010
1000
0010
0100
,
0002
0013
0002
0013
,
0200
0310
0200
0310
,
2000
3010
2000
3010
,
0200
0000
0310
0000
0100
1000
0010
0000
,
2000
3010
2000
3010
,
0200
0310
0200
0310
,
0002
0013
0002
0013
,
0200
0010
0310
0000
,;

//---------------dance-single - LIGHT----------------
#NOTES:
     dance-single:
     LIGHT:
     Easy:
     4:
     0.251,0.320,0.110,0.037,0.000:
0000
0000
0000
0000
,
0000
0000
0000
0000
,
0000
0000
0000
0000
,
0000
0000
0000
0000
,
0000
0000
0000
0000
,
0000
0000
0000
0000
,
0000
0000
0000
0000
,
0000
0000
0000
1001
,
1000
0000
1000
0000
,
0001
0000
0001
0000
,
1000
0000
0001
0000
,
1000
0000
1000
1001
,
0001
0000
0001
0000
,
1000
0000
1000
0000
,
0001
0000
1000
0000
,
0001
0000
0001
0100
,
1000
1000
1000
0000
,
0010
0010
0100
0010
,
0001
0001
0001
0000
,
0010
0010
0100
0010
,
1000
1000
1000
0000
,
0100
0100
0010
0100
,
0001
0001
0001
0000
,
0100
0100
0010
0100
,
1001
0000
0100
0000
,
0001
0100
0001
0000
,
1001
0000
0100
0000
,
1000
0100
1000
0010
,
1001
0000
0010
0000
,
1000
0010
1000
0000
,
1001
0000
0010
0000
,
1000
0010
1000
0100
,
0001
0000
0000
0001
0000
0000
0001
0000
,
0000
0001
0000
0000
1000
0000
1000
0000
,
1000
0000
0000
1000
0000
0000
1000
0000
,
0000
1000
0000
0000
0100
0000
0100
0000
,
0100
0000
0000
0100
0000
0000
0100
0000
,
0000
0100
0000
0000
0010
0000
0010
0000
,
0010
0000
0000
0010
0000
0000
0010
0000
,
0010
0100
1000
0100
,
1000
1000
0010
0100
,
0010
0010
0100
0001
,
0100
0100
0001
1000
,
0001
0100
0001
0010
,
0002
0013
0001
0100
,
0020
0130
0010
1000
,
0200
0310
0100
0010
,
0001
2000
0000
0000
,
3001
0001
0001
0000
,
0100
0100
0010
0100
,
1000
1000
1000
0000
,
0100
0100
0010
0100
,
0001
0001
0001
0000
,
0010
0010
0100
0010
,
1000
1000
1000
0000
,
0010
0010
0100
0010
,
1001
0000
0000
0100
0000
0000
0100
0000
,
0000
0100
0000
0000
0100
0000
0100
0000
,
1001
0000
0000
0010
0000
0000
0010
0000
,
0000
0010
0000
0000
0010
0000
0010
0000
,
0110
0000
0000
1000
0000
0000
1000
0000
,
0000
1000
0000
0000
1000
0000
1000
0000
,
0110
0000
0000
0001
0000
0000
1001
0000
,
0010
0100
1001
0000
;
