#TITLE:inkey$;
#SUBTITLE:;
#ARTIST:Aphex Twin;
#TITLETRANSLIT:;
#SUBTITLETRANSLIT:;
#ARTISTTRANSLIT:;
#CRChallenge:;
#BANNER:inkey.jpg;
#BACKGROUND:inkey-bg.jpg;
#LYRICSPATH:;
#CDTITLE:;
#MUSIC:inkey.mp3;
#OFFSET:-0.058;
#SAMPLESTART:17.050;
#SAMPLELENGTH:15.000;
#SELECTABLE:YES;
#BPMS:0.000=170.000;
#STOPS:;
#BGCHANGES:;
#NOTES:
     dance-single:
     Spectere:
     Challenge:
     14:
     1.000,1.000,0.843,1.000,1.000:
0000
0000
0000
0000
,
0000
0000
0000
0000
,
0000
0000
0000
0000
0000
0000
0000
0000
0000
0000
0000
0000
0000
0000
0000
0000
0000
0000
0000
0000
0000
0000
0000
0000
0000
0000
0000
0000
0000
0000
0000
0000
0000
0000
0000
0000
0000
0000
0000
0000
0000
0000
0000
0000
0000
0000
0000
0000
0000
0000
0000
0000
0000
0000
0000
0000
0000
0000
0000
0000
0000
0000
0000
0000
0000
0000
0000
0000
0000
0000
0000
0000
0000
0000
0000
0000
0000
0000
0000
0000
0000
0000
0000
0000
0000
0000
0000
0000
0000
0000
0000
0000
0000
0000
0000
0000
000M
0000
0000
0000
M0M0
0000
0000
0000
0M00
0000
0000
0000
000M
0000
0000
0000
00M0
0000
M000
0000
0000
0000
0000
0000
00M0
0000
0000
0000
0000
0000
0M0M
0000
0000
0000
0000
0000
M000
0000
0000
0000
00M0
0000
0000
0000
0000
0000
0000
0000
000M
0000
0000
0000
0000
0000
0000
0000
0M00
0000
0000
0000
0000
0000
0000
0000
M0M0
0000
0000
0000
0000
0000
0000
0000
000M
0000
0000
0000
0000
0000
0000
0000
M000
0000
0000
0000
000M
0000
0000
0000
0000
0000
0000
0000
0000
0000
0000
0000
,
0M00
0000
00M0
0000
000M
0000
M000
0000
00M0
0000
0M00
0000
0000
0000
000M
0000
00M0
0000
M000
0000
0000
000M
0000
0000
,
1000
0100
1000
0010
0200
000M
0300
0000
0002
M000
0003
0100
0010
0000
000M
0000
,
2000
000M
3000
0000
0100
0000
0000
0000
2000
0000
3M00
0000
0010
0000
0000
0000
0201
0000
00M0
0000
0300
0000
0001
0000
0020
0000
0M00
0000
0030
0000
0000
0000
,
0002
0000
0000
0000
0003
0000
M000
0000
0010
0000
0001
0000
0000
0000
2000
0000
0200
0000
00M0
0000
330M
0000
0000
0000
0200
000M
0000
0000
0300
0000
0000
0000
,
0022
0M00
0000
0000
M000
0000
0030
0000
0200
0000
0000
0000
00M0
0000
0303
0000
2002
0000
0M00
0000
3003
0000
0000
0000
2200
0000
000M
0000
3300
0000
0000
0000
,
0002
02M3
0000
0000
M002
0003
00M0
0300
0022
M000
0033
0000
0202
00M0
0303
0000
,
2001
0000
0M00
0000
3000
0000
0000
0000
1100
000M
0100
0000
0010
0000
M001
0000
0100
0000
00M2
0000
0000
0000
0003
0000
0220
0000
M000
0000
0330
0000
0000
0000
,
2100
0000
3000
000M
1000
0000
0100
0000
0010
0000
0001
0000
0000
M000
0001
0000
0100
0000
0010
0000
100M
0000
0000
0000
2002
0000
0M00
0000
3003
0000
0000
0000
,
0020
1030
010M
0000
0020
M031
0100
0010
0002
0003
M010
0000
2020
0M00
303M
0000
,
2002
0000
3M03
0000
1000
0000
0010
0000
0001
0000
M010
0000
0100
0000
0010
000M
1000
0000
0100
0000
1000
0000
0001
0000
0010
0000
0001
0000
0100
0000
0001
0000
,
M010
0000
0001
0000
0010
0M00
0001
0000
1000
0000
0010
0000
0100
0000
M001
0000
0010
0000
0001
0000
1000
0000
0010
0000
0100
M000
0001
0000
0100
0000
1000
0000
,
010M
0000
0010
0000
0100
0000
0001
M000
0010
0000
0100
0000
0010
0000
0001
0000
1000
0000
0010
0000
0100
0000
1000
0000
0100
0000
0001
0000
0010
M000
0100
0000
,
0001
0000
0100
0000
1000
0000
0010
0000
0100
M000
0001
0000
0010
0000
0100
0000
1000
0000
0001
0000
0100
0000
1000
0000
010M
0000
0010
0000
0100
0000
0001
0000
,
0010
0000
0100
0000
M001
0000
0100
0000
0020
000M
0000
M000
0030
0000
0000
0000
0202
00M0
0300
0000
0003
0000
0010
0000
0002
0000
M003
0000
0000
0000
0000
0000
,
2M12
0000
3003
0000
2000
0M00
3010
0000
1020
000M
0030
0100
0002
00M0
M003
0000
,
0022
0000
0M00
0000
0033
0000
0000
0000
0002
M000
0013
0000
0000
0000
0100
0000
2000
0000
3000
00M0
0002
0000
0000
0000
2003
0000
0M00
0000
3000
0000
0000
0000
,
2020
0M00
303M
0000
0202
M000
0303
0000
2002
0M00
3003
0000
0220
000M
0330
0000
,
2010
0M00
0000
000M
0200
00M0
3300
0000
0022
M000
0033
0000
2002
0M00
3003
0000
,
2200
0000
03M0
3000
0100
100M
0010
0100
0001
0020
0000
M000
0002
0M00
0033
0000
,
1001
00M0
0000
0000
1000
0000
0001
0000
0100
0000
M000
0000
0100
0000
0001
0M00
1000
0000
0010
0000
1000
0000
0000
0000
2200
0000
000M
0000
3300
0000
0000
0000
,
1002
0000
00M3
0000
0100
001M
1000
0000
0001
00M0
0000
0M00
2002
00M0
3003
0000
,
0102
M003
0010
0001
0100
M010
0100
0001
1000
0100
1000
0001
0010
0100
M001
0100
,
0010
0000
0001
0000
1000
0000
0010
0000
0100
0000
0010
0000
0001
0000
1000
0000
0100
0000
0001
0000
0010
M000
0001
0000
0100
0000
0010
0000
1000
0000
0001
0000
,
0100
0010
1000
0100
1000
0010
0100
0001
M010
0100
0010
0001
1000
0010
1000
0100
,
0010
0000
0001
M000
0100
0000
0010
0000
0001
0000
0010
0000
1000
0000
0100
0000
1000
0000
0001
0000
0100
0000
0001
0000
1000
0000
0001
0000
0010
0000
1000
0000
,
0010
0100
0001
0100
20M0
0000
3000
0000
2002
00M0
3003
0100
0001
0000
0000
0000
,
0202
00M0
M303
0000
0022
0M30
0013
0000
0200
M000
030M
0100
20M0
000M
3000
0000
,
0020
0000
0M00
0000
0031
0000
0000
0000
0020
M000
0130
0000
0000
0000
0001
0000
2M00
0000
0000
0000
30M0
0000
0000
0000
0002
0000
0M00
0000
0003
0000
0000
0000
,
02M2
M000
0303
0000
0220
000M
0330
0000
2020
0M00
3030
0000
220M
0000
33M0
0000
,
1002
0M00
0003
0000
202M
0000
3M30
0000
0202
00M0
0303
0000
0022
M000
0033
0000
,
2100
000M
3000
0M00
0020
100M
0030
1000
0002
0000
0M03
0000
2020
0M00
3030
0000
,
1002
00M0
1003
0000
020M
0000
M300
0010
0001
1000
0010
0000
22M0
0000
3300
000M
,
1200
000M
M300
00M0
1000
0001
01M0
0000
0002
0M00
0003
0000
0020
M000
003M
0M00
,
1001
0100
1000
0001
0010
0001
M100
0010
0001
0010
0100
1000
0100
0001
0010
0100
,
1000
0000
0100
0000
0001
0000
M100
0000
0010
0000
0100
000M
1000
0000
0010
0000
0100
0000
0001
0000
1000
0000
0010
0000
0100
0000
0001
0000
0010
0000
1000
0000
,
001M
0100
0010
0001
0100
0010
1000
0001
0010
M001
0100
0010
100M
0100
1000
0001
,
1000
0010
0100
1000
010M
1000
0100
0010
0100
0001
M010
0001
0100
0010
1000
010M
,
0010
1000
0010
0100
M002
00M0
0M00
0M00
M0M0
00M0
0M03
M0M0
000M
00M0
0000
M000
,
0200
000M
0300
0000
20M0
0000
3100
0000
1100
000M
0000
M010
0210
000M
0300
0000
,
M002
0M00
0003
M000
0110
010M
0000
10M0
2002
0M00
3003
000M
2200
00M0
33M0
0000
,
2M02
00M0
3000
0M00
0020
M000
0M30
0003
M220
0000
033M
0000
22M0
0000
330M
0000
,
10M1
0000
0M01
1000
020M
0000
13M0
0000
2010
000M
3M00
0001
0200
M000
03M0
0000
,
1002
0M00
0013
M000
0002
01M0
0003
0M10
2000
000M
3000
00M0
0200
000M
M300
0000
,
20M2
0000
3M00
0000
M210
0000
03M3
0000
M022
0000
0M33
0000
20M2
0M00
3003
00M0
,
2200
0010
330M
0000
2M20
0000
3M30
0000
02M2
0000
M303
0000
20M2
0000
3M03
0000
,
221M
0000
33M0
0000
1000
00M1
1000
0010
0200
M000
0300
0000
0022
M000
0033
0M00
,
2001
3000
01M0
1000
0020
000M
0030
0100
M001
0010
0001
0M00
2002
0M00
30M3
0000
,
2000
3100
100M
0000
10M0
0001
0010
M002
0200
03M3
0000
0000
2M20
0000
303M
0000
,
M0M0
0M0M
M0M0
0M0M
M0M0
0M0M
M0M0
0M0M
M0M0
0M0M
M0M0
0M0M
M0M0
0M0M
M0M0
0M0M
M0M0
0M0M
M0M0
0M0M
M020
0M0M
M000
0M0M
,
M000
0000
0M0M
0000
M000
0000
0M0M
0000
M000
0000
0M0M
0000
M000
0000
0M0M
0000
M000
0000
0M0M
0000
M000
0000
0M0M
0000
M030
0000
020M
0000
M0M0
0000
000M
0000
M0M0
0000
000M
0000
M0M0
0000
000M
0000
M0M0
0000
030M
2000
00M0
0000
0M0M
0000
,
00M0
0M0M
30M0
0M0M
M0M0
020M
M0M0
000M
M0M0
000M
M0M0
000M
M0M0
000M
M0M0
000M
M0M0
000M
M0M0
000M
M0M0
000M
M0M0
030M
,
M0M0
0M0M
M0M0
0M0M
M0M0
0M0M
M0M0
0M0M
M0M0
0M0M
M0M0
0M0M
M0M0
0M0M
M0M0
0M0M
M0M0
0M0M
M0M0
0M0M
M0M0
0M0M
M0M0
0M0M
,
M0M0
0000
0000
0000
;
