#TITLE:Your Man;
#SUBTITLE:;
#ARTIST:Smash Mouth;
#TITLETRANSLIT:;
#SUBTITLETRANSLIT:;
#ARTISTTRANSLIT:;
#CRChallenge:;
#BANNER:;
#BACKGROUND:;
#LYRICSPATH:;
#CDTITLE:;
#MUSIC:man.ogg;
#OFFSET:0.000;
#SAMPLESTART:45.668;
#SAMPLELENGTH:12.000;
#SELECTABLE:YES;
#BPMS:0.000=135.325,103.000=138.005,139.000=135.505,174.000=137.995,198.000=138.595;
#STOPS:102.000=0.443
,173.000=0.443
;
#BGCHANGES:;
#NOTES:
     dance-single:
     Renard:
     Challenge:
     10:
     0.765,0.835,1.000,0.224,0.364:
0000
0000
0000
0000
,
0000
0000
0000
0000
,
0001
0100
1000
0100
0001
0100
1000
0100
,
0001
0010
1000
0010
0001
0010
1000
0010
,
0001
0100
1000
0100
0001
0100
1000
0100
,
0001
0010
1000
0010
0001
0100
1000
0100
,
0001
1000
0100
0001
0100
1000
0100
0001
,
0100
1000
0010
0001
0010
1000
0010
0001
,
0010
1000
0100
0001
0100
1000
0100
0001
,
0100
1000
0010
0001
0010
1000
0010
0100
,
0101
0010
1100
0000
0010
1000
0100
0010
,
0011
0100
1010
0000
1000
0010
0100
0001
,
0011
0100
1010
0000
1000
0010
0100
0001
,
0101
0010
1100
0000
1100
0010
0101
0000
,
0101
0010
1100
1000
0010
0100
0001
0000
,
0011
0100
1010
0000
1000
0010
0100
0001
,
1100
0010
0101
0000
0101
0010
1100
0000
,
1100
0000
0010
0000
1001
0000
0000
0000
0101
0000
0000
0000
1000
0000
0002
0200
,
2000
0000
0000
0000
3303
0000
0000
0000
0000
0000
0000
0000
0000
0000
2000
0200
,
0002
0000
0000
0000
3303
0000
0000
0000
0000
0000
0000
0000
0000
0000
0002
0020
,
2000
0000
0000
0000
3033
0000
0000
0000
0000
0000
0000
0000
0000
0000
2000
0020
,
0002
0000
0000
0000
3033
0000
0000
0000
0000
0000
0000
0000
0000
0000
0002
0200
,
2000
0000
0000
0000
3303
0000
0000
0000
0000
0000
0000
0000
0000
0000
2000
0200
,
0002
3303
0000
0000
,
1001
0000
0111
0000
1001
1001
1001
1001
,
1001
1001
1001
1001
1001
0000
0111
0000
,
1110
0111
1110
0111
,
1110
0111
1110
1101
,
0111
1101
0111
1101
,
1011
1101
1011
0111
,
1110
0111
1110
0111
,
1110
0111
1110
1101
,
0111
1101
0111
1101
,
1011
0000
1101
0000
1011
0000
1001
1001
,
0110
0000
0110
0000
1001
0000
1001
0000
0110
0000
0110
0000
0001
1000
0001
1000
,
0001
1000
0001
1000
0001
1000
0001
1000
0001
1000
0001
1000
0100
1000
0100
1000
,
0100
1000
0100
1000
0100
1000
0100
1000
0100
1000
0100
1000
0001
1000
0001
1000
,
0001
1000
0001
1000
0001
1000
0001
1000
0001
1000
0001
1000
0001
0100
0001
0100
,
0001
0100
0001
0100
0001
0100
0001
0100
0001
0100
0001
0100
0001
1000
0001
1000
,
0001
1000
0001
1000
0001
1000
0001
1000
0001
1000
0001
1000
0100
1000
0100
1000
,
0100
1000
0100
1000
0100
1000
0100
1000
0100
1000
0100
1000
0001
1000
0001
1000
,
0001
1000
0001
1000
0001
1000
0001
1000
0001
1000
0001
1000
0001
0100
0001
0100
,
0001
1000
0001
1000
0100
1000
0100
1000
0001
1000
0001
1000
0001
0100
0001
1000
,
0100
1000
0001
0000
1001
0000
0000
0000
0111
0000
0000
0000
1110
0000
0000
0000
,
0111
1110
1101
1011
,
1101
1011
1101
1011
,
1101
1011
1101
1011
,
1101
1011
0111
1110
,
0111
1110
1101
1110
,
1011
0111
1011
0111
,
1110
1101
0111
1011
,
1110
0000
1101
0000
2001
3010
1002
0013
,
2001
0000
3010
0000
1002
0000
0013
0000
0001
0100
1000
0000
0001
0010
1000
0000
,
0100
0001
0100
1000
0001
0010
0100
0000
2002
0000
0000
0000
0000
0000
0000
0000
,
0000
3003
0000
0000
;
