#TITLE:You Know Me;
#SUBTITLE:;
#ARTIST:D-Mode-D feat. Colson + Yuki;
#TITLETRANSLIT:;
#SUBTITLETRANSLIT:;
#ARTISTTRANSLIT:;
#CRChallenge:;
#BANNER:know.png;
#BACKGROUND:know-bg.png;
#LYRICSPATH:;
#CDTITLE:;
#MUSIC:know.ogg;
#OFFSET:0.000;
#SAMPLESTART:65.624;
#SAMPLELENGTH:12.000;
#SELECTABLE:YES;
#BPMS:0.000=95.000,16.000=190.000,96.000=95.000,112.000=190.000,304.000=95.000,320.000=190.000;
#STOPS:;
#BGCHANGES:;
#NOTES:
     dance-single:
     Renard:
     Medium:
     9:
     0.662,0.716,0.111,0.264,0.106:
0000
0000
0000
0000
,
0000
0000
0000
0000
,
0000
0000
0000
0000
,
0000
0000
0000
0000
,
0001
1000
0100
1000
0001
1000
0100
1000
,
0001
1000
0100
1000
0001
1000
0100
1000
,
0001
1000
0001
0100
0001
1000
0001
0100
,
0001
1000
0010
0010
0100
0000
1001
0000
,
1000
0010
0100
0000
0010
0100
0001
0000
,
0010
0100
0010
0000
0001
0100
0010
0000
,
1000
0100
0010
0000
0100
1000
0010
0000
,
0100
0001
0010
0000
0100
0010
0001
0000
,
0100
0010
1000
0100
0010
0100
1000
0010
,
0100
0001
0010
0100
0010
0001
0100
0010
,
1000
0100
0010
0000
0100
1000
0010
0000
,
0100
0010
1000
0000
0100
0010
0100
0000
,
1000
0010
0100
0001
0010
0000
0110
0000
,
0010
0001
0100
0010
1000
0000
1010
0000
,
1000
0100
0010
0001
0100
0000
0110
0000
,
0100
0001
0010
0100
1000
0000
1100
0000
,
1000
0010
0100
0001
0010
0000
0011
0000
,
0001
0100
0010
1000
0100
0000
0110
0000
,
0100
1000
0010
0100
0001
0000
0011
0000
,
0001
0100
0010
1000
0100
0000
0110
0000
,
0100
1000
0001
0200
0000
0000
0000
0000
0310
1000
0100
0020
0000
0000
0000
0000
,
0031
0100
0010
2000
0000
0000
0000
0000
3010
0100
0001
0020
0000
0000
0000
0000
,
0031
1000
0100
0020
0000
0000
0000
0000
0130
1000
0010
0200
0000
0000
0000
0000
,
0301
0010
0200
0000
0000
0000
0000
0000
2000
0000
0000
0000
0000
0000
3311
0000
,
1000
0100
1000
0100
0010
0100
0010
0100
,
0010
0001
0010
0001
0100
0001
0100
0001
,
0100
0010
0100
0010
1000
0010
1000
0010
,
1000
0100
1000
0100
0010
0100
0010
0100
,
0010
0001
0010
0000
1000
0010
1000
0000
,
0010
0100
0010
0000
0100
0001
0100
0000
,
1000
0100
1000
0000
0010
1000
0010
0000
,
0001
0010
0100
1000
0100
0001
0100
0000
,
0001
0010
0001
0010
0100
0010
0100
0010
,
0100
1000
0100
1000
0001
1000
0001
1000
,
0001
0100
0001
0100
0010
0100
0010
0100
,
0010
1000
0010
1000
0001
0100
0001
0100
,
0010
1000
0010
0000
1000
0100
1000
0000
,
0100
0001
0100
0000
0010
0001
0010
0000
,
1000
0010
0001
0010
1000
0010
0001
0010
,
0100
0001
0100
1000
0100
0000
1100
0000
,
2000
0200
0010
3301
,
0002
0200
0010
1303
,
2000
0200
0010
3301
,
0002
0200
0010
1303
,
0001
0100
1000
0000
0001
0010
1000
0000
,
0001
0100
1000
0000
0001
0010
1000
0000
,
0001
0100
0001
0100
0001
0100
0001
0100
,
0010
1000
0010
1000
0010
1000
0010
1000
,
0200
2000
0010
3301
,
0200
0002
0010
1303
,
0200
2000
0010
3311
,
0200
0002
0010
1303
,
1000
0100
0010
1000
0001
0100
0010
0001
,
1000
0100
0010
1000
0001
0100
0010
0001
,
1000
0100
0010
1000
0001
0100
0010
0001
,
1000
0100
0010
1000
0001
0100
0010
0000
,
0010
0001
0100
0000
0010
1000
0100
0000
,
0010
0001
0100
0000
0010
1000
0100
0000
,
0010
0100
0010
0100
0010
0100
0010
0100
,
1000
0100
1000
0100
1000
0100
1000
0100
,
1000
0010
0001
0000
1000
0100
0001
0000
,
0010
0100
0001
0000
0100
1000
0010
0000
,
0100
1000
0100
0001
0010
0100
0001
0100
,
1000
0010
0100
0001
0010
0100
0010
0000
,
0001
0010
0001
0000
1000
0010
1000
0000
,
0001
0100
0001
0000
1000
0100
1000
0000
,
0001
0010
1000
0001
0100
1000
0001
0100
,
1000
0001
0010
1000
0100
0001
0100
0000
,
1000
0010
0100
0001
0010
0100
0010
0000
,
0010
0001
0100
0010
1000
0100
0010
0000
,
0100
0100
1000
1000
0010
0010
0100
0100
,
0001
1000
0100
0010
0001
0000
1001
0000
,
0001
0100
0010
2000
0000
0000
0000
0000
3010
0100
0001
2000
0000
0000
0000
0000
,
3001
0100
0010
2000
0000
0000
0000
0000
3010
0100
0001
2000
0000
0000
0000
0000
,
3100
0100
0010
0002
0000
0000
0000
0000
0013
0100
1000
0002
0000
0000
0000
0000
,
2000
0000
0000
0000
,
3003
0000
0000
0000
;
#NOTES:
     dance-single:
     Renard:
     Easy:
     6:
     0.400,0.579,0.009,0.324,0.000:
0000
0000
0000
0000
,
0000
0000
0000
0000
,
0000
0000
0000
0000
,
0000
0000
0000
0000
,
0001
0001
1000
1000
,
0001
0001
1000
1000
,
0001
0001
1000
1000
,
0001
0100
0010
1000
0001
0000
1001
0000
,
1000
0000
1000
0000
0100
1000
0100
0000
,
1000
0000
1000
0000
0100
1000
0100
0000
,
1000
0000
1000
0000
0100
1000
0100
0000
,
1000
0000
1000
0000
0100
1000
0100
0000
,
1000
0000
0010
0000
,
0100
0000
0001
0000
,
0010
0001
0010
0001
0010
0001
0010
0001
,
0010
0001
0010
0001
0010
0001
0010
0001
,
0010
0000
0010
0000
0001
0100
0001
0000
,
0010
0000
0010
0000
0001
0100
0001
0000
,
0010
0000
0010
0000
0001
0100
0001
0000
,
0010
0000
0010
0000
0001
0100
0001
0000
,
0100
0100
0010
0010
,
1000
1000
0001
0001
,
1000
0100
1000
0100
1000
0100
1000
0100
,
1000
0100
1000
0100
1000
0000
0100
0000
,
2000
0000
3200
0000
,
0320
0000
0000
0000
0032
0000
0000
0003
,
0002
0000
0023
0000
,
0230
0000
0000
0000
2300
0000
0000
3000
,
1000
0000
1000
0000
0100
1000
0100
0000
,
1000
0000
1000
0000
0001
1000
0001
0000
,
0100
0000
0100
0000
0001
0100
0001
0000
,
0001
0000
0001
0000
1000
0001
1000
0000
,
0100
0000
0100
0000
1000
0100
1000
0000
,
0001
0000
0001
0000
0010
0001
0010
0000
,
0001
0000
0001
0000
1000
0001
1000
0000
,
0010
0000
0010
0000
1000
0010
1000
0000
,
0001
0000
0100
0000
0001
1000
0001
0000
,
1000
0100
1000
0001
,
0100
0000
0010
0000
1000
0001
1000
0000
,
0001
0100
0010
1000
,
0001
0010
0100
1000
,
0001
0001
0100
0100
,
0010
1000
0001
0100
,
0001
1000
0001
1000
0001
0000
0000
0000
,
2000
0000
0000
0000
,
0010
0000
0001
0000
,
0100
0000
0100
0001
,
0010
0000
0010
0000
,
3002
0000
1000
0000
,
0100
0000
1000
0000
,
0010
0000
0010
0000
,
1000
0100
1000
0000
,
0203
0000
0010
0001
,
0010
0000
0010
0001
,
0010
0000
0010
0001
,
0010
0000
0010
0000
,
0320
0000
1000
0000
,
2030
0000
0001
0000
,
0002
0000
0000
0000
,
0000
0000
0000
3003
,
2000
0000
3002
0000
,
0203
0000
0320
0000
,
1030
0010
1000
0010
1000
0010
1000
0010
,
1000
0010
1000
0010
1000
0010
1000
0010
,
2000
0000
3020
0000
,
0230
0000
0302
0000
,
1003
0001
1000
0001
1000
0001
1000
0001
,
1000
0001
1000
0001
1000
0000
0001
0000
,
2000
0000
3200
0000
,
0320
0000
0032
0000
,
1003
0001
1000
0001
1000
0001
1000
0001
,
1000
0001
1000
0001
1000
0000
0001
0000
,
0200
0000
0320
0000
,
2030
0000
3002
0000
,
0000
0000
1003
0100
1000
0100
1000
0100
,
2000
0000
0000
0000
,
3200
0000
2000
0300
,
0020
3000
0200
0030
,
0002
0300
2000
0003
,
0020
0000
0000
0000
,
3030
0000
0000
0000
;
#NOTES:
     dance-single:
     Renard:
     Beginner:
     3:
     0.284,0.307,0.000,0.290,0.000:
0000
0000
0000
0000
,
0000
0000
0000
0000
,
0000
0000
0000
0000
,
0000
0000
0000
0000
,
1000
1000
0001
0001
,
1000
1000
0001
0001
,
1000
1000
0001
0001
,
1000
0001
1000
0000
,
0002
0000
0103
0100
,
0002
0000
0103
0100
,
0002
0000
0103
0100
,
0002
0000
0103
0100
,
0020
0000
2030
0000
,
3020
0000
2030
0000
,
3001
0001
0001
0001
,
0001
0001
0001
0001
,
2000
0000
3100
0100
,
2000
0000
3100
0100
,
2000
0000
3100
0100
,
2000
0000
3100
0100
,
0010
0010
0001
0001
,
0010
0010
0001
0001
,
1000
1000
1000
1000
,
1000
1000
1000
1000
,
0002
0000
0203
0000
,
0320
0000
0000
0000
,
0230
0000
0302
0000
,
2003
0000
0000
0000
,
3100
0100
0100
0000
,
1000
1000
1000
0000
,
0001
0001
0001
0000
,
0010
0010
0010
0000
,
1000
1000
1000
0000
,
0001
0001
0001
0000
,
0100
0000
0010
0000
,
1000
0000
0001
0000
,
1000
1000
1000
0000
,
0100
0100
0100
0000
,
0001
0001
0001
0000
,
0010
0010
0010
0000
,
1000
0000
0100
0000
,
0001
0000
0010
0000
,
1000
0000
0100
0000
,
0001
0010
0001
0000
,
2000
0000
0000
0000
,
0010
0000
0010
0000
,
3020
0000
0100
0000
,
0100
0000
0100
0000
,
0230
0000
0001
0000
,
0001
0000
0302
0000
,
1000
0000
1000
0000
,
1000
0000
2003
0000
,
0100
0000
0100
0000
,
0100
0000
3200
0000
,
1000
0000
1000
0000
,
1000
0000
2300
0000
,
0001
0000
0002
3000
,
0100
0000
0200
0003
,
0020
0000
0000
0000
,
0000
0000
0000
0330
,
0010
0000
0100
0010
,
0100
0000
0010
0100
,
0001
0000
1000
0000
,
0001
0001
0001
0000
,
1000
0000
0001
1000
,
0001
0000
1000
0001
,
0100
0000
0100
0000
,
0010
0000
0010
0000
,
1000
0010
1000
0010
,
1000
0010
1000
0010
,
0100
0001
0100
0001
,
0100
0001
0100
0001
,
1000
0001
1000
0001
,
1000
0001
1000
0001
,
0000
1000
0100
0010
,
0002
0000
0000
0000
,
2003
0000
3002
0000
,
2003
0000
0000
0000
,
3002
0000
2000
0000
,
0010
0000
0000
0000
,
3003
0000
0000
0000
;
