#TITLE:Yellow Brick;
#SUBTITLE:;
#ARTIST:Noisia;
#TITLETRANSLIT:;
#SUBTITLETRANSLIT:;
#ARTISTTRANSLIT:;
#CRChallenge:;
#BANNER:brick.png;
#BACKGROUND:brick-bg.png;
#LYRICSPATH:;
#CDTITLE:;
#MUSIC:brick.ogg;
#OFFSET:0.000;
#SAMPLESTART:46.629;
#SAMPLELENGTH:12.000;
#SELECTABLE:YES;
#BPMS:0.000=123.000;
#STOPS:;
#BGCHANGES:;
#NOTES:
     dance-single:
     Renard:
     Challenge:
     9:
     0.491,0.633,0.503,0.090,0.749:
0000
0000
0000
0000
,
0000
0000
0000
0000
,
0000
0000
0000
0000
,
0000
0000
0000
0000
,
1000
0000
0100
0000
1100
0000
1000
0000
0100
0000
1000
0100
1000
0000
0000
0000
,
0001
0000
0010
0000
0011
0000
0001
0000
0010
0000
0001
0010
0001
0000
0000
0000
,
0100
0000
0001
0000
0101
0000
0100
0000
0001
0000
0100
0001
0100
0000
0000
0000
,
0010
0000
1000
0000
0001
0000
1000
0000
0100
0000
0000
0000
1000
0001
0000
0001
,
20M0
0000
0M00
0000
000M
0000
00M0
0000
000M
0000
00M0
0000
,
320M
0000
M000
0000
00M0
0000
000M
0000
M000
0000
000M
0000
,
M320
0000
000M
0000
0M00
0000
M000
0000
0M00
0000
M000
0000
,
000M
0000
0M00
0000
000M
0000
M000
0000
0M00
0000
M000
0000
,
0M32
0000
M000
0000
00M0
0000
0M00
0000
00M0
0000
M000
0000
,
0M23
0000
M000
0000
000M
0000
0M00
0000
M000
0000
000M
0000
,
M230
0000
000M
0000
00M0
0000
000M
0000
M000
0000
00M0
0000
,
000M
0000
M000
0000
000M
0000
00M0
0000
000M
0000
M000
0000
,
1300
0000
0100
0000
1000
0000
0100
0000
1000
0000
0100
0000
1000
0000
0000
0000
0000
0000
0000
0000
0000
0100
0000
0000
,
1000
0001
1000
0001
1000
0001
1000
0001
1000
0001
0100
0001
,
0010
0000
0001
0000
0010
0000
0001
0000
0010
0000
0001
0000
0010
0000
0001
0000
0010
0000
0001
0000
0000
0010
0000
0000
,
0000
0001
0000
0000
0000
0010
0000
0000
0000
0001
0000
0000
0010
0000
0000
0000
0001
0000
0000
0000
0010
0000
0000
0000
,
0001
0000
0010
0000
0001
0000
0010
0000
0001
0000
0010
0000
0001
0000
0000
0000
0000
0000
0000
0000
0000
0010
0000
0000
,
0001
1000
0001
1000
0001
1000
0001
1000
0001
1000
0010
1000
,
0100
1000
0100
1000
0100
1000
0100
1000
0100
0000
0100
0000
,
0100
0000
0100
0000
0100
0000
0100
0000
0100
0000
0100
0000
,
0100
1000
0001
1001
0001
1000
0010
0000
0000
1010
0000
0000
,
0100
0001
0010
0011
0001
0100
0010
0000
0000
1010
0000
0000
,
1000
0100
0010
0210
0000
0010
0000
0010
0000
0010
0000
0010
,
0000
0310
0000
0100
1000
0100
1000
0001
1000
0001
0100
0001
,
0010
0001
1000
1001
1000
0001
0100
0000
0000
0101
0000
0000
,
0010
1000
0100
1100
1000
0010
0100
0000
0000
0101
0000
0000
,
0001
0010
0100
0120
0000
0100
0000
0100
0000
0100
0000
0000
,
0130
0000
0011
0000
0010
0100
1100
0000
,
0001
0100
0001
0101
0100
0010
1000
0000
0000
1010
0000
0000
,
1000
0100
1000
1100
1000
0100
0010
0001
0010
0011
0001
0100
,
0010
0000
1000
0000
0010
0000
1010
0000
0010
0000
0100
0000
0001
0000
0000
0000
0000
0000
1001
0000
0000
0100
0000
0000
,
0000
0100
0000
0000
0000
0100
0000
0000
0000
0100
0000
0000
0010
0000
0000
0000
0010
0000
0000
0000
0010
0000
0000
0000
,
1010
0000
0101
0000
0011
0000
1100
0000
0000
1001
0000
0000
,
1100
0000
0011
0000
0101
0000
1010
0000
0010
1000
0000
0010
,
0100
0000
0101
0000
0011
0000
1100
0000
1001
0000
1010
0000
,
0100
0000
0001
0000
0101
0000
0100
0001
0100
0000
0000
0000
0000
0000
0001
0001
,
1000
0000
1100
0000
1000
0100
1100
0000
,
0001
0000
0011
0000
0001
0010
0011
0000
,
0001
0000
0101
0000
0001
0100
0101
0000
,
0010
0000
0000
0000
1010
0000
0000
0000
0010
0000
1000
0000
0010
0010
0010
0010
,
1000
0100
1100
0100
0010
0000
0110
0000
,
0010
0001
0011
0001
0100
0000
0101
0000
,
0001
0100
0101
0100
0010
0000
0110
0000
,
0010
0000
1000
0000
1010
0000
1000
0000
0001
0000
0000
0001
0000
0000
0001
0000
,
2000
0000
0000
0000
,
0000
0000
0000
0000
,
0000
0000
0000
3000
0000
0000
0000
0000
;
#NOTES:
     dance-single:
     Renard:
     Medium:
     9:
     0.477,0.557,0.402,0.090,0.749:
0000
0000
0000
0000
,
0000
0000
0000
0000
,
0000
0000
0000
0000
,
0000
0000
0000
0000
,
0001
0000
0010
0000
0011
0000
0001
0000
0010
0000
0001
0010
0001
0000
0000
0000
,
1000
0000
0100
0000
1100
0000
1000
0000
0100
0000
1000
0100
1000
0000
0000
0000
,
0010
0000
1000
0000
1010
0000
0010
0000
1000
0000
0010
1000
0010
0000
0000
0000
,
0100
0000
0001
0000
1000
0000
0001
0000
0010
0000
0000
0000
0001
1000
0000
1000
,
0M02
0000
00M0
0000
M000
0000
0M00
0000
M000
0000
0M00
0000
,
M023
0000
000M
0000
0M00
0000
M000
0000
000M
0000
M000
0000
,
023M
0000
M000
0000
00M0
0000
000M
0000
00M0
0000
000M
0000
,
M000
0000
00M0
0000
M000
0000
000M
0000
00M0
0000
000M
0000
,
23M0
0000
000M
0000
0M00
0000
00M0
0000
0M00
0000
000M
0000
,
32M0
0000
000M
0000
M000
0000
00M0
0000
000M
0000
M000
0000
,
032M
0000
M000
0000
0M00
0000
M000
0000
000M
0000
0M00
0000
,
M000
0000
000M
0000
M000
0000
0M00
0000
M000
0000
000M
0000
,
0031
0000
0010
0000
0001
0000
0010
0000
0001
0000
0010
0000
0001
0000
0000
0000
0000
0000
0000
0000
0000
0010
0000
0000
,
0001
1000
0001
1000
0001
1000
0001
1000
0001
1000
0010
1000
,
0100
0000
1000
0000
0100
0000
1000
0000
0100
0000
1000
0000
0100
0000
1000
0000
0100
0000
1000
0000
0000
0100
0000
0000
,
0000
1000
0000
0000
0000
0100
0000
0000
0000
1000
0000
0000
0100
0000
0000
0000
1000
0000
0000
0000
0100
0000
0000
0000
,
1000
0000
0100
0000
1000
0000
0100
0000
1000
0000
0100
0000
1000
0000
0000
0000
0000
0000
0000
0000
0000
0100
0000
0000
,
1000
0001
1000
0001
1000
0001
1000
0001
1000
0001
0100
0001
,
0010
0001
0010
0001
0010
0001
0010
0001
0010
0000
0010
0000
,
0010
0000
0010
0000
0010
0000
0010
0000
0010
0000
0010
0000
,
0010
0001
1000
0001
1000
0001
0100
0000
0000
0101
0000
0000
,
0010
1000
0100
1000
0010
1000
0100
0000
0000
0101
0000
0000
,
0001
0010
0100
0020
0000
0100
0000
0100
0000
0100
0000
0100
,
0000
0130
0000
0010
0001
0010
0001
1000
0001
1000
0010
1000
,
0100
1000
0001
1000
0001
1000
0010
0000
0000
1010
0000
0000
,
0100
0001
0010
0001
0100
0001
0010
0000
0000
1010
0000
0000
,
1000
0100
0010
0200
0000
0010
0000
0010
0000
0010
0000
0000
,
0310
0000
1100
0000
0100
0010
0011
0000
,
1000
0010
1000
0010
1000
0001
0100
0000
0000
0101
0000
0000
,
0001
0010
0001
0010
0001
0010
0100
1000
0100
1000
0010
0100
,
0001
0000
0100
0000
0001
0000
0100
0000
0001
0000
0100
0000
0010
0000
0000
0000
0000
0000
1001
0000
0000
0010
0000
0000
,
0000
0010
0000
0000
0000
0010
0000
0000
0000
0010
0000
0000
0100
0000
0000
0000
0100
0000
0000
0000
0100
0000
0000
0000
,
0101
0000
1010
0000
1100
0000
0011
0000
0000
1001
0000
0000
,
0011
0000
1100
0000
1010
0000
0101
0000
0100
0001
0000
0100
,
0010
0000
1010
0000
1100
0000
0011
0000
1001
0000
0101
0000
,
0010
0000
1000
0000
1010
0000
0010
1000
0010
0000
0000
0000
0000
0000
1000
0001
,
1000
0000
0011
0000
0001
0010
0011
0000
,
1000
0000
1100
0000
1000
0100
1100
0000
,
1000
0000
1010
0000
1000
0010
1010
0000
,
0100
0000
0000
0000
0101
0000
0000
0000
0100
0000
0001
0000
0100
0001
0100
0001
,
1000
0100
1100
0100
0010
0000
0110
0000
,
0010
0001
0011
0001
0100
0000
0101
0000
,
0001
0100
0101
0100
0010
0000
0110
0000
,
0010
0000
1000
0000
1010
0000
1000
0000
0001
0000
0000
0001
0000
0000
0001
0000
,
2000
0000
0000
0000
,
0000
0000
0000
0000
,
0000
0000
0000
3000
0000
0000
0000
0000
;
#NOTES:
     dance-single:
     Renard:
     Easy:
     5:
     0.248,0.354,0.171,0.292,0.000:
0000
0000
0000
0000
,
0000
0000
0000
0000
,
0000
0000
0000
0000
,
0000
0000
0000
0000
,
0000
0000
0000
0000
,
0000
0000
0000
0000
,
0000
0000
0000
0000
,
0000
0000
0000
0000
,
2000
0000
0000
0000
,
3002
0000
0000
0000
,
0203
0000
0000
0000
,
0000
0000
0000
0000
,
0302
0000
0000
0000
,
2003
0000
0000
0000
,
3200
0000
0000
0000
,
0000
0000
0000
0000
0000
0000
0000
0300
,
2000
0000
3100
0000
,
0002
0000
0000
0203
,
0320
0000
0000
0000
0000
0000
0000
0030
,
0000
0000
0000
0000
,
0200
0000
0000
0000
,
0302
0000
0000
1003
,
0200
0000
0000
0000
,
0000
0000
0000
0000
,
1300
1100
1000
1001
,
0001
0100
0010
1000
0001
0000
0101
0000
,
0001
1001
1000
1100
,
1000
0100
0010
0001
1000
0000
0101
0000
,
0001
1001
1000
1100
,
0001
0010
0100
1000
0001
0000
1001
0000
,
1000
1010
0001
0101
,
0001
0100
0010
1000
0001
0000
1000
0000
,
0100
1100
0001
0101
,
1000
0010
0100
0001
1000
0000
1001
0000
,
1000
1100
0001
0011
,
1000
0010
0100
0001
1000
0000
1001
0000
,
0001
0000
0100
0000
0010
1000
0010
0000
,
1000
0000
0100
0000
0010
0001
0010
0000
,
0001
0001
1000
1000
,
0010
0000
0100
0000
0010
0100
0010
0000
,
0200
0301
0020
0130
,
0002
0103
0020
0130
,
0200
0301
0020
0130
,
0002
0103
0020
0130
,
0200
0310
0200
0301
,
0002
0103
0020
0130
,
0200
0301
0200
0310
,
0100
0002
0013
0100
,
2000
0000
0000
0000
,
0000
0000
0000
0000
,
0000
0000
0000
3000
0000
0000
0000
0000
;
#NOTES:
     dance-single:
     Renard:
     Beginner:
     3:
     0.205,0.330,0.121,0.231,0.000:
0000
0000
0000
0000
,
0000
0000
0000
0000
,
0000
0000
0000
0000
,
0000
0000
0000
0000
,
0000
0000
0000
0000
,
0000
0000
0000
0000
,
0000
0000
0000
0000
,
0000
0000
0000
0000
,
0002
0000
0000
0000
,
2003
0000
0000
0000
,
3020
0000
0000
0000
,
0000
0000
0000
0000
,
0230
0000
0000
0000
,
0320
0000
0000
0000
,
2030
0000
0000
0000
,
0000
0000
0000
0000
,
3010
0010
0010
0000
,
0100
0000
0000
0100
,
0010
0000
0000
0000
,
0010
0000
0100
0000
,
0001
0001
0001
0000
,
1000
0000
0000
0001
,
2000
0000
0000
0000
,
0000
0000
0000
0000
,
3001
1001
0100
0000
,
0010
1010
0100
0000
,
0001
0011
0100
0000
,
1000
1001
0100
1010
,
0100
0011
0100
0000
,
0001
1001
0010
0000
,
1000
0110
0001
0000
,
0001
0110
1000
1001
,
0100
0100
0100
0000
,
0001
0001
0001
0010
,
0100
0100
0100
0000
,
1000
1000
0010
0010
,
0100
0100
0100
0100
,
0001
0001
0010
0010
,
0100
0100
1000
1000
,
0010
0100
1001
0000
,
0002
1003
0020
1030
,
0002
1003
0020
1030
,
0002
1003
0020
1030
,
0002
1003
0010
1000
,
0002
1003
0020
1030
,
0002
1003
0020
1030
,
0002
1003
0020
1030
,
0002
1003
0010
1000
,
2002
0000
0000
0000
,
0000
0000
0000
0000
,
0000
0000
3003
0000
;
