#TITLE:Yakety Sax;
#SUBTITLE:;
#ARTIST:Boots Randolph;
#TITLETRANSLIT:;
#SUBTITLETRANSLIT:;
#ARTISTTRANSLIT:;
#CRChallenge:;
#BANNER:sax.png;
#BACKGROUND:sax-bg.png;
#LYRICSPATH:;
#CDTITLE:!cdtitle.png;
#MUSIC:sax.ogg;
#OFFSET:0.000;
#SAMPLESTART:4.898;
#SAMPLELENGTH:12.000;
#SELECTABLE:YES;
#BPMS:0.000=244.000;
#STOPS:;
#BGCHANGES:;
#NOTES:
     dance-single:
     Renard:
     Medium:
     10:
     0.734,0.802,0.178,0.024,0.000:
0000
0000
0000
0000
,
0000
0000
0000
0000
,
0000
0000
0000
0000
,
0000
0000
0000
0000
,
0000
0000
0000
0000
,
0001
0000
0001
0000
0010
0100
1000
0100
,
0010
0000
0010
0000
0001
1000
0010
0100
,
0001
0000
0100
0000
0010
1000
0001
0100
,
0010
0000
0000
0000
0000
1000
0010
0100
,
0001
0000
0001
0000
0100
0010
1000
0100
,
0010
0000
0010
0000
0001
0010
0100
1000
,
0001
0000
0100
0010
1000
0100
0010
0000
,
0001
0000
0000
0000
0000
0001
1000
0010
,
0100
0100
0100
0100
,
0100
0000
0100
0000
0010
1000
0100
0010
,
0001
0001
0001
0001
,
0001
0000
0001
0010
0100
1000
0001
0100
,
0010
1000
0100
0010
0001
0010
0000
0000
,
0001
0010
0100
1000
0000
0000
0001
0000
,
0100
0010
0000
1000
0010
0000
0100
0001
,
0100
0000
0000
0010
,
1000
0000
0100
0000
0010
0001
0010
0100
,
1000
0001
0010
0100
1000
0100
0010
0001
,
1000
0000
0100
0010
0001
0010
0100
0000
,
1000
0000
0000
0000
0000
0001
0010
0100
,
1000
0000
1000
0000
0001
0100
0010
1000
,
0010
0100
0001
0100
0010
1000
0001
0100
,
0010
0000
1000
0001
1000
0100
1000
0000
,
0001
0000
0000
0000
0000
1000
0100
0010
,
0001
0001
0001
0001
,
0001
0000
0001
0000
0001
0010
0100
1000
,
0001
0001
0001
0001
,
1000
0000
0100
0010
0001
0010
0000
0000
,
0001
0010
0100
1000
0001
0100
0000
0000
,
0010
1000
0001
0100
0000
0000
0010
0000
,
1000
0010
0000
0100
0001
0000
0100
0010
,
1000
0000
0000
0100
,
0010
0000
0010
0000
0001
0010
0100
1000
,
0001
0100
0010
1000
,
0010
0000
0010
0000
1000
0010
0100
0001
,
0100
0010
1000
0100
,
0010
0000
0001
0010
0001
0000
0010
0000
,
0100
0000
1000
0100
1000
0000
0001
0000
,
0100
0000
0001
0100
0001
0000
0100
0010
,
0100
0000
0010
1000
0010
0000
1000
0100
,
1000
1100
0001
0101
,
1000
1100
0001
0101
,
1000
1010
0001
0011
,
1000
0000
1010
0000
0001
0010
0100
1000
,
0001
0100
0010
1000
,
0001
0100
0001
1000
,
0100
0000
1000
0000
0001
0100
0010
1000
,
0100
0020
0000
0000
,
0031
0000
0001
0000
0001
0010
0100
1000
,
0100
0010
0001
0010
0100
1000
0001
0100
,
0010
0000
1000
0010
0100
0001
0100
0000
,
0010
0000
0000
0000
0000
1000
0010
0100
,
0001
0000
0001
0000
0100
0010
1000
0001
,
0100
0010
1000
0100
0010
0001
0010
0100
,
1000
0000
0001
0010
0100
1000
0001
0000
,
1000
0000
0000
0000
0000
0100
0010
0001
,
1000
1000
1000
1000
,
1000
0000
1000
0000
0001
0010
0100
1000
,
0001
0001
0001
0001
,
1000
0000
0100
0010
0001
1000
0000
0000
,
0001
0100
0010
1000
0001
0100
0000
0000
,
0010
1000
0001
1000
0000
0000
0100
0000
,
1000
0100
0000
0010
0001
0000
1000
0100
,
0010
0000
0000
0001
,
0010
0000
0010
0000
0001
0010
0100
1000
,
0001
0100
0010
1000
0010
0100
0001
0010
,
0100
0000
1000
0100
0010
0001
1000
0000
,
0101
0000
0000
0000
0000
0000
0001
0100
,
0010
0000
1000
0000
0100
0010
0001
0010
,
0100
1000
0001
0100
0010
1000
0100
0010
,
0001
0000
0010
0100
1000
0001
0100
0000
,
1001
0000
0000
0000
0000
0001
0100
0010
,
1000
1010
0100
0101
,
0001
0000
0011
0000
0001
0010
0100
1000
,
0001
1001
0100
0110
,
0010
0000
1010
0000
1000
0100
0010
0000
,
0001
0010
0100
1000
0001
0100
0000
0000
,
0010
1000
0001
0100
0000
0000
0010
0000
,
1000
0100
0000
0010
0001
0000
0010
0100
,
2000
0000
3000
0000
;
#NOTES:
     dance-single:
     Renard:
     Hard:
     11:
     0.885,0.903,1.000,0.024,0.000:
0000
0000
0000
0000
,
0000
0000
0000
0000
,
0000
0000
0000
0000
,
0000
0000
0000
0000
,
0000
0000
0000
0000
,
1000
0000
1100
0000
0010
0001
0010
0100
,
1000
0000
1100
0000
1000
0001
0100
0010
,
1000
0000
1010
0000
1000
0010
0100
0001
,
0010
0011
0010
0110
,
1100
0000
1100
0000
1000
0100
0010
0001
,
0010
0000
0011
0000
0010
0100
1000
0001
,
0100
0000
0010
1000
0001
0100
0010
1000
,
0100
1100
1000
1001
,
0101
0101
0110
0110
,
1010
0000
1000
0010
0100
0001
0010
0100
,
1000
1100
1000
1001
,
0100
0000
0101
0000
0001
0100
0010
1000
,
0001
0100
0010
1000
0100
0010
0000
0000
,
0001
0010
0100
1000
0000
0000
0001
0000
,
0100
0010
0000
0010
1000
0000
0001
0100
,
0010
0000
0000
1010
,
1001
0000
1001
0000
0001
0100
0010
1000
,
0100
0010
0001
0010
0100
1000
0001
0100
,
0010
1000
0100
0010
0001
0010
0100
1000
,
0001
1001
0100
0110
,
1010
0000
1010
0000
0001
0100
0010
1000
,
0100
0010
0001
0010
0100
1000
0001
0100
,
0010
0000
1000
0010
0100
0001
0100
0000
,
0010
1010
0100
0101
,
1001
1001
1100
1100
,
0011
0000
0001
0010
0100
1000
0001
0100
,
0010
1010
1010
0101
,
0101
0000
0001
0010
0100
1000
0000
0000
,
0001
1000
0010
0100
0001
0100
0000
0000
,
0010
1000
0010
0100
0000
0000
0001
0000
,
0100
0010
0000
1000
0010
0000
0100
0001
,
0200
0000
0000
0000
,
0310
0000
0010
0000
1000
0100
0010
0001
,
0010
1100
0011
1100
,
0001
0000
0010
0000
0100
1000
0100
0010
,
0001
1100
0011
1100
,
1001
0000
0001
0100
0010
0000
1000
0000
,
1010
0000
1000
0010
0100
0000
0001
0000
,
0101
0000
0001
0010
0100
0000
1000
0100
,
0010
0000
0001
0010
0100
0000
1000
0000
,
0101
0101
1100
1100
,
0011
0011
1010
1010
,
0101
0101
1100
1100
,
0011
0011
1010
1010
,
1010
1010
0101
0101
,
0011
0011
1100
1100
,
0011
1100
0101
1010
,
1001
0000
0000
0000
,
1010
0000
1010
0000
0100
0001
0100
0001
,
0100
0010
0100
0010
0100
1000
0100
1000
,
0100
0010
0100
0001
0010
0100
1000
0000
,
1001
0000
0000
0000
,
0101
0000
0101
0000
0010
1000
0010
1000
,
0010
0100
0010
0100
0010
0001
0010
0001
,
0010
0100
0010
1000
0100
0010
0001
0000
,
1001
0000
0000
0000
0000
0001
0100
0000
,
0110
1001
0110
1001
,
0110
0000
0010
1000
0100
0010
0001
0000
,
0110
1001
0110
1001
,
0110
0000
0010
0100
1000
0001
0100
0000
,
0010
1000
0010
1000
0010
1000
0000
0000
,
0001
0100
0010
1000
0000
0000
0100
0000
,
0010
0001
0000
0010
1000
0000
0010
0100
,
1000
0000
0000
1100
,
1001
0000
0110
0000
0010
1000
0100
0010
,
0001
0010
0100
1000
0001
0100
0010
1000
,
0100
0010
0001
0010
0100
1000
0001
0000
,
0100
0110
0010
1010
,
1001
0000
1001
0000
0001
0100
0010
1000
,
0100
0010
0001
0010
0100
1000
0001
0010
,
0100
0000
1000
0100
0010
0001
1000
0000
,
0101
1010
1000
1100
,
0010
0011
1000
1100
,
0001
0000
0101
0000
0001
0100
0010
1000
,
0100
1100
1000
0011
,
1100
0000
0001
1000
0010
0100
0000
0000
,
0001
0100
0010
1000
0100
0010
0000
0000
,
0001
0010
0100
1000
0000
0000
0001
0000
,
0100
0010
0000
0010
1000
0000
0100
0010
,
0002
0000
0003
0000
;
#NOTES:
     dance-single:
     Renard:
     Easy:
     7:
     0.468,0.449,0.036,0.012,0.000:
0000
0000
0000
0000
,
0000
0000
0000
0000
,
0000
0000
0000
0000
,
0000
0000
0000
0000
,
0000
0000
0000
0000
,
0001
0001
1000
0100
,
0010
0010
0100
1000
,
0010
0100
0001
1000
,
0001
0000
0000
0000
,
1000
1000
0001
0100
,
0010
0010
1000
0100
,
0010
0001
0010
0100
,
1000
0000
0000
0001
,
0100
0100
0100
0100
,
0100
0100
0001
1000
,
0100
0100
0100
0100
,
1000
0000
0001
0000
,
0010
0100
1000
0000
,
0001
0100
0010
0000
,
1000
0010
0100
0001
,
1000
0000
0000
0001
,
0100
0100
0001
1000
,
0100
0100
1000
0001
,
0100
0001
1000
0100
,
0010
0000
0001
0000
,
1000
0010
0010
0100
,
0001
0010
0010
0001
,
0100
0010
1000
0100
,
0010
0000
0000
0001
,
1000
1000
1000
1000
,
1000
1000
0010
0100
,
0001
0001
0001
0001
,
0100
0010
1000
0000
,
0100
0010
0001
1000
,
0010
0100
0001
0000
,
0100
0010
1000
0100
,
0010
0000
0000
0001
,
0010
0010
0100
0100
,
1000
0001
1000
0001
,
0100
0100
0010
0010
,
1000
0001
1000
0001
,
1000
0010
0100
0001
,
0010
0100
1000
0100
,
0010
0010
0001
1000
,
0010
0000
0000
0000
,
0100
0100
0001
0001
,
1000
1000
0100
0000
,
0000
1001
0000
0110
,
0000
1001
0000
0001
,
1000
0100
1000
0100
,
0010
0001
0010
0001
,
0100
0001
1000
0010
,
0100
0002
0000
0000
,
1003
1000
0100
0010
,
0001
0001
0010
0100
,
1000
1000
0010
0100
,
0001
0000
0001
0000
,
0100
0100
0010
1000
,
0010
0010
0100
0001
,
0010
0010
0001
0010
,
0100
0000
0000
0100
,
1000
1000
1000
1000
,
1000
1000
0010
0100
,
0001
0001
0001
0001
,
0100
0010
1000
0000
,
0010
0100
0001
0000
,
1000
0001
0100
0000
,
0001
1000
0100
0010
,
0001
0000
0000
1000
,
0001
0100
0010
1000
,
0010
0100
0001
0010
,
0100
1000
0010
0100
,
0001
0000
0100
0000
,
0010
1000
0010
1000
,
0001
0100
0001
0100
,
0001
1000
0100
0010
,
0001
0000
0010
0000
,
0100
0100
0100
0100
,
0100
0100
1000
0001
,
0100
0100
0100
0100
,
0001
1000
0100
0000
,
0010
0001
0010
0000
,
0100
1000
0010
0000
,
0100
0001
0100
0010
,
1000
0000
0000
0000
;
#NOTES:
     dance-single:
     Renard:
     Challenge:
     11:
     0.894,0.997,0.926,0.237,0.000:
0000
0000
0000
0000
,
0000
0000
0000
0000
,
0000
0000
0000
0000
,
0000
0000
0000
0000
,
0000
0000
0000
0000
,
0001
0000
0001
0000
0010
0010
0100
0100
,
1000
1000
0100
0100
0010
0010
0001
0001
,
1000
0000
0100
0100
0010
0010
0001
0001
,
1000
0000
0000
0000
0000
0001
1000
0001
,
1000
0000
1000
0000
0100
0100
0010
0010
,
0001
0001
1000
1000
0100
0100
0010
0010
,
0001
0000
0010
0010
0100
0100
1000
0000
,
0001
0000
0000
0000
0000
1000
0001
0000
,
1001
0110
1001
0110
,
1001
0000
0110
0000
0010
1000
0001
0100
,
0010
1001
0110
1001
,
0110
0000
0010
1000
0001
0100
0000
0000
,
0001
0100
1000
0100
0001
0010
0000
0000
,
0100
1000
0100
0001
0000
0000
0100
0000
,
1000
0010
0000
0001
0020
0000
0200
0000
,
1331
0000
0000
1000
,
0001
0000
0001
0000
0010
0010
0100
0100
,
1000
1000
0100
0100
0010
0010
0001
0001
,
1000
0000
0100
0100
0010
0010
0001
0001
,
1000
0000
0000
0000
0000
0001
1000
0001
,
1000
0000
1000
0000
0100
0100
0010
0010
,
0001
0001
1000
1000
0100
0100
0010
0010
,
0001
0000
0010
0010
0100
0100
1000
0000
,
0001
0000
0000
0000
0000
1000
0001
0000
,
1001
0110
1001
0110
,
1001
0000
0110
0000
0010
1000
0001
0100
,
0010
1001
0110
1001
,
0110
0000
0010
1000
0001
0100
0000
0000
,
0001
0100
1000
0100
0001
0010
0000
0000
,
0100
1000
0100
0001
0000
0000
0100
0000
,
1000
0010
0000
0001
0020
0000
0200
0000
,
1331
0000
0000
0000
,
1000
1100
0001
0101
,
1001
1001
1001
1001
,
1000
1010
0001
0011
,
1001
1001
1001
1001
,
0100
1001
0010
1001
,
0100
1001
0010
1001
,
0100
1001
0010
1001
,
0100
1001
0010
1001
,
0202
0313
2002
3013
,
2200
0000
3310
0000
1000
0100
0010
0000
,
2200
3310
2002
3013
,
0202
0000
0313
0000
0001
0010
0100
0000
,
1000
0100
0010
0001
1000
0010
0100
0000
,
0001
0100
0010
1000
0001
0010
0100
0000
,
1100
0000
0110
0000
0010
0001
1000
0100
,
1000
1100
0000
0000
,
2000
0000
0200
0000
0010
0001
0010
0001
,
0010
0001
0010
0001
0010
0001
0010
0001
,
0010
0000
0001
0010
0001
0010
0001
0000
,
3311
0000
0000
0000
,
0002
0000
0200
0000
0010
1000
0010
1000
,
0010
1000
0010
1000
0010
1000
0010
1000
,
0010
0000
1000
0010
1000
0010
1000
0000
,
0313
0000
0000
0000
,
0101
1010
0101
1010
,
0101
1010
0101
1010
,
1100
0011
1100
0011
,
1100
0011
1100
0011
,
0101
0101
0110
0000
,
1010
1010
0110
0000
,
1010
0000
1001
0000
,
1011
0000
0000
0000
,
0001
0010
0100
1000
0001
0100
1000
0100
,
0001
0010
0100
1000
0001
0100
1000
0100
,
0001
0010
0100
1000
0001
0100
1000
0100
,
0001
0010
0100
1000
0001
0100
1000
0100
,
0001
0010
0100
1000
0001
0100
1000
0100
,
0001
0010
0100
1000
0001
0100
1000
0100
,
0001
0010
0100
1000
0001
0100
1000
0100
,
0001
0010
0100
1000
0001
0100
1000
0100
,
0001
0010
0100
1000
0001
0100
1000
0100
,
0001
0010
0100
1000
0001
0100
1000
0100
,
0001
0010
0100
1000
0001
0100
1000
0100
,
0001
0010
0100
1000
0001
0100
1000
0100
,
0001
0010
0100
1000
0001
0100
1000
0100
,
0001
0010
0100
1000
0001
0100
1000
0100
,
0001
0010
0100
1000
0100
0010
0001
0000
,
1001
0000
0000
0000
;
#NOTES:
     dance-single:
     Renard:
     Beginner:
     5:
     0.397,0.449,0.036,0.024,0.000:
0000
0000
0000
0000
,
0000
0000
0000
0000
,
0000
0000
0000
0000
,
0000
0000
0000
0000
,
0000
0001
0000
0000
,
1000
1000
0001
0001
,
1000
1000
0001
0001
,
1000
1000
0001
0001
,
1000
0000
0000
0000
,
0001
0001
1000
1000
,
0001
0001
1000
1000
,
0001
0001
1000
1000
,
0001
0000
0000
0000
,
0100
0100
0100
0100
,
0100
0100
0100
0000
,
0010
0010
0010
0010
,
0010
0010
0010
0000
,
1000
0000
0001
0000
,
1000
0000
0001
0000
,
0100
0000
0100
0000
,
1001
0000
0000
0000
,
0001
0001
0001
0001
,
0001
0001
0001
0001
,
0001
0001
0001
0001
,
0001
0000
0000
0000
,
1000
1000
1000
1000
,
1000
1000
1000
1000
,
1000
1000
1000
1000
,
1000
0000
0000
0000
,
0010
0100
0010
0100
,
0010
0100
0010
0100
,
0010
0100
0010
0100
,
0010
0100
0010
0000
,
1000
0000
1000
0000
,
0001
0000
0001
0000
,
0100
0000
0010
0000
,
1001
0000
0000
0000
,
0001
0010
0001
0010
,
0001
0000
0000
0000
,
1000
0100
1000
0100
,
1000
0000
0000
0000
,
0001
0000
0100
0000
,
0010
0000
1000
0000
,
1000
0000
0010
0000
,
0100
0000
0001
0000
,
1000
0100
0000
0100
,
0000
0100
0000
0010
,
0000
0001
0000
0001
,
0000
0001
0000
1000
,
0010
1000
0010
0000
,
0100
0001
0100
0000
,
0001
1000
0100
0010
,
0001
0000
0000
0000
,
2000
0001
0001
0001
,
0001
0001
0001
0001
,
0001
0001
0001
0001
,
3001
0000
0000
0000
,
0002
1000
1000
1000
,
1000
1000
1000
1000
,
1000
1000
1000
1000
,
1003
0000
0000
0000
,
1000
1000
1000
1000
,
1000
0000
1000
0000
,
0001
0001
0001
0001
,
0001
0000
0001
0000
,
0100
0100
0100
0000
,
0010
0000
0010
0000
,
1000
0000
0001
0000
,
0100
0000
0000
0000
,
0001
0001
1000
1000
,
0001
0001
1000
1000
,
0001
1000
0001
1000
,
0001
0000
0000
0000
,
0100
0100
0010
0010
,
0100
0100
0010
0010
,
0100
0010
0100
0010
,
0100
0000
0000
0000
,
0001
0001
0001
0001
,
0001
0001
0001
0001
,
1000
1000
1000
1000
,
1000
1000
1000
0000
,
0010
0000
0010
0000
,
0100
0000
0010
0000
,
0100
0001
1000
0000
,
1001
0000
0000
0000
;
