#TITLE:World in Union;
#SUBTITLE:;
#ARTIST:Chavbots from Outta Space;
#TITLETRANSLIT:;
#SUBTITLETRANSLIT:;
#ARTISTTRANSLIT:;
#CRChallenge:;
#BANNER:world-banner.avi;
#BACKGROUND:world-bg.jpg;
#LYRICSPATH:;
#CDTITLE:;
#MUSIC:world.ogg;
#OFFSET:0.000;
#SAMPLESTART:23.721;
#SAMPLELENGTH:12.000;
#SELECTABLE:YES;
#BPMS:0.000=172.000,8.000=86.000,40.000=172.000;
#STOPS:;
#BGCHANGES:;
#NOTES:
     dance-single:
     Renard:
     Medium:
     9:
     0.563,0.670,0.325,0.224,0.134:
0000
0000
0000
0000
,
0000
0000
0000
0000
,
2002
0M00
00M0
0M00
00M3
0M00
302M
0M00
,
023M
0000
M000
0000
00M0
0000
000M
0000
M000
0000
00M0
0000
M002
0000
00M0
0300
,
M020
0000
0M00
0000
M000
0000
0M00
0000
M003
0000
000M
0000
M200
0000
000M
0030
,
200M
0000
00M0
0000
000M
0300
0M00
0000
002M
0000
0M00
3000
020M
0000
M030
0000
,
03M1
0000
M010
0000
0M01
0010
M000
0000
00M1
0000
1M00
0000
010M
1000
000M
0010
,
M100
0000
00M1
0000
M100
0001
00M0
0000
1M00
0000
010M
0000
10M0
0001
0M00
0010
,
M001
0000
10M0
0000
001M
0100
M000
0000
00M1
0000
M100
0000
001M
1000
0M00
0001
,
M010
0000
0M01
0000
10M0
0100
100M
0000
2MM2
0000
0MM0
3003
M22M
0000
M00M
0330
,
0010
0000
1010
0000
0100
0001
0010
0000
,
0100
0000
0011
0000
0100
1000
0010
0000
,
0100
0000
1010
0000
0010
1000
0100
0000
,
0100
0000
0011
0000
0001
0100
0010
1000
,
0001
0000
0110
0000
0100
1000
0010
0100
,
0001
0000
0110
0000
0100
0010
0001
0100
,
0010
0000
1010
0000
0010
1000
0100
0010
,
0002
0023
0230
2300
,
3001
0000
0110
0000
0010
1000
0100
0010
,
0001
0000
1001
0000
0010
1000
0100
0000
,
1000
0000
0101
0000
0001
0010
0100
1000
,
0010
0000
0110
0000
0010
1000
0001
0000
,
0100
0000
0101
0000
0000
0001
0010
0000
,
0100
0000
1100
0000
0000
1000
0010
0000
,
0100
0000
1010
0000
0100
0001
0010
0100
,
1000
0001
0100
0010
1000
0000
1000
0010
,
0100
0000
0100
0001
0010
0100
1000
0001
,
0010
0001
1000
0010
0100
0000
0100
0001
,
0010
0000
0010
0001
1000
0100
0010
0000
,
0100
1000
0010
0100
0001
0000
1100
0000
,
1000
0100
0010
0000
0001
0010
0100
0000
,
1000
0000
0110
0000
0010
1000
0100
0010
,
0002
0000
0013
0000
0100
1000
0010
0000
,
0100
0000
0001
0000
0100
0000
0010
1000
,
0100
0000
0010
0001
0010
0000
0100
0000
,
1000
0010
0100
0000
0001
0100
0010
0000
,
1000
0000
0110
0000
0010
1000
0100
0010
,
0001
0000
0010
0100
1000
0001
0100
0000
,
0110
0000
0010
1000
0100
0010
0001
0000
,
1001
0000
0001
0100
0010
0000
1000
0000
,
1010
0000
1000
0100
0010
0001
0100
0010
,
1000
0000
1000
0010
0100
0001
0010
0000
,
0011
0000
0010
0100
1000
0001
0100
0010
,
1000
0000
0100
0010
0001
1000
0010
0000
,
0110
0000
0010
1000
0100
0010
0001
0000
,
0101
0000
0001
0100
0010
1000
0100
0000
,
1100
0000
1000
0100
0010
0001
1000
0000
,
0101
0000
0001
0100
0010
1000
0100
0000
,
1000
0001
1000
0001
1000
0001
1000
0001
1000
0000
0000
1000
0000
0000
1000
0000
,
0001
0000
0001
0000
0001
0000
0001
0000
0200
0000
0000
0000
0310
1000
0010
1000
,
0010
0000
0010
0000
0010
0100
0010
0100
,
0010
1000
0010
1000
0010
1000
0010
1000
0001
1000
0001
1000
0100
1000
0100
0000
,
1001
0000
0000
0000
;
#NOTES:
     dance-single:
     Renard:
     Easy:
     6:
     0.338,0.505,0.000,0.314,0.000:
0000
0000
0000
0000
,
0000
0000
0000
0000
,
2000
0000
0000
3002
,
0203
0000
0000
0320
,
2030
0000
0000
3020
,
2030
0000
0000
3002
,
0013
0010
0000
0010
0100
0100
0000
0100
,
1000
1000
0000
1000
0001
0001
0000
0001
,
0100
0100
0010
0010
,
1000
1000
0001
0001
2000
0000
3002
0000
,
2003
0100
0000
0100
,
0000
3100
0010
0001
,
2000
0001
0000
0001
,
0000
0001
0000
3001
,
0200
0310
0000
0010
,
2000
3001
0000
0001
,
0020
0031
0000
0001
,
1000
0100
0010
0001
,
2000
3100
0000
0100
,
0020
0031
0000
0001
,
2000
3010
0000
0010
,
0200
0301
0000
0001
,
2000
0000
3200
0000
,
0320
0000
0032
0000
,
2003
3010
0000
0010
,
0200
0301
0000
0001
,
2000
3100
0000
0100
,
0020
0031
0000
0001
,
1000
0010
0000
0010
,
0100
0001
0000
0001
,
1000
0100
1000
0001
,
0010
0100
1000
0001
,
0100
0001
0000
0001
,
1000
0100
0000
0100
,
0010
0001
0000
0001
,
1000
0010
0000
0010
,
1000
0000
0001
0000
0000
1000
0001
0000
,
1000
0000
0001
0000
0000
1000
0001
0000
,
1000
0000
0001
0000
0000
1000
0001
0000
,
1000
0000
0001
0000
0000
1000
0001
0000
,
0100
0100
0010
0010
,
1000
1000
0001
0001
,
1000
1000
0100
0100
,
0010
0010
0001
0001
,
0010
0000
0100
0000
1000
0100
1000
0000
,
0001
0001
0010
0010
,
0100
0000
0100
0000
1000
0100
1000
0000
,
0010
0010
1000
0001
,
0100
0100
0100
0100
,
0100
0100
0100
0100
,
0010
1000
0010
1000
0010
1000
0010
1000
,
0010
1000
0010
1000
0010
1000
0010
1000
,
0020
0000
0000
0000
,
0030
0000
0000
0000
;
#NOTES:
     dance-single:
     Renard:
     Beginner:
     3:
     0.280,0.379,0.000,0.269,0.000:
0000
0000
0000
0000
,
0000
0000
0000
0000
,
2000
0000
0000
3002
,
2003
0000
0000
3020
,
0230
0000
0000
0302
,
0023
0000
0000
0000
,
0032
0103
0020
1030
,
2000
3100
0020
0031
,
2000
3020
0230
0302
,
2000
0000
0000
3003
,
1000
0001
0000
0001
,
0100
0010
0000
0010
,
1000
0100
0000
0100
,
0010
0001
0000
0001
,
1000
0010
0000
0010
,
0100
0001
0000
0001
,
1000
0100
0000
0010
,
0001
0010
0100
1000
,
0001
0100
0000
0100
,
0010
1000
0000
1000
,
0100
0010
0000
0010
,
0001
1000
0000
1000
,
0200
0000
0320
0000
,
0032
0000
2003
0000
,
3100
1000
0000
1000
,
0001
0010
0000
0010
,
0100
1000
0000
1000
,
0010
1000
0000
1000
,
0001
0100
0000
0100
,
0010
1000
0000
1000
,
0001
0100
0000
0100
,
0010
1000
0001
0100
,
0010
1000
0000
1000
,
0010
1000
0000
1000
,
0001
0100
0000
0100
,
0001
0100
0000
0100
,
0020
0000
1000
0000
,
2030
0000
0100
0000
,
3200
0000
0010
0000
,
0320
0000
0001
0000
,
0031
0100
0000
0100
,
0010
1000
0000
1000
,
0100
1000
0000
1000
,
0001
0010
0000
0010
,
0001
1000
0001
1000
,
0000
1000
0001
1000
,
0010
1000
0010
1000
,
0000
0001
1000
0001
,
0100
0100
0100
0100
,
0100
0100
0100
0100
,
0001
1000
0001
1000
,
0001
0000
1000
0000
0001
1000
0001
1000
,
0001
0000
0000
0000
;
