#TITLE:Worker Bees;
#SUBTITLE:;
#ARTIST:Billy Talent;
#TITLETRANSLIT:;
#SUBTITLETRANSLIT:;
#ARTISTTRANSLIT:;
#CRChallenge:;
#BANNER:bees.jpg;
#BACKGROUND:bees-bg.jpg;
#LYRICSPATH:;
#CDTITLE:;
#MUSIC:bees.ogg;
#OFFSET:0.000;
#SAMPLESTART:34.575;
#SAMPLELENGTH:12.000;
#SELECTABLE:YES;
#BPMS:0.000=111.000;
#STOPS:;
#BGCHANGES:;
#NOTES:
     dance-single:
     Renard:
     Hard:
     9:
     0.761,0.723,0.297,0.017,0.851:
0000
0000
0000
0000
,
0000
0000
0000
0000
,
1000
0000
1000
0100
0010
0000
0010
0000
0001
0000
0001
0100
0010
0000
0010
0000
,
1000
0000
1000
0100
0010
0000
0010
0000
0001
0000
0001
0100
0010
0000
0010
0000
,
1010
0000
0010
1000
0100
0000
0010
0000
0011
0000
0001
0010
0100
0000
1000
0000
,
1010
0000
0010
0100
0001
0000
0100
0000
0011
0000
1000
0100
0010
0000
0100
0000
,
0110
0000
0010
0001
1000
0000
0001
0000
0011
0000
0010
0100
1000
0000
0010
0000
,
0110
0000
0010
0100
0001
0000
0100
0000
1001
0000
0100
0000
1001
0000
0001
1000
,
0001
0010
0100
1000
0010
0000
0100
0000
0001
0010
0100
1000
0010
0000
0100
0000
,
0001
0010
0100
1000
0010
0000
0100
0000
0001
0010
0100
1000
0010
0000
0100
0000
,
0001
0100
0010
1000
0100
0000
0010
0000
0001
0100
0010
1000
0100
0000
0010
0000
,
0001
0100
0010
1000
0100
0000
0010
0000
0001
0100
0010
1000
0100
0010
0001
1000
,
0001
0100
0001
1000
0001
0000
1001
0000
1000
0001
0100
0001
1000
0000
1001
0000
,
1000
0100
1000
0001
1000
0000
1001
0000
0001
1000
0100
1000
0001
0000
1001
0000
,
1000
0010
1000
0001
1000
0000
1001
0000
0001
1000
0010
1000
0001
0000
1001
0000
,
0001
0010
0001
1000
0001
0000
1001
0000
1000
0001
0010
0001
1000
0000
1001
0000
,
0001
0100
0001
0000
0100
0010
0100
0000
0010
1000
0010
0000
1000
0100
1000
0000
,
1000
0100
0010
0001
0010
0100
1000
0100
0010
0001
0100
0010
1000
0100
0010
0001
,
0100
0001
0100
0000
0010
1000
0010
0000
1000
0100
1000
0000
0001
0010
0001
0000
,
1000
0010
0100
0001
0010
0100
1000
0010
0100
0001
0010
0100
1000
0100
0010
0001
,
1000
1000
1000
0000
0100
0100
0100
0000
0010
0010
0010
0000
0001
0001
0001
0000
,
0010
0100
1000
0001
0010
0100
0010
0001
1000
0100
0010
0100
1000
0001
0010
0100
,
0010
0001
0101
0100
0010
1000
1100
1000
,
0010
0000
0100
0000
0001
0000
0100
0000
1001
0000
0001
0100
0010
1000
0100
0000
,
0010
0000
0010
0001
1000
0000
1000
0010
0100
0000
0100
0001
0010
0000
0010
0100
,
1000
0000
1000
0001
0100
0000
0100
0001
0010
0000
0010
0100
1000
0000
1001
0000
,
0100
0000
0100
1000
0001
0000
0001
0100
0010
0000
0010
1000
0100
0000
0100
0010
,
0001
0000
0001
1000
0010
0000
0010
1000
0100
0000
0100
0010
0001
0000
1001
0000
,
0110
0000
0010
0100
0001
0000
0010
0000
0110
0000
0100
1000
0010
0000
0100
0000
,
0110
0000
0100
0001
1000
0000
0100
0000
0110
0000
0100
1000
0001
0000
0100
0000
,
0110
0000
0010
0100
0001
0000
1000
0100
0010
0000
0001
0010
0100
0000
1000
0001
,
0100
0000
0010
0000
1000
0000
0100
0000
0010
0000
0001
0010
0100
1000
0001
0010
,
0100
1000
0100
1000
0100
1000
0100
1000
0010
1000
0010
1000
0010
1000
0010
1000
,
0001
1000
0001
1000
0001
0100
0001
0100
0001
0010
0001
0010
0001
0010
0001
0010
,
0100
0010
0100
0010
0100
0010
0100
0010
0100
1000
0100
1000
0100
1000
0100
1000
,
0010
1000
0010
1000
0010
1000
0010
1000
0010
0100
0010
0100
0001
0100
0001
0100
,
0001
0010
0001
0010
0001
0010
0001
0010
0100
0010
0100
0010
0100
0010
0100
0010
,
0100
1000
0100
1000
0010
1000
0010
1000
0010
0100
0010
0100
0010
0100
0010
0100
,
0001
0100
0001
0100
0001
0010
0001
0010
0100
0010
0100
0010
0100
0010
0100
0010
,
0100
1000
0100
0010
0001
0010
0100
1000
0100
0010
0001
0010
0100
1000
0100
0010
,
0001
0000
0001
0010
0100
0000
0100
0000
1000
0000
1000
0010
0100
0000
0100
0000
,
0001
0000
0001
0010
0100
0000
0100
0000
1000
0000
1000
0010
0100
0000
0100
0000
,
0010
0000
0010
1000
0100
0000
0100
0000
0010
0000
0010
0001
0100
0000
0100
0000
,
0010
0000
0010
1000
0100
0000
0100
0000
0010
0000
0010
0001
1000
0000
1000
0000
,
0001
0000
0001
0100
0010
0000
0010
1000
0100
0000
0100
0010
0001
0000
0001
1000
,
0010
0000
0010
0100
0001
0000
0001
0010
0100
0000
0100
1000
0010
0000
0010
0100
,
0001
0000
0100
0000
0110
0000
1000
0100
0010
0000
0001
0000
0010
0000
0100
1000
,
0010
0000
0100
0000
0101
0000
0100
0000
0010
0000
0010
1000
0100
0010
0001
0010
,
0100
0000
1000
0010
0100
0000
0001
0000
0110
0000
0010
1000
0100
0000
0010
0000
,
0011
0000
0010
0100
1000
0000
0010
0000
0110
0000
0100
0001
0010
0100
1000
0010
,
0100
0000
0001
0100
0010
0000
1000
0000
0110
0000
0010
0001
0010
0000
0100
0000
,
1100
0000
1000
0010
0100
0001
0010
0000
0110
0000
0100
1000
0010
0100
0001
0000
,
2002
0000
0000
0000
,
3003
0000
0000
0000
;
#NOTES:
     dance-single:
     Renard:
     Medium:
     9:
     0.574,0.591,0.438,0.017,0.388:
0000
0000
0000
0000
,
0000
0000
0000
0000
,
1000
0000
0000
1000
0001
0000
0100
0000
0100
0000
0000
0100
0010
0000
1000
0000
,
0100
0000
0000
0100
0010
0000
0001
0000
1000
0000
0000
1000
0010
0000
0100
0000
,
0101
0000
0000
0100
0010
0000
1000
0000
1010
0000
0000
1000
0100
0000
0010
0000
,
0011
0000
0000
0010
0100
0000
1000
0000
1010
0000
0000
1000
0010
0000
0100
0000
,
0101
0000
0000
0001
0010
0000
0100
0000
0110
0000
0000
0100
1000
0000
0010
0000
,
0110
0100
1001
1000
1100
0000
1001
0000
,
1000
0000
0001
0100
0001
0000
1000
0000
0100
0000
1000
0100
1000
0000
0001
0000
,
0011
0000
0000
0000
0110
0000
0000
0000
1100
0000
0000
1000
0001
0000
0100
0000
,
0010
0000
1000
0010
1000
0000
0001
0000
0100
0000
0001
0010
0001
0000
0010
0000
,
0100
0000
0000
0100
1000
0000
0000
1000
0001
0000
0000
0000
0101
0000
0000
0000
,
1001
0000
1000
0100
1000
0000
0001
0000
0010
0000
0001
0000
1000
0000
0010
1000
,
0010
1010
0101
1001
,
1000
0000
0100
0010
0001
0000
0010
0000
0100
0000
1000
0010
0100
0000
0001
0000
,
0100
0000
0000
0100
0001
0000
0000
0001
1000
0000
0000
0000
1100
0000
1001
0000
,
1000
0001
1000
0000
0001
1000
0001
0000
1000
0001
1000
0000
0001
1000
0001
0000
,
1000
0000
0010
0000
1010
0000
0100
0000
0001
0000
1000
0000
0100
0010
0001
0000
,
1000
0001
1000
0000
0001
1000
0001
0000
1000
0001
1000
0000
0001
1000
0001
0000
,
1000
0000
0101
0000
1010
0000
1001
0000
1100
0000
1000
0000
0100
0010
0001
0000
,
1000
0001
1000
0000
0001
1000
0001
0000
1000
0001
1000
0000
0001
1000
0001
0000
,
1000
0000
0010
0000
0010
0000
0010
0000
0010
0000
0010
0000
0010
0100
0010
0000
,
0100
0000
0100
0001
0100
0000
0001
0000
1000
0000
1000
0100
1000
0000
0010
0000
,
0100
0000
0100
0000
0001
0000
0010
0000
0100
0000
1000
0000
0100
0010
0001
0000
,
0011
0000
0000
0001
0010
0000
0100
0000
1100
0000
0000
1000
0010
0000
0100
0000
,
0101
0000
0000
0001
0100
0000
0010
0000
1010
0000
0000
1000
0100
0000
0010
0000
,
0011
0000
0000
0010
0100
0000
1000
0000
1001
0000
0000
1000
0001
0000
0100
0000
,
0110
0000
0000
0010
1000
0000
0001
0000
0101
0000
0000
0001
1000
0000
0100
0000
,
1100
0000
0000
1000
0100
0000
0010
0000
0011
0000
0000
0010
0100
0000
1000
0000
,
1001
0000
0000
0001
0100
0000
0010
0000
0110
0000
0000
0010
1000
0000
0100
0000
,
0110
0000
0010
0001
1000
0010
0100
0001
,
1001
0000
1000
0100
0010
0001
1000
0010
,
0100
0000
0000
0100
0001
0000
1000
0000
0100
0000
0000
0100
0010
0000
0001
0000
,
0010
0000
0000
0010
0100
0000
0000
0100
1000
0000
0010
0000
0100
0000
0001
0000
,
0100
0000
0000
0100
0010
0000
1000
0000
0100
0000
0000
0100
0010
0000
0001
0000
,
0010
0000
0000
0010
0100
0000
1000
0000
0010
0000
0000
0010
0100
0000
0000
0100
,
0001
0000
1000
0100
1000
0000
0001
0000
0010
0000
0001
1000
0001
0000
0100
0000
,
0010
0000
1000
0010
1000
0000
0100
1000
0100
0000
1000
0000
0001
0000
0010
0000
,
0001
0000
1000
0001
1000
0000
0001
0100
0001
0000
1000
0000
0100
0000
0010
0000
,
0001
0010
0001
0010
0001
0010
0001
0010
0001
0010
0001
0010
0001
0010
0001
0010
,
0001
0000
0000
0001
0010
0000
0100
0000
1000
0000
0000
1000
0100
0000
0010
0000
,
0001
0000
0000
0001
0010
0000
0100
0000
1000
0000
0000
1000
0100
0000
0010
0000
,
0001
0000
0000
0001
0100
0000
0010
0000
1000
0000
0000
1000
0010
0000
0100
0000
,
0001
0000
0000
0001
0100
0000
0010
0000
1000
0000
0000
1000
0010
0000
0100
0000
,
0001
0000
0001
0100
0010
0000
1000
0000
0100
0000
0100
1000
0010
0000
0100
0000
,
1001
0100
0010
1001
1000
0100
0010
0001
,
1001
0000
0101
0110
0000
1010
0000
1001
,
1000
0000
0100
0010
0001
0000
0010
0000
0100
0000
1000
0000
0001
0000
0100
0000
,
0110
0000
1010
1001
0000
1100
0000
0011
,
0010
0000
0100
1000
0001
0000
0010
0000
0001
0000
1000
0010
0100
0000
0001
0000
,
0101
0000
0000
0100
0010
0000
1000
0000
0100
0000
0010
0000
0001
0000
0010
0000
,
0001
0000
0010
0100
1000
0001
0010
0000
0001
0000
1000
0100
0010
0001
0010
0000
,
2002
0000
0000
0000
,
3003
0000
0000
0000
;
#NOTES:
     dance-single:
     Renard:
     Easy:
     6:
     0.397,0.387,0.306,0.165,0.012:
0000
0000
0000
0000
,
0000
0000
0000
0000
,
1000
0000
1000
0001
0100
0000
0100
0001
,
0010
0000
0100
0010
0001
0000
0001
1000
,
0010
0000
1000
0010
0100
0000
0100
0001
,
0010
0110
1100
1001
,
1000
0000
1000
0001
0100
0000
0100
0001
,
0010
0011
0110
1000
,
1000
0100
1000
0100
0010
0001
1000
0010
,
0200
0302
2003
3100
,
0010
0001
1000
0010
0100
0001
0010
0001
,
2000
3020
0230
0301
,
0010
0001
1000
0100
1000
0001
0010
0001
,
2000
3020
0230
0301
,
0010
0001
1000
0100
1000
0001
0010
0001
,
2000
0000
3020
0000
0230
0000
0000
0301
,
1000
0100
1000
0000
0001
0000
0010
0000
0100
0000
1000
0000
0001
0000
0100
0000
,
0010
0010
0010
0010
,
0100
0001
0100
0000
0010
0000
1000
0000
0100
0000
0010
0000
0001
0000
1000
0000
,
0100
1000
0100
1000
,
0010
1000
0010
0000
1000
0000
0010
0000
0100
0000
0001
0000
1000
0000
0100
0000
,
0010
0000
0001
0000
1000
0000
0001
0100
,
0101
0000
0001
1000
0000
1100
0000
1001
,
0000
0000
1000
0001
0100
0001
1000
0100
,
1100
0000
1000
0100
1100
0000
1000
0100
,
1100
0000
1000
0100
1100
0000
1100
0000
,
0011
0000
0010
0001
0011
0000
0010
0001
,
0011
0000
0010
0001
0011
0000
0011
0000
,
0101
0000
0001
0100
0101
0000
0001
0100
,
0101
0000
0101
0000
0101
0000
0010
1000
,
1010
0000
1000
0100
0000
0011
0000
2002
,
0000
0000
0000
0000
3003
0000
1000
0001
,
0100
0000
0001
1000
0100
0000
1000
0001
,
0100
0001
1000
0100
1000
0000
0001
0010
,
0001
0000
1000
0010
1000
0000
0001
1000
,
0010
1000
0001
0010
0001
1000
0010
1000
,
0001
0000
1000
0100
1000
0000
0001
0100
,
0001
1000
0100
1000
0001
0000
1000
0001
,
0010
0001
1000
0010
1000
0000
0001
0010
,
0001
0100
0001
1000
0100
1000
0001
1000
,
0010
0000
1000
0100
0000
0010
0001
0000
,
1001
0000
0001
0100
0000
0001
1000
0100
,
0010
0000
0001
0010
0000
0100
1000
0000
,
0101
0000
0001
1000
0000
0100
1000
0001
,
0010
0000
0001
1000
0000
0010
0100
0000
,
1001
0000
0100
0010
0000
0000
0010
0100
,
0001
0000
0001
1000
0000
1001
0000
0220
,
0000
0000
0000
0000
0000
0000
0000
0330
0000
0000
0000
0000
0010
0000
0100
0000
,
0101
0000
0001
1000
0000
1100
0000
0022
,
0000
0000
0000
0000
0033
0000
1000
0100
,
1100
0000
1000
0010
0000
0110
0000
2002
,
0000
0000
0010
0000
,
0010
3003
0000
0000
0000
0000
0000
0000
0000
0000
0000
0000
0000
0000
0000
0000
;
#NOTES:
     dance-single:
     Renard:
     Beginner:
     3:
     0.255,0.263,0.083,0.174,0.000:
0000
0000
0000
0000
,
0000
0000
0000
0000
,
1000
1000
0001
0001
,
0100
0100
0010
0010
,
1010
0000
1100
0000
,
0011
0011
0011
0000
,
0101
0000
0011
0000
,
1100
1100
1100
0000
,
1000
0000
0001
0000
1000
0000
0001
1000
,
0002
0203
0302
0000
,
0103
0000
0001
0000
1000
0000
0100
1000
,
0200
2300
3002
0000
,
0103
0000
0001
0000
1000
0000
0001
1000
,
0002
2003
3002
0000
,
0103
0000
0001
0000
1000
0000
0010
1000
,
0020
2030
3002
0000
,
0103
0100
0100
0100
,
0100
0010
1000
0001
,
0100
0100
0100
0100
,
0010
1000
0001
1000
,
0100
0100
0100
0100
,
0100
0010
0001
1000
,
0100
0000
0000
1000
0000
0001
0000
0200
,
0000
0000
0000
0000
,
0301
0100
0001
0100
,
0010
1000
0010
1000
,
0100
1000
0100
1000
,
0001
0010
0001
0010
,
0001
0100
0001
0100
,
0010
1000
0010
1000
,
0100
1000
0100
1000
,
0001
0010
0001
0010
,
0001
0001
1000
1000
,
0001
0100
0020
0000
,
1030
0001
1000
1000
,
0100
0100
0010
0001
,
0200
0000
0302
0000
,
1003
0100
0020
0000
,
0031
1000
0020
0000
,
0230
0000
0000
0000
,
0301
1000
0001
1000
,
0001
1000
0001
1000
,
0010
1000
0001
0100
,
0010
1000
0001
0100
,
0001
0010
0100
1000
,
0001
0010
0100
1000
,
0001
0001
1000
1000
,
0001
1000
0001
1000
,
0001
0001
1000
1000
,
0001
0000
1000
0000
0001
0000
1000
0001
,
1000
0000
0000
0001
0000
1000
0000
0001
,
1000
0000
0001
0000
1000
0000
0001
2000
,
0002
0000
0000
0000
,
3003
0000
0000
0000
;
