#TITLE:Wolves in Wolves' Clothing;
#SUBTITLE:;
#ARTIST:NOFX;
#TITLETRANSLIT:;
#SUBTITLETRANSLIT:;
#ARTISTTRANSLIT:;
#CRChallenge:;
#BANNER:wolves.png;
#BACKGROUND:wolves-bg.png;
#LYRICSPATH:;
#CDTITLE:;
#MUSIC:wolves.ogg;
#OFFSET:0.000;
#SAMPLESTART:2.591;
#SAMPLELENGTH:12.000;
#SELECTABLE:YES;
#BPMS:0.000=86.000,68.000=424.000;
#STOPS:;
#BGCHANGES:;
#NOTES:
     dance-single:
     Renard:
     Hard:
     1:
     0.880,1.000,0.249,0.086,0.000:
0000
0000
0000
0000
,
1000
0100
1100
0100
0010
0001
0011
0001
,
0100
0001
0101
0100
0010
1000
1010
1000
,
0100
0010
0110
0010
0001
1000
1001
1000
,
0010
1000
1010
0010
0100
0001
0101
0001
,
1000
0100
1100
0100
0010
0001
0011
0001
,
1000
0010
1010
0010
0100
0001
0101
0001
,
1000
0100
1100
0100
0010
0001
0011
0010
,
2000
0200
0000
3311
0000
0000
0000
0000
,
1000
0100
0110
0010
0001
0100
0110
0010
,
1000
0100
0110
0010
0001
0100
0110
0010
,
1000
0100
1100
0100
0010
0001
0011
0001
,
1000
0010
1010
0010
0100
0001
0101
0001
,
1000
0001
1001
0100
0010
1000
1001
0100
,
0010
0001
1001
0100
0010
1000
1001
1000
,
0001
0100
0110
0010
1000
0100
0110
0010
,
0001
1000
0010
1000
,
0001
0000
0100
0000
0001
0100
0001
0000
,
0100
0000
0001
0000
0100
0001
0100
0000
,
0010
0000
1000
0000
0010
1000
0010
0000
,
1000
0000
0010
0000
1000
0010
1000
0000
,
0001
0000
1000
0001
1000
0001
1000
0000
,
0001
1000
0001
1000
0001
0000
1000
0000
,
0010
0000
0100
0010
0100
0010
0100
0000
,
0010
0100
0010
0100
0010
0000
0100
0000
,
0010
0000
1000
0000
0010
1000
0010
0000
,
1000
0000
0010
0000
1000
0010
1000
0000
,
0001
0000
0100
0000
0001
0100
0001
0000
,
0100
0000
0001
0000
0100
0001
0100
0000
,
0010
1000
0010
0001
,
0010
0100
1000
0100
,
0001
0100
0010
1000
,
0010
0100
0001
0100
,
0001
0000
1000
0000
0010
1000
0010
0000
,
1000
0000
0001
0000
0100
0001
0100
0000
,
0001
0000
1000
0000
0010
1000
0010
0000
,
1000
0000
0001
0000
0100
0001
0100
0000
,
0001
0000
1000
0000
0100
1000
0100
0000
,
1000
0000
0001
0000
0100
0001
0100
0000
,
0001
0000
1000
0000
0001
0010
0001
0000
,
1000
0000
0001
0000
1000
0010
1000
0000
,
0001
0000
0100
0000
0010
1000
0010
0000
,
0100
0000
0001
0000
0010
0001
0010
0000
,
0100
0000
1000
0000
0010
1000
0010
0000
,
0100
0000
0001
0000
0010
0001
0010
0000
,
0100
0000
1000
0000
0001
1000
0001
0000
,
0100
0000
0010
0000
1000
0010
1000
0000
,
0001
0100
0010
1000
,
0001
1000
0001
1000
0001
1000
0001
1000
,
0001
0000
0100
0000
0001
0100
0010
0000
,
0100
0000
0001
0000
0100
0001
0100
0000
,
0001
0000
0100
0000
0001
0100
0010
0000
,
0100
0000
0001
0000
0100
0001
0100
0000
,
0010
0000
1000
0010
1000
0010
1000
0000
,
0010
0100
0010
0100
0010
0000
1000
0000
,
0001
0000
0100
0001
0100
0001
0100
0000
,
0001
1000
0001
1000
0001
0000
1000
0000
,
0100
0000
1000
0000
0001
0010
0001
0000
,
1000
0000
0100
0000
0010
0001
0010
0000
,
0100
0000
1000
0000
0001
0010
0001
0000
,
1000
0000
0100
0000
0010
0001
0010
0000
,
0100
1000
0010
0001
,
0010
0100
0001
0100
,
0010
1000
0100
0001
,
0100
0010
0001
1000
,
0010
0000
1000
0000
0001
0010
0001
0000
,
1000
0000
0100
0000
0010
0001
0010
0000
,
0100
0000
1000
0000
0001
0010
0001
0000
,
1000
0000
0100
0000
0010
0001
0010
0000
,
0001
0000
1000
0000
0010
1000
0010
0000
,
1000
0000
0001
0000
0010
0001
0010
0000
,
0001
0000
1000
0010
1000
0010
1000
0000
,
0001
0000
0100
0001
0100
0000
0001
0000
,
1000
0000
0010
0000
0100
0001
0100
0000
,
0010
0000
1000
0000
0100
0010
0100
0000
,
1000
0000
0010
0000
0100
0001
0100
0000
,
0010
0000
1000
0000
0100
0010
0100
0000
,
0010
0000
0001
0000
1000
0001
1000
0000
,
0001
0000
0100
0000
0010
1000
0010
0000
,
0100
0001
1000
0001
,
1000
0100
1000
0100
1000
0100
1000
0100
,
1000
0100
0001
0100
,
1000
0100
0001
0100
,
1000
0010
0001
0010
,
1000
0010
0001
0010
,
0100
0001
0010
0100
,
1000
0100
0010
0001
,
0100
0010
1000
0100
,
0010
0001
0010
1000
,
0010
0001
0100
1000
,
0100
0010
0001
0010
,
1000
0100
0010
1000
,
0010
0001
0100
0010
,
0001
0010
0100
0001
,
0010
0100
1000
0100
,
0010
0001
1000
0010
,
0100
0000
0001
0000
1000
0000
0100
0010
,
0002
0000
0000
0000
,
0000
0000
0000
0000
0000
0000
0013
0100
,
2000
0000
0000
0000
,
0000
0000
0000
0000
0000
0000
3100
0010
,
0001
0010
0001
0010
0001
0010
0001
0010
,
0001
1000
0001
1000
0001
1000
0001
1000
,
0020
0000
0000
0000
,
1030
0001
0010
0100
,
2000
3100
0010
0002
,
0013
0100
2000
3100
,
0020
0031
0010
0200
,
1300
0000
0100
0000
0010
0001
0010
0001
,
0010
0000
0100
0000
1000
0100
1000
0000
,
0100
0000
0010
0000
0001
0010
0001
0000
,
1000
0000
0010
0000
0100
0001
0100
0000
,
0010
0000
1000
0000
0100
1000
0100
0000
,
1000
0000
0010
0000
0100
0001
0100
0000
,
0001
0000
0010
0000
0100
1000
0100
0000
,
0010
0000
0001
0000
1000
0100
1000
0000
,
0010
0000
0100
0000
0001
1000
0001
0000
,
0010
0000
0100
0000
1000
0100
1000
0000
,
0100
0000
0010
0000
0001
0010
0001
0000
,
1000
0000
0010
0000
0100
0001
0100
0000
,
0010
0000
1000
0000
0100
1000
0100
0000
,
1000
0000
0010
0000
0100
0001
0100
0000
,
0001
0000
0010
0000
0100
1000
0100
0000
,
0010
0000
0001
0000
1000
0100
1000
0000
,
0010
0000
0100
0000
0001
1000
0001
1000
,
0001
0000
0100
0000
0001
0010
0001
0000
,
0100
0000
0001
0000
0010
0001
0010
0000
,
0001
0000
1000
0000
0100
1000
0100
0000
,
1000
0000
0001
0000
1000
0010
1000
0000
,
0001
0000
0100
0000
0010
1000
0010
0000
,
0100
0000
0001
0000
0010
0001
0010
0000
,
0001
0000
1000
0000
0100
1000
0100
0000
,
1000
0100
0010
0001
1000
0100
0010
0001
,
1000
0000
0000
0000
;
#NOTES:
     dance-single:
     Renard:
     Challenge:
     1:
     0.880,1.000,0.249,0.086,0.000:
0000
0000
0000
0000
,
10M0
010M
11MM
010M
M010
0M01
MM11
0M01
,
M100
00M1
M1M1
M100
001M
1M00
1M1M
100M
,
010M
M010
M11M
M010
0M01
10M0
1MM1
10M0
,
001M
1M00
1M1M
001M
M100
00M1
M1M1
00M1
,
10M0
010M
11MM
010M
M010
0M01
MM11
M001
,
1M00
001M
1M1M
001M
M100
00M1
M1M1
00M1
,
10M0
010M
11MM
010M
M010
0M01
MM11
0M10
,
200M
02MM
00MM
3311
0000
MMMM
MMMM
MMMM
,
1MMM
01MM
M11M
M01M
MM01
M1M0
M11M
M01M
,
1M0M
01MM
M11M
M01M
MM01
M100
M11M
M01M
,
1M0M
01MM
11MM
01MM
M01M
MM01
MM11
MM01
,
1MM0
0M1M
1M1M
0M1M
M100
M0M1
M1M1
M0M1
,
1MM0
0MM1
1MM1
01M0
M01M
1M00
1MM1
0100
,
M01M
MM01
1MM1
01M0
M01M
1M0M
1MM1
1MM0
,
0MM1
M1M0
M11M
M01M
1M0M
01MM
M11M
M01M
,
MM01
MMM0
1MMM
0MMM
MM1M
MM0M
1MMM
0MMM
,
M0M1
0000
M1M0
0000
M0M1
0100
M0M1
0000
,
M1M0
0000
M0M1
0000
M1M0
0001
M1M0
0000
,
0M1M
0000
1M0M
0000
0M1M
1000
0M1M
0000
,
1M0M
0000
0M1M
0000
1M0M
0010
1M0M
0000
,
0MM1
0000
1MM0
0001
1MM0
0001
1MM0
0000
,
0MM1
1000
0MM1
1000
0MM1
0000
1MM0
0000
,
M01M
0000
M10M
0010
M10M
0010
M10M
0000
,
M01M
0100
M01M
0100
M01M
0000
M10M
0000
,
0M1M
0000
1M0M
0000
0M1M
1000
0M1M
0000
,
1M0M
0000
0M1M
0000
1M0M
0010
1M0M
0000
,
M0M1
0000
M1M0
0000
M0M1
0100
M0M1
0000
,
M1M0
0000
M0M1
0000
M1M0
0001
M1M0
0000
,
M01M
1M0M
M01M
MM01
,
M01M
M10M
10MM
01MM
,
M0M1
M1M0
M01M
1M0M
,
0M1M
M10M
M0M1
M1M0
,
M0M1
0000
1MM0
0000
0M1M
1000
0M1M
0000
,
1M0M
0000
00M1
0000
M1M0
0001
M1M0
0000
,
M0M1
0000
1M00
0000
0M1M
1000
0M1M
0000
,
1M0M
0000
00M1
0000
M1M0
0001
M1M0
0000
,
M0M1
0000
1M00
0000
01MM
1000
01MM
0000
,
10MM
0000
0M01
0000
M1M0
0001
M1M0
0000
,
M0M1
0000
1M00
0000
MM01
0010
MM01
0000
,
1M00
0000
0MM1
0000
100M
0010
100M
0000
,
0M01
0000
M1M0
0000
0M1M
1000
0M1M
0000
,
01M0
0000
M001
0000
MM10
0001
MM10
0000
,
010M
0000
1M0M
0000
0M1M
1000
0M1M
0000
,
M100
0000
M0M1
0000
MM10
0001
MM10
0000
,
010M
0000
1M0M
0000
0MM1
1000
0MM1
0000
,
01M0
0000
M01M
0000
1M0M
0010
1M0M
0000
,
00M1
M1M0
M01M
1MM0
,
0MM1
1000
0MM1
1000
0MM1
1000
0MM1
1000
,
0MM1
0000
M1M0
0000
M001
0100
M01M
0000
,
M10M
0000
M0M1
0000
M1M0
0001
M1M0
0000
,
M0M1
0000
M1M0
0000
M0M1
0100
M01M
0000
,
M10M
0000
M0M1
0000
M1M0
0001
M1M0
0000
,
M01M
0000
1M0M
0010
1M0M
0010
1M0M
0000
,
M01M
0100
M01M
0100
M01M
0000
1M0M
0000
,
0MM1
0000
M1M0
0001
M1M0
0001
M1M0
0000
,
0MM1
1000
0MM1
1000
0MM1
0000
1MM0
0000
,
01MM
0000
10MM
0000
0M01
0010
MM01
0000
,
1MM0
0000
010M
0000
M010
0001
MM10
0000
,
M10M
0000
10MM
0000
0M01
0010
MM01
0000
,
1M00
0000
01MM
0000
M010
0001
MM10
0000
,
M10M
10M0
0M1M
MM01
,
MM10
M10M
M0M1
M1M0
,
M01M
1M0M
01MM
M001
,
M1M0
M01M
0M01
1MM0
,
0M1M
0000
1M00
0000
0M01
0010
MM01
0000
,
10M0
0000
01MM
0000
M010
0001
MM10
0000
,
010M
0000
10MM
0000
0M01
0010
MM01
0000
,
10M0
0000
01MM
0000
M010
0001
MM10
0000
,
0M01
0000
1MM0
0000
001M
1000
0M1M
0000
,
1M00
0000
0MM1
0000
0M10
0001
MM10
0000
,
0M01
0000
1M0M
0010
1M0M
0010
1M0M
0000
,
00M1
0000
M1M0
0001
M1M0
0000
M0M1
0000
,
1M00
0000
0M1M
0000
M1M0
0001
M1M0
0000
,
M010
0000
1M0M
0000
M10M
0010
M10M
0000
,
10MM
0000
0M1M
0000
M100
0001
M1M0
0000
,
M01M
0000
1M0M
0000
010M
0010
M10M
0000
,
M01M
0000
MM01
0000
1MM0
0001
1MM0
0000
,
0M01
0000
M1M0
0000
0M1M
1000
0M1M
0000
,
01M0
M001
1MM0
0MM1
,
10MM
0100
10MM
0100
10MM
0100
10MM
0100
,
10MM
01MM
MM01
M100
,
10MM
01MM
MM01
M100
,
10MM
001M
MM01
MM10
,
10MM
001M
MM01
MM10
,
M10M
M0M1
MM10
M10M
,
10MM
01MM
M01M
MM01
,
M1M0
M01M
1M0M
01MM
,
M010
MM01
MM10
1M0M
,
0M1M
M001
M1M0
100M
,
01MM
M010
MM01
0M10
,
1M0M
010M
M01M
1M0M
,
0M1M
M001
M1M0
M01M
,
MM01
MM10
M10M
M0M1
,
MM10
M10M
10MM
01MM
,
M01M
MM01
1MM0
0M1M
,
M10M
0000
M001
0000
1MM0
0000
010M
0010
,
MM02
MMM0
MMM0
MMM0
,
MMM0
0000
MMM0
0000
MMM0
0000
MM13
0100
,
20MM
0MMM
0MMM
0MMM
,
0MMM
0000
0MMM
0000
0MMM
0000
310M
0010
,
MM01
0010
MM01
0010
MM01
0010
MM01
0010
,
MM01
1000
0MM1
1000
0MM1
1000
0MM1
1000
,
002M
M00M
M00M
M00M
,
1M30
0M01
MM10
M10M
,
200M
31MM
M010
MM02
,
M013
M10M
200M
31MM
,
M020
MM31
M010
M20M
,
130M
0000
01MM
0000
M010
0001
MM10
0001
,
MM10
0000
010M
0000
10MM
0100
10MM
0000
,
M100
0000
M01M
0000
M001
0010
MM01
0000
,
100M
0000
0M1M
0000
M100
0001
M1M0
0000
,
001M
0000
1M0M
0000
010M
1000
01MM
0000
,
100M
0000
0M1M
0000
M100
0001
M1M0
0000
,
M001
0000
M01M
0000
010M
1000
01MM
0000
,
M010
0000
MM01
0000
10M0
0100
10MM
0000
,
M010
0000
M10M
0000
00M1
1000
0MM1
0000
,
M010
0000
M10M
0000
100M
0100
10MM
0000
,
010M
0000
M01M
0000
M001
0010
MM01
0000
,
100M
0000
0M1M
0000
M100
0001
M1M0
0000
,
001M
0000
1M0M
0000
01MM
1000
01MM
0000
,
100M
0000
0M1M
0000
M100
0001
M1M0
0000
,
M001
0000
MM10
0000
010M
1000
01MM
0000
,
001M
0000
MM01
0000
10M0
0100
10MM
0000
,
001M
0000
M10M
0000
00M1
1000
0MM1
1000
,
0MM1
0000
M10M
0000
M001
0010
MM01
0000
,
M100
0000
M0M1
0000
M010
0001
MM10
0000
,
MM01
0000
10M0
0000
01MM
1000
01MM
0000
,
10M0
0000
0MM1
0000
1M00
0010
1M0M
0000
,
00M1
0000
M1M0
0000
001M
1000
0M1M
0000
,
01M0
0000
M0M1
0000
MM10
0001
MM10
0000
,
0M01
0000
10M0
0000
01MM
1000
01MM
0000
,
1M00
01M0
001M
M001
1M00
01M0
001M
0001
,
1000
0000
0000
0000
;
