#TITLE:Wicked MC;
#SUBTITLE:;
#ARTIST:CLSM feat. Sharkey;
#TITLETRANSLIT:;
#SUBTITLETRANSLIT:;
#ARTISTTRANSLIT:;
#CRChallenge:;
#BANNER:mc.jpg;
#BACKGROUND:mc-bg.jpg;
#LYRICSPATH:;
#CDTITLE:;
#MUSIC:mc.ogg;
#OFFSET:0.000;
#SAMPLESTART:71.980;
#SAMPLELENGTH:12.000;
#SELECTABLE:YES;
#DISPLAYBPM:180.000;
#BPMS:0.000=180.000,112.000=90.000,143.500=359.999,145.000=180.000;
#STOPS:143.500=0.083
;
#BGCHANGES:;
#NOTES:
     dance-single:
     Renard:
     Hard:
     12:
     0.980,1.000,0.000,0.365,1.000:
0000
0000
0000
0000
,
0000
0000
0000
0000
,
0000
0000
0000
0000
,
0000
0000
0000
0000
,
1000
0100
1000
0000
0001
0010
0001
0000
1000
0010
1000
0000
0001
0100
0001
0000
,
1000
0000
0100
0010
0001
0000
1000
0001
1000
0001
0100
0000
0001
1000
0001
0000
,
1000
0100
0010
0001
0010
0100
1000
0001
0010
0100
1000
0001
0010
0000
0001
0000
,
1000
0000
0010
0100
0001
0000
0100
0010
1000
0001
0100
0000
0020
0000
0000
0000
,
1030
0020
0031
0020
1030
0020
0031
0020
,
1030
0020
0031
0020
1030
0020
0031
0020
,
1030
0200
0301
0200
1300
0200
0301
0200
,
M300
0200
030M
0200
M300
0200
230M
0000
,
3010
1000
0000
0001
0100
0000
0010
1000
0000
0100
0010
0000
0001
0010
0100
1000
,
0001
0010
0000
0100
1000
0000
0001
0010
0000
0100
1000
0000
0001
0100
0010
1000
,
0001
0010
0000
0100
0010
0000
0001
0010
0000
0100
1000
0000
0001
0100
0010
1000
,
0001
1000
0000
0010
1000
0000
0001
0100
0000
0001
0010
0000
0100
1000
0001
1000
,
0100
0010
0000
0001
0010
0000
0100
1000
0000
0001
0010
0000
0001
1000
0010
1000
,
0001
0100
0000
0010
1000
0000
0100
1000
0000
0001
0010
0000
0001
0100
0010
1000
,
0100
0010
0000
0001
0010
0000
0100
1000
0000
0001
0010
0000
0001
1000
0100
1000
,
0001
0010
0000
0001
0100
0000
0010
1000
0000
0001
0010
0000
0001
0100
0010
1000
,
0001
0100
0001
0000
0100
0010
0100
0000
0010
1000
0010
0000
1000
0001
1000
0000
,
0001
0000
0010
0100
0010
0000
0100
1000
0100
1000
0100
0000
1000
0001
1000
0000
,
0001
0100
0001
0000
1000
0010
1000
0000
0001
0010
0001
0000
1000
0100
1000
0000
,
0001
0010
0001
0000
1000
0000
0100
1000
0100
1000
0100
0000
1000
0001
1000
0000
,
0001
0100
0001
0000
0010
0001
0010
0000
0100
1000
0100
0000
1000
0010
1000
0000
,
0010
0000
0100
0001
0100
0000
0001
0010
0001
0010
0001
0000
1000
0100
1000
0000
,
0001
0100
0001
0000
1000
0010
1000
0000
0010
0100
0010
0000
1000
0001
1000
0000
,
0001
0000
1000
0001
1000
0000
0001
1000
0001
1000
0001
0000
2000
0000
0000
0000
,
3002
0000
0200
0000
0020
0000
2000
0000
0000
0000
0000
0000
0000
0000
0000
0000
0000
0000
0000
0000
0000
0000
3000
0000
0300
M000
0030
0M00
0003
00M0
0000
000M
,
2000
0000
0200
0000
0020
0000
0002
0000
0000
0000
0000
0000
0000
0000
0000
0000
0000
0000
0000
0000
0000
0000
0003
0000
0030
000M
0300
00M0
3000
0M00
0000
M000
,
0020
0000
0200
0000
0002
0000
2000
0000
0000
0000
0000
0000
0000
0000
0000
0000
0000
0000
0000
0000
0000
0000
3000
0000
0003
M000
0300
000M
0030
0M00
0000
00M0
,
2000
0000
0002
0000
0200
0000
0020
0000
0000
0000
0000
0000
0000
0000
0000
0000
0000
0000
0000
0000
0000
0000
0300
0000
0030
0M00
3000
00M0
0003
M000
0000
000M
,
1000
0000
0010
1000
0010
0000
0100
0001
0010
0100
1000
0000
0001
0000
1000
0100
0010
0000
0001
0010
0100
0000
1000
0001
0100
0001
1000
0000
0010
0000
1000
0001
,
0100
0010
1000
0100
0010
0001
0010
0100
1000
0001
0100
0000
0010
0000
1000
0000
0010
0000
0100
0001
1000
0000
0100
0010
0001
1000
0001
0000
0100
0000
0000
0000
,
0001
0000
0100
0001
0100
0000
0010
1000
0100
0010
0001
0000
1000
0000
0001
0010
0100
0000
1000
0100
0010
0000
0001
1000
0010
1000
0001
0000
0100
0000
0001
1000
,
0010
0100
0001
0010
0100
1000
0100
0010
0001
1000
0010
0000
0100
0000
0001
0000
0100
0000
0010
1000
0001
0000
0010
0100
1000
0001
1000
0000
0020
0000
0000
0000
,
0000
0000
0000
0000
1030
0100
0000
0010
0001
0000
1000
0100
0000
0010
0001
0000
,
1000
0100
0010
0001
1000
0010
0000
0100
0001
0000
1000
0010
0000
0100
0001
0000
,
1000
0010
0100
0001
1000
0100
0000
0010
0001
0000
1000
0100
0000
0010
0001
0000
,
1000
0100
0010
0001
1000
0010
0000
0100
0001
0000
1000
0010
0000
0100
0001
0000
,
1000
0010
0100
0001
1000
0100
0000
0010
0001
0000
1000
0100
0000
0010
0001
0000
,
1000
0100
0010
0001
1000
0010
0000
0100
0001
0000
1000
0010
0000
0100
0001
0000
,
1000
0010
0100
0001
1000
0100
0000
0010
0001
0000
1000
0100
0000
0010
0001
0000
,
1000
0100
0010
0001
1000
0010
0000
0100
0001
0000
1000
0010
0000
0100
0001
0000
,
1000
0010
0100
0001
1000
0100
0000
0100
1000
0000
0001
0010
0000
0010
0001
0000
,
0000
1000
0000
0010
0100
0001
0000
0001
0100
0000
0010
1000
0000
1000
0010
0000
,
0000
0100
0000
0001
0010
0100
0000
0100
0010
0000
0001
1000
0000
1000
0001
0000
,
0000
1000
0000
0010
1000
0010
0000
0010
1000
0000
0001
0100
0000
0100
0001
0000
,
0000
1000
0000
0100
0010
0001
0000
0001
0010
0000
0100
1000
0000
1000
0100
0000
,
0000
1000
0000
0010
0100
0001
0000
0001
0100
0000
0010
1000
0000
1000
0010
0000
,
0000
1000
0000
0100
1000
0001
0000
0001
0010
0000
0001
1000
0000
1000
0010
0000
,
0000
0100
0000
0001
0010
0100
0000
0100
0010
0000
0001
1000
0000
1000
0010
0000
,
0000
0100
0000
0010
1000
0000
0010
1000
0010
0000
0100
0001
0100
0001
0100
0000
,
0001
0000
0010
0000
0100
0000
1000
0001
0010
0000
0001
1000
0100
1000
0001
0000
,
1000
0000
0001
0000
0100
0010
1000
0001
0010
0100
1000
0001
0010
0100
1000
0000
,
0001
0000
1000
0000
0010
0000
0100
0001
0100
0000
0010
1000
0100
0010
0001
0000
,
0010
0000
0000
0000
0100
0000
1000
0001
0010
0000
0001
1000
0010
1000
0001
0000
,
0100
0000
0010
0000
1000
0000
0100
0000
0010
0000
0001
0000
0010
0100
1000
0000
,
0100
0000
1000
0000
0001
0100
0010
1000
0100
0010
0001
0010
0100
1000
0001
0000
,
0100
0000
0010
0000
1000
0000
0100
1000
0100
0000
0010
0001
0010
0001
0010
0000
,
0200
1300
0000
0000
;
#NOTES:
     dance-single:
     Renard:
     Medium:
     9:
     0.629,0.977,0.020,0.101,0.400:
0000
0000
0000
0000
,
0000
0000
0000
0000
,
0000
0000
0000
0000
,
0000
0000
0000
0000
,
1000
0100
0010
0001
0100
0010
0100
0010
,
1000
0100
0010
0001
0010
0100
1000
0001
,
0010
0100
1000
0010
0100
0010
0100
0001
,
0010
0100
1000
0100
0010
0001
0200
0000
,
0310
1000
0010
0001
0010
1000
0010
0001
,
0010
1000
0010
0001
0010
1000
0010
0001
,
0010
1000
0010
0001
0010
1000
0010
0001
,
00M0
1000
00M0
0001
00M0
1000
00M0
0001
,
0010
1000
0100
0010
0001
0010
0100
1000
,
0010
0100
0001
0010
0100
1000
0001
0000
,
0001
0100
0010
1000
0100
1000
0001
0010
,
0001
1000
0010
0100
0001
0000
1001
0000
,
1000
0100
0010
0100
1000
0001
0010
0100
,
0010
0001
1000
0010
0100
0001
1000
0000
,
0001
0010
0100
0010
0100
0010
0001
1000
,
0100
1000
0001
0100
0010
0000
1001
0000
,
1000
1000
0100
0010
0001
0001
0010
0100
,
1000
1000
0010
0100
0001
0010
0100
1000
,
0001
0001
0100
0010
1000
1000
0010
0100
,
0001
0010
0100
1000
0001
0100
0010
0000
,
1000
1000
0010
0100
0001
0001
0010
0100
,
1000
0100
0100
0010
0001
0001
0010
0100
,
1000
0010
0010
0100
0001
0010
0010
0001
,
1000
0010
0100
0001
1000
0100
0020
0000
,
0032
0000
0000
0000
,
2000
0000
0000
0000
,
0200
0000
0000
0000
,
0020
0030
0020
3333
,
1000
0010
0001
0010
0100
1000
0100
0001
0010
0100
0001
0100
1000
0010
0001
0010
,
0100
1000
0100
0001
0100
0001
1000
0100
0001
0100
0010
0001
0010
1000
0010
0000
,
0010
0001
0010
0100
0001
0100
1000
0010
0001
0010
0100
1000
0100
0001
1000
0100
,
0001
0100
0010
0001
0010
1000
0010
0010
1000
0010
0001
0010
0100
0001
0200
0000
,
0000
0000
0000
0000
1300
0000
0000
0001
0000
0000
0100
0000
0000
0010
0000
0000
,
0000
1000
0000
0100
0010
0000
0000
0001
0000
0000
1000
0000
0000
0010
0000
0000
,
0000
0100
0000
0001
0100
0000
0000
0010
0000
0000
1000
0000
0000
0100
0000
0000
,
0000
0010
0000
0001
1000
0000
0000
0100
0000
0000
0010
0010
0000
0001
0000
0000
,
0000
1000
0000
0100
1000
0000
0000
0010
0000
0000
0100
0000
0000
0001
0000
0000
,
0000
0010
0000
0001
1000
0000
0000
0100
0000
0000
1000
0000
0000
0001
0000
0000
,
0000
0010
0000
0001
1000
0000
0000
0100
0000
0000
1000
0000
0000
0010
0000
0000
,
0000
0100
0000
0001
0100
0000
0000
0010
0000
0000
1000
0000
0000
0010
0000
0000
,
0000
0100
0000
0001
1000
0000
0100
0000
0010
0000
0001
0000
1000
0000
0010
0000
,
0000
0100
0000
0100
0001
0000
0010
0000
0100
0000
1000
0000
0001
0000
0010
0000
,
0000
0001
0000
0001
1000
0000
0010
0000
0100
0000
0001
0000
0010
0000
0100
0000
,
0000
1000
0000
1000
0010
0000
0100
0000
0001
0000
0010
0000
0100
0000
1000
0000
,
0000
0010
0000
0010
0100
0000
0001
0000
0010
0000
0100
0000
1000
0000
0001
0000
,
0000
1000
0000
1000
0010
0000
0100
0000
0001
0000
0010
0000
0100
0000
1000
0000
,
0000
0001
0000
0001
0100
0000
0010
0000
1000
0000
0100
0000
0010
0000
0001
0000
,
0000
1000
0000
1000
0010
0000
0100
0000
0001
0000
0010
0000
0100
0000
1000
0000
,
0000
0001
0000
1000
0001
0000
0010
0000
0001
0000
0010
0000
0100
0000
0010
0000
,
0100
0010
0100
1000
0010
0100
0001
0010
,
0100
1000
0001
1000
0001
1000
0010
1000
,
0010
1000
0010
0100
0001
0010
0100
1000
,
0001
0000
1000
0100
1000
0100
0010
0100
,
0010
0100
0010
0001
1000
0010
0100
0001
,
0010
0100
1000
0100
1000
0100
0010
0100
,
0010
0100
0010
0001
1000
0010
0100
0002
,
2000
3013
0000
0000
;
#NOTES:
     dance-single:
     Renard:
     Easy:
     6:
     0.381,0.519,0.030,0.081,0.000:
0000
0000
0000
0000
,
0000
0000
0000
0000
,
0000
0000
0000
0000
,
0000
0000
0000
0000
,
0001
0000
0001
0000
1000
0100
1000
0000
,
0001
0000
0001
0000
1000
0100
1000
0100
,
1000
0100
1000
0100
0010
0100
0010
0001
,
1000
0001
0100
0010
1000
0001
0020
0000
,
0031
0001
0010
0010
,
1000
1000
0010
0010
,
0001
0001
0010
0010
,
0000
0000
0000
0000
,
0010
0001
0010
0000
0001
0000
1000
0000
,
0100
1000
0100
0000
1000
0000
0001
0000
,
0010
0001
0010
0000
0001
0000
1000
0000
,
0100
1000
0100
0000
1000
0000
0001
0000
,
1000
0010
1000
0000
0001
0000
1000
0000
,
0001
0100
0001
0000
1000
0000
0001
0000
,
1000
0010
1000
0000
0001
0000
1000
0000
,
0001
0100
0010
1000
,
0001
0001
0010
0010
,
0100
0000
0100
0000
1000
0100
1000
0000
,
0001
0001
0010
0010
,
0001
0000
1000
0000
0001
0100
0001
0000
,
1000
1000
0100
0100
,
0010
0000
0001
0000
1000
0001
1000
0000
,
0001
0001
0100
0100
,
0010
0000
1000
0000
0010
1000
0010
0000
,
2000
0000
0000
0000
,
0020
0000
0000
0030
,
0200
0000
0000
0000
,
0020
0000
0002
3333
,
1000
1000
0001
0100
0010
0010
0100
0001
,
0010
0010
0001
1000
0100
0100
1000
0010
,
0100
0100
0001
0010
0100
0100
0010
0001
,
1000
1000
0010
0010
0100
0001
0010
0002
,
0000
1003
1000
0100
,
0000
0010
0010
0001
,
0000
1000
1000
0010
,
0000
0100
0100
0001
,
0000
0010
0001
0011
,
0000
0010
0100
0110
,
0100
0000
1000
0000
1100
0000
1000
0010
,
0100
0001
1000
0001
0100
0010
1000
0000
,
0001
0000
1000
0000
1000
0000
0100
1000
,
0100
0000
1000
0000
1000
0000
0100
1000
,
0100
0000
0010
0000
0010
0000
0001
0010
,
0001
0010
0010
0001
,
1000
0000
0001
0000
0001
0000
0100
0001
,
0100
0000
0010
0000
0010
0000
1000
0010
,
1000
0000
0100
0000
0100
0000
1000
0100
,
1000
0001
0010
0100
,
1000
0001
0001
0100
,
0100
0010
1000
0010
,
0100
0001
1000
0100
,
0010
0001
1000
0001
,
0010
1000
0001
1000
,
0001
0010
0001
0100
,
0001
1000
0100
1000
,
0001
0010
0010
0001
,
2000
3001
0000
0000
;
#NOTES:
     dance-single:
     Renard:
     Beginner:
     3:
     0.285,0.397,0.000,0.051,0.000:
0000
0000
0000
0000
,
0000
0000
0000
0000
,
0000
0000
0000
0000
,
0000
0000
0000
0000
,
1000
0000
1000
0001
,
0100
0000
0001
0010
,
0100
0100
0010
0001
,
1000
0010
1000
0002
,
0013
0010
0100
0100
,
0010
0010
0100
0100
,
0010
0100
0010
0100
,
0000
0010
0000
0010
0000
0010
0000
0010
,
0001
0001
1000
0000
,
0001
0100
0010
0000
,
1000
1000
0100
0000
,
1000
0001
0010
0000
,
0001
1000
0001
0000
,
0001
1000
0100
0000
,
1000
0001
1000
0000
,
1000
0001
0100
0000
,
0001
0100
0001
0100
,
0010
0000
0010
1000
,
0100
1000
0100
0010
,
0001
0000
0001
1000
,
0010
0010
0100
0001
,
1000
1000
0100
0010
,
0001
0001
1000
1000
,
0010
0000
0010
0000
,
0100
0000
0000
0000
,
0010
0000
0000
0000
,
1000
0000
0000
0000
,
0002
0000
0023
0000
,
0031
0001
0001
0000
1000
1000
1000
0000
,
0010
0010
0010
0000
0100
0100
0100
0000
,
0001
0001
0001
0000
1000
1000
1000
0000
,
0100
0010
0100
0000
0010
0001
0010
0020
,
0000
0031
0001
0001
,
0000
1000
1000
1000
,
0000
0001
0001
0001
,
0000
1000
1000
1000
,
0000
0010
0000
0010
,
0000
0100
0000
0100
,
0000
0010
0010
1000
,
1000
0001
0001
0100
,
0100
0001
0000
0001
,
0000
1000
0100
1000
,
0100
1000
0000
1000
,
0000
0001
0100
0001
,
0100
0001
0000
0001
,
0000
1000
0100
1000
,
0100
1000
0000
1000
,
0000
0001
0010
0100
,
1000
0001
0001
1000
,
1000
0001
1000
0001
,
1000
0001
0001
1000
,
1000
0001
1000
0001
,
0000
0010
0010
0100
,
0100
0010
0100
0010
,
0100
0010
0010
0100
,
0100
0010
0010
0001
,
2000
3001
0000
0000
;
