#TITLE:White & Black (Doe Remix);
#SUBTITLE:;
#ARTIST:Omicron Complex;
#TITLETRANSLIT:;
#SUBTITLETRANSLIT:;
#ARTISTTRANSLIT:;
#CRChallenge:;
#BANNER:wb.png;
#BACKGROUND:wb-bg.png;
#LYRICSPATH:;
#CDTITLE:;
#MUSIC:wb.ogg;
#OFFSET:0.000;
#SAMPLESTART:56.471;
#SAMPLELENGTH:12.000;
#SELECTABLE:YES;
#BPMS:0.000=170.000;
#STOPS:;
#BGCHANGES:;
#NOTES:
     dance-single:
     Renard:
     Medium:
     8:
     0.577,0.586,0.345,0.105,0.043:
0000
0000
0000
0000
,
0000
0000
0000
0000
,
0000
0000
0000
0000
,
0000
0000
0000
0000
,
1000
0000
1000
0000
0100
0010
0001
1000
,
0000
1000
0000
0001
0010
0100
1000
0100
,
0010
0000
0010
0000
0010
0001
0100
0010
,
1000
0010
1000
0010
1000
0001
1000
0100
,
1000
0100
0010
0001
0010
0000
0001
0010
,
0100
1000
0100
0000
1000
0100
0010
0001
,
0010
0001
0010
0100
1000
0000
0100
1000
,
0100
0010
0001
0000
0010
0001
0010
0100
,
1000
0001
0100
0010
1000
0000
1000
0010
,
0100
0001
0100
0000
0001
0100
0010
1000
,
0001
1000
0100
0010
0001
0000
0010
0100
,
1000
0001
1000
0001
1000
0010
1000
0100
,
1000
1000
2000
0001
,
0001
0002
3013
0000
,
0001
0001
0002
1000
,
1000
2000
3013
0000
,
1000
1000
2000
0001
,
0001
0002
3013
0000
,
0001
0001
1000
1000
0001
0001
1000
0001
,
0100
0100
0100
0100
,
0010
1000
0000
0000
0001
0000
0100
0000
0010
0000
1000
0000
0100
0000
0010
0000
,
0001
0010
0000
0000
0100
0000
1000
0000
0001
0000
0010
0000
0100
0000
1000
0000
,
0001
0100
0000
0000
0010
0000
1000
0000
0100
0000
0010
0000
0001
0000
1000
0000
,
0100
0000
0010
0000
0001
0010
0000
0000
0001
0000
0000
0000
0011
0000
0000
0000
,
1000
0100
0000
0000
1000
0000
0100
0000
0010
0000
0001
0000
1000
0000
0010
0000
,
0100
0010
0000
0000
0100
0000
0001
0000
0010
0000
0100
0000
1000
0000
0001
0000
,
0100
0000
0000
0100
0000
0000
0010
0000
1000
0000
0100
0000
0010
0000
0000
0000
,
0001
0000
0000
1000
0000
0000
0001
1000
0001
0000
0000
0000
1001
0000
0000
0000
,
1000
0000
1001
0000
0110
0000
0010
1000
,
0000
0000
1000
0100
0010
0001
0010
0100
,
1000
0000
0011
0000
0100
1000
0001
0000
,
0100
0000
0110
0000
0010
1000
0100
0000
,
0010
0000
0010
0000
1001
0000
0001
0100
,
0000
0000
0000
0000
0010
1000
0010
0000
,
1000
0100
1000
0000
0001
0010
0001
0000
,
0100
0100
0100
0100
0000
0000
0010
0000
,
1010
0000
1010
0000
1010
0000
0100
0001
,
0000
0100
0001
0000
0101
0000
0101
0000
,
0011
0000
0011
0000
0011
0000
0100
1000
,
0000
1000
0100
0000
1000
0010
0100
0001
,
1000
0000
1010
0000
1010
0000
0001
0100
,
0000
0100
0001
0000
1010
0000
1010
0000
,
1000
0000
1100
0000
1100
0000
0001
0010
,
0000
0010
0001
0000
1000
0100
0010
0000
,
0001
0010
0100
0000
0110
0000
0100
1000
,
0000
1000
0010
0000
0110
0000
1001
0000
,
0001
0010
0100
0000
0110
0000
0010
0001
,
0000
1000
0010
0000
0100
0010
1000
0000
,
0010
1000
0001
0000
1001
0000
1000
0001
,
0000
0001
0100
0000
0110
0000
1010
0000
,
0100
0010
0001
0000
0011
0000
0010
0100
,
0000
0100
1000
0000
1000
0100
0010
0000
,
0001
0001
0001
0000
,
0001
0001
0010
0010
0100
0100
1000
1000
,
1000
1000
1000
0000
,
2000
3200
0320
0032
,
1003
1000
1000
0000
,
0001
0010
0100
1000
0100
0010
0001
1000
,
0001
0001
0001
1000
,
0001
0001
0001
1000
,
0010
0110
1001
0000
,
0001
0010
0100
1000
0010
0100
0001
0000
,
1001
1001
1001
0000
,
1000
0010
0100
0001
0010
0100
1000
0000
,
0001
0010
0001
0000
0011
0000
0000
0000
,
0001
0010
0100
1000
0001
0100
0010
0000
,
1000
0010
1000
0000
1010
0000
0010
0000
,
0100
0001
0010
0100
1000
0000
0001
0200
,
0300
0000
0000
0000
;
#NOTES:
     dance-single:
     Renard:
     Easy:
     6:
     0.409,0.481,0.000,0.000,0.000:
0000
0000
0000
0000
,
0000
0000
0000
0000
,
0000
0000
0000
0000
,
0000
0000
0000
0000
,
0001
0000
1000
0000
0100
0000
1000
0001
,
0000
0000
0000
0000
,
0000
0000
0000
0000
,
1000
0001
1000
0001
,
0100
0100
0100
0000
,
0001
1000
0001
0000
1000
0000
0000
0000
,
0100
0100
0100
1000
,
0001
1000
0001
0000
0100
0000
0000
0000
,
0001
0001
0001
1000
,
0001
1000
0001
0000
1000
0000
0000
0000
,
0100
0100
0100
1000
,
0001
1000
0001
0000
0100
0000
0000
0000
,
0001
0001
0001
0000
,
1000
1000
1000
0000
,
0001
0001
0001
0000
,
1000
1000
1000
0000
,
0001
0100
0001
0100
0001
0000
1000
0001
,
1000
0001
1000
0000
0100
1000
0100
0000
,
1000
0001
1000
0001
1000
0001
0100
0001
,
1000
1000
1000
1000
,
0001
0000
0100
0000
0001
0100
0001
0000
,
0100
0000
0001
0000
0100
0001
0100
0000
,
0001
0000
1000
0000
0001
1000
0001
0000
,
1000
0000
0100
0000
1000
0100
1000
0000
,
0001
0000
1000
0000
0001
1000
0001
0000
,
1000
0000
0001
0000
1000
0001
1000
0000
,
0010
0010
0100
0100
,
0001
1000
0001
0000
,
1000
0000
0100
0000
1000
0100
1000
0000
,
0001
0000
1000
0000
0001
1000
0001
0000
,
0100
0100
0001
1000
,
0100
0010
0001
1000
,
0010
0000
1000
0000
0001
0000
0001
0100
,
0000
0000
0000
0001
0000
1000
0100
0000
,
1000
0001
1000
0000
0001
0100
0001
0000
,
1000
1000
0001
0000
,
1000
0000
0100
0000
1000
0000
0100
1000
,
0000
1000
0100
0000
1000
0100
1000
0000
,
0001
0000
1000
0000
0001
0000
0001
1000
,
0000
1000
0001
0000
1000
0001
1000
0000
,
0001
0000
0100
0000
0001
0000
0001
0100
,
0000
0100
0001
0000
0100
0000
0001
0000
,
1000
0000
1000
0000
0001
0000
0001
1000
,
0000
1000
0001
0000
1000
0001
1000
0000
,
0001
0000
0100
0000
0001
0000
0100
0001
,
0000
0100
0001
0000
0100
0000
0001
0000
,
1000
0000
0001
0000
1000
0000
0001
1000
,
0000
0001
1000
0000
0100
0000
1000
0000
,
0001
0000
0100
0000
0001
0000
1000
0001
,
0000
1000
0001
0000
1000
0000
0100
0000
,
1000
0000
0001
0000
0100
0000
0001
1000
,
0000
0001
1000
0000
0100
0000
0100
0000
,
1000
1000
0001
0100
,
0001
1000
0001
1000
0001
1000
0001
1000
,
0001
0100
0001
1000
,
0100
0100
0010
0010
,
0001
0001
1000
0000
,
0010
1000
0010
1000
0010
1000
0010
1000
,
0001
0001
1000
1000
,
0001
0001
1000
1000
,
0001
0100
0001
0000
,
1000
0001
1000
0001
1000
0000
0001
0000
,
0100
0100
0100
0000
,
0001
1000
0001
1000
0001
0000
1000
0000
,
0100
0100
0100
0000
,
1000
0001
1000
0001
1000
0000
0001
0000
,
0100
0100
0100
0000
,
0001
1000
0001
1000
0001
0000
1000
0000
;
#NOTES:
     dance-single:
     Renard:
     Beginner:
     3:
     0.296,0.309,0.077,0.029,0.000:
0000
0000
0000
0000
,
0000
0000
0000
0000
,
0000
0000
0000
0000
,
0000
0000
0000
0000
,
0001
0001
1000
1000
,
0000
0000
0000
0000
,
0000
0000
0000
0000
,
0020
0100
0100
0130
,
0010
0010
0010
0100
,
0100
0100
0010
0000
,
1000
1000
1000
0001
,
0001
0001
1000
0000
,
0010
0010
0010
0100
,
0100
0100
0010
0000
,
1000
1000
1000
0001
,
0001
0001
1000
0000
,
0002
0000
0000
0000
,
0000
0000
0000
0000
,
0200
0000
0000
0000
,
0000
0000
0000
0000
,
0010
0010
0010
0000
,
1000
1000
1000
0000
,
0010
0010
0010
0000
,
1303
0000
0000
0000
,
0001
0001
0001
0001
,
0001
0001
0001
0001
,
0001
0001
0001
0001
,
0001
0001
0100
0010
,
1000
1000
1000
1000
,
1000
1000
1000
1000
,
1000
1000
1000
1000
,
0010
0100
0001
0000
,
1000
0100
1000
0100
,
1100
0000
1100
0000
,
0001
0100
0001
0100
,
0101
0000
0101
0000
,
0001
0010
0001
0010
,
0011
0000
0011
0000
,
1000
0010
1000
0010
,
1010
0000
1010
0000
,
1000
1000
1000
0000
,
0001
0001
0001
0000
,
0100
0100
0100
0000
,
0010
0010
0010
0000
,
1000
1000
1000
0000
,
0001
0001
0001
0000
,
1000
0010
1000
0000
,
0001
0100
0001
0000
,
1000
1000
1000
0000
,
0001
0001
0001
0000
,
0100
0100
0100
0000
,
0010
0010
0010
0000
,
1000
1000
1000
0000
,
0001
0001
0001
0000
,
0100
0100
0100
0000
,
0010
0000
0010
0000
,
1000
0010
1000
0000
,
0001
0001
0001
0001
,
1000
1000
1000
0000
,
0001
0100
0001
0100
,
0010
0010
0010
0000
,
1000
0010
1000
0010
,
0100
0100
0100
0000
,
0001
0001
0001
0000
,
1000
0100
1000
0000
,
0100
0100
0100
0100
,
0010
0001
0010
0000
,
0100
0100
0100
0100
,
1000
0010
1000
0000
,
0100
0100
0100
0100
,
0010
0001
0010
0000
,
0100
0100
0100
1000
;
