#TITLE:What Lurks on Channel X?;
#SUBTITLE:;
#ARTIST:Rob Zombie;
#TITLETRANSLIT:;
#SUBTITLETRANSLIT:;
#ARTISTTRANSLIT:;
#CRChallenge:;
#BANNER:x.png;
#BACKGROUND:x-bg.png;
#LYRICSPATH:;
#CDTITLE:;
#MUSIC:x.ogg;
#OFFSET:0.000;
#SAMPLESTART:16.251;
#SAMPLELENGTH:12.000;
#SELECTABLE:YES;
#BPMS:0.000=118.000,16.000=236.000;
#STOPS:124.000=0.763
,153.000=0.763
,294.000=0.763
,323.000=0.763
;
#BGCHANGES:;
#NOTES:
     dance-single:
     Renard:
     Medium:
     9:
     0.768,0.725,0.347,0.041,0.000:
0000
0000
0000
0000
,
0000
0000
0000
0000
,
0000
0000
0000
0000
,
0000
0000
0000
0000
,
1000
0001
0100
0001
1000
0100
1000
0000
,
0001
1000
0001
0100
0001
1000
0100
0000
,
1000
0001
0010
0001
1000
0010
1000
0000
,
0001
0010
0001
1000
0010
1000
0001
0000
,
0101
0000
0100
0010
0000
0010
1000
0000
,
1010
0000
1000
0100
0000
0100
0010
0000
,
0011
0000
0010
0100
0000
0100
1000
0000
,
1001
0000
0100
0010
0000
0010
1000
0000
,
0010
0000
1000
0100
0010
0001
0010
0000
,
0100
0000
1000
0100
0010
0001
1000
0000
,
0010
0000
0100
0001
0100
0010
1000
0000
,
0010
0000
1000
0010
0100
0001
0100
0000
,
0101
0000
0100
0010
0000
0010
1000
0000
,
1100
0000
0100
0010
0000
0010
0001
0000
,
0011
0000
0010
0100
0000
0100
1000
0000
,
1001
0000
0001
0100
0000
0100
0010
0000
,
0010
0000
1000
0100
0010
0001
0010
0000
,
1100
1100
0000
1000
,
0100
0000
0010
0001
0010
0100
1000
0000
,
0011
0011
0000
0100
,
1100
0000
0010
0001
0000
0100
0001
0000
,
0110
0000
1000
0010
0000
1000
0100
0000
,
0110
0000
0010
0001
0000
0100
0010
0000
,
1010
0000
1000
0010
0000
0100
0001
0000
,
1000
0100
0010
0001
0010
0100
1000
0000
,
0001
0010
0100
1000
0100
0010
0001
0000
,
1000
0010
0100
0001
0100
0010
1000
0000
,
0002
0000
1003
0000
1000
0100
0000
0100
,
0010
0000
0001
0010
0100
1000
0100
0010
,
0001
0000
0010
0000
0010
0001
0000
0001
,
0010
0000
0100
0000
1000
0100
0010
0001
,
0010
0000
0001
0000
0001
0100
0000
0100
,
0010
0000
1000
0000
0010
1000
0001
0100
,
0010
0000
1000
0000
1000
0010
0000
0010
,
1000
0000
0002
0000
1003
0001
0100
0010
,
1000
0100
0010
0001
0010
0000
0010
0001
,
0010
0000
0010
0100
1000
0000
1000
0001
,
0000
0001
0100
0000
0010
0000
0010
1000
,
0100
0000
0100
0010
0001
0010
0100
1000
,
0001
0100
0010
1000
0100
0000
0100
0010
,
0001
0000
0001
0010
0100
0000
0100
1000
,
0000
1000
0001
0000
0100
0010
1000
0100
,
0010
0001
0010
0100
1000
0100
1000
0001
,
0000
0001
1000
0000
0001
1000
0001
0100
,
0000
0100
0001
0000
1000
0001
0010
0001
,
0000
0001
1000
0000
0010
1000
0001
0010
,
0000
0010
0001
0000
1010
0000
0010
0100
,
0000
0100
0001
0000
0101
0000
0001
0010
,
0000
0010
0100
0000
0110
0000
0100
1000
,
0000
1000
0001
0000
1001
0000
0001
0100
,
0000
0100
0010
0000
1000
0010
1000
0010
,
1000
0001
1000
0000
0001
1000
0001
1000
,
0001
0100
0001
0000
1000
0001
1000
0001
,
1000
0010
1000
0000
0001
1000
0001
1000
,
0001
0010
0001
0000
1001
0000
1000
0010
,
0000
0010
0100
0000
0110
0000
0100
0001
,
0000
0001
0010
0000
0011
0000
0010
0100
,
0000
0100
0010
0000
0110
0000
0100
1000
,
0000
1000
0100
0000
1000
0000
0100
1000
,
0001
0010
0100
0000
1000
0000
0100
0010
,
0001
0000
0010
0000
0100
0000
1000
0001
,
0100
0010
1000
0000
0010
0000
0100
0001
,
0100
0000
0010
0000
1010
0000
0010
0100
,
0000
0100
0001
0000
0101
0000
0100
0001
,
0000
0001
1000
0000
1001
0000
1000
0100
,
0000
0100
0010
0000
0110
0000
0010
0001
,
0000
0001
0010
0000
0001
0000
0010
0100
,
1000
0100
0010
0001
0010
0000
0001
0010
,
0100
1000
0001
0100
0010
0000
1000
0010
,
0100
0001
0100
0010
2000
0000
3001
0000
,
0001
0100
0000
0100
0010
0000
0110
0000
,
0010
1000
0000
1000
0100
0000
0110
0000
,
0010
0001
0000
0001
0100
0000
0101
0000
,
0100
0010
1000
0100
0010
0000
0011
0000
,
0010
0100
0000
0100
1000
0000
1100
0000
,
1000
0001
0000
0001
0100
0000
0101
0000
,
0100
0010
0000
0010
1000
0000
0020
0000
,
1030
0001
0100
0010
1000
0100
0010
0001
,
0010
0000
0010
0001
0010
0000
0010
0100
,
1000
0000
1000
0001
0000
0001
0100
0000
,
0010
0000
0010
1000
0100
0000
0100
0010
,
0001
0010
0100
1000
0001
0100
0010
1000
,
0100
0000
0100
0010
0001
0000
0001
0010
,
0100
0000
0100
1000
0000
1000
0001
0000
,
0100
0010
1000
0100
0010
0001
0010
0100
;
#NOTES:
     dance-single:
     Renard:
     Hard:
     10:
     0.827,0.770,0.428,0.000,0.000:
0000
0000
0000
0000
,
0000
0000
0000
0000
,
0000
0000
0000
0000
,
0000
0000
0000
0000
,
1000
0001
0100
0001
1000
0100
1000
0000
,
0001
1000
0001
0100
0001
1000
0100
0000
,
1000
0001
0010
0001
1000
0010
1000
0000
,
0001
0010
0001
1000
0010
1000
0001
0000
,
0111
0000
0100
0010
0000
0010
1000
0000
,
1110
0000
1000
0100
0000
0100
0010
0000
,
0111
0000
0010
0100
0000
0100
1000
0000
,
1011
0000
0100
0010
0000
0010
1000
0000
,
0010
0000
1000
0100
0010
0001
0010
0000
,
0100
0000
1000
0100
0010
0001
1000
0000
,
0010
0000
0100
0001
0100
0010
1000
0000
,
0010
0000
1000
0010
0100
0001
0100
0000
,
0111
0000
0100
0010
0000
0010
1000
0000
,
1110
0000
0100
0010
0000
0010
0001
0000
,
0111
0000
0010
0100
0000
0100
1000
0000
,
1011
0000
0001
0100
0000
0100
0010
0000
,
0010
0000
1000
0100
0010
0001
0010
0000
,
1100
1100
0000
1000
,
0100
0000
0010
0001
0010
0100
1000
0000
,
0011
0011
0000
0100
,
1110
0000
0010
0001
0000
0100
0001
0000
,
0111
0000
1000
0010
0000
1000
0100
0000
,
1110
0000
0010
0001
0000
0100
0010
0000
,
1110
0000
1000
0010
0000
0100
0001
0000
,
1000
0100
0010
0001
0010
0100
1000
0000
,
0001
0010
0100
1000
0100
0010
0001
0000
,
1000
0010
0100
0001
0100
0010
1000
0000
,
0001
0000
1011
0000
1000
0100
0000
0010
,
0100
0000
1110
0000
1000
0100
0000
0010
,
0001
0000
0111
0000
0010
0001
0000
0001
,
0010
0000
1110
0000
1000
0100
0010
0001
,
0100
0000
0111
0000
0001
0100
0000
0010
,
1000
0000
1110
0000
0010
1000
0001
0100
,
0010
0000
1011
0000
1000
0010
0000
0010
,
1000
0000
0001
0000
1000
0001
0100
0010
,
1000
0100
0010
0001
0010
0000
0010
0001
,
0010
0000
0010
0100
1000
0000
1000
0001
,
0000
0001
0100
0000
0010
0000
0010
1000
,
0100
0000
0100
0010
0001
0010
0100
1000
,
0001
0100
0010
1000
0100
0000
0100
0010
,
0001
0000
0001
0010
0100
0000
0100
1000
,
0000
1000
0001
0000
0100
0010
1000
0100
,
0010
0001
0010
0100
1000
0100
1000
0001
,
0000
0001
1000
0000
0001
1000
0001
0100
,
0000
0100
0001
0000
1000
0001
0010
0001
,
0000
0001
1000
0000
0010
1000
0001
0010
,
0000
0010
0001
0000
1011
0000
0010
0100
,
0000
0100
0001
0000
0111
0000
0001
0010
,
0000
0010
0100
0000
1110
0000
0100
1000
,
0000
1000
0001
0000
1011
0000
0001
0100
,
0000
0100
0010
0000
1000
0010
1000
0010
,
1000
0001
1000
0000
0001
1000
0001
1000
,
0001
0100
0001
0000
1000
0001
1000
0001
,
1000
0010
1000
0000
0001
1000
0001
1000
,
0001
0010
0001
0000
1011
0000
1000
0010
,
0000
0010
0100
0000
0111
0000
0100
0001
,
0000
0001
0010
0000
0111
0000
0010
0100
,
0000
0100
0010
0000
1110
0000
0100
1000
,
0000
1000
0100
0000
1000
0000
0100
1000
,
0001
0010
0100
0000
1000
0000
0100
0010
,
0001
0000
0010
0000
0100
0000
1000
0001
,
0100
0010
1000
0000
0010
0000
0100
0001
,
0100
0000
0010
0000
1011
0000
0010
0100
,
0000
0100
0001
0000
0111
0000
0100
0001
,
0000
0001
1000
0000
1011
0000
1000
0100
,
0000
0100
0010
0000
1110
0000
0010
0001
,
0000
0001
0010
0000
0001
0000
0010
0100
,
1000
0100
0010
0001
0010
0000
0001
0010
,
0100
1000
0001
0100
0010
0000
1000
0010
,
0100
0001
0100
0010
1000
0000
1011
0000
,
1000
0100
0000
0010
0100
0000
1110
0000
,
1000
0100
0000
0010
0001
0000
0111
0000
,
0010
0001
0000
0001
0010
0000
1110
0000
,
1000
0100
0010
0001
0100
0000
0111
0000
,
0001
0100
0000
0010
1000
0000
1110
0000
,
0010
1000
0001
0100
0010
0000
1011
0000
,
1000
0010
0000
0010
1000
0000
0001
0000
,
1000
0001
0100
0010
1000
0100
0010
0001
,
0010
0000
0010
0001
0010
0000
0010
0100
,
1000
0000
1000
0001
0000
0001
0100
0000
,
0010
0000
0010
1000
0100
0000
0100
0010
,
0001
0010
0100
1000
0001
0100
0010
1000
,
0100
0000
0100
0010
0001
0000
0001
0010
,
0100
0000
0100
1000
0000
1000
0001
0000
,
0100
0010
1000
0100
0010
0001
0010
0100
;
#NOTES:
     dance-single:
     Renard:
     Easy:
     7:
     0.529,0.633,0.734,0.000,0.000:
0000
0000
0000
0000
,
0000
0000
0000
0000
,
0000
0000
0000
0000
,
0000
0000
0000
0000
,
0001
0000
0000
1000
0000
0000
0100
0000
,
1000
0000
0000
0001
0000
0000
0100
0000
,
0001
0000
0000
1000
0000
0000
0100
0000
,
1000
0000
0000
0001
0000
0000
0001
0000
,
0101
0000
0000
0101
0000
0000
0101
0000
,
0110
0000
0000
0110
0000
0000
0110
0000
,
1010
0000
0000
1010
0000
0000
1010
0000
,
1100
0000
0000
1100
0000
0000
1100
0000
,
1000
1000
0100
0100
,
1000
1000
0100
0100
,
1000
1000
0100
0100
,
1000
1000
0100
0000
,
1100
0000
0000
1100
0000
0000
1100
0000
,
0110
0000
0000
0110
0000
0000
0110
0000
,
0011
0000
0000
0011
0000
0000
0011
0000
,
1001
0000
0000
1001
0000
0000
1001
0000
,
0001
0001
0001
0001
,
0001
0001
0000
0000
,
1000
1000
1000
1000
,
1000
1000
0000
0000
,
0101
0000
0000
0101
0000
0000
0101
0000
,
0110
0000
0000
0110
0000
0000
0110
0000
,
1010
0000
0000
1010
0000
0000
1010
0000
,
1001
0000
0000
1001
0000
0000
1001
0000
,
1000
1000
1000
1000
,
0001
0001
0001
0001
,
1000
1000
1000
1000
,
0001
0000
1000
0000
0000
0100
0000
0000
,
1000
0000
0001
0000
0000
0010
0000
0000
,
0001
0000
1000
0000
0000
0010
0000
0000
,
1000
0001
0100
0010
,
1000
0000
0001
0000
0000
0100
0000
0000
,
0001
0000
1000
0000
0000
0100
0000
0000
,
1000
0000
0001
0000
0000
0010
0000
0000
,
0001
1000
0001
0100
,
0001
0000
0100
0000
0001
0000
0100
0001
,
0100
0001
1000
0100
,
1000
0000
0100
0000
1000
0100
1000
0000
,
0100
1000
0001
0100
,
0001
0000
0100
0000
0001
0100
0001
0000
,
0100
0001
1000
0100
,
1000
0000
0100
0000
1000
0100
1000
0000
,
0100
1000
0001
0000
,
0001
1000
0001
0000
,
0001
1000
0001
0000
,
0001
1000
0001
0000
,
0001
0000
0000
0000
0110
0000
0000
0110
,
0000
0000
0110
0000
1001
0000
0000
1001
,
0000
0000
1001
0000
0110
0000
0000
0110
,
0000
0000
0110
0000
1001
0000
0000
1001
,
0000
1001
0001
1000
,
0001
0000
0100
0010
,
0100
0000
0001
1000
,
0001
0000
0100
0010
,
0100
0000
0000
0000
0110
0000
0000
0110
,
0000
0000
0110
0000
1001
0000
0000
1001
,
0000
0000
1001
0000
0110
0000
0000
0110
,
0000
0000
0110
0000
1001
0000
0000
1001
,
0000
1001
1000
0100
,
0010
0001
1000
1000
,
1000
0000
0001
0010
,
0100
1000
0001
0001
,
0001
0000
0000
0000
1010
0000
0000
1010
,
0000
0000
1010
0000
0101
0000
0000
0101
,
0000
0000
0101
0000
1010
0000
0000
1010
,
0000
0000
1010
0000
0101
0000
0000
0101
,
0000
0101
0001
0001
,
0001
0001
1000
1000
,
1000
1000
0001
0001
,
0001
0001
1000
0001
,
0000
0001
0000
0000
0001
0000
0100
0000
,
0000
0100
0000
0000
0100
0000
0010
0000
,
0000
0010
0000
0000
0010
0000
1000
0000
,
0100
0010
0000
0100
,
0000
0100
0000
0000
0100
0000
1000
0000
,
0000
1000
0000
0000
1000
0000
0001
0000
,
0000
0001
0000
0000
0001
0000
0100
0000
,
0001
1000
0001
1000
,
0001
0000
1000
0001
1000
0000
0001
0000
,
0100
0010
0100
0010
,
0100
0000
0010
0100
0010
0000
0100
0000
,
0010
1000
0010
1000
,
0010
0000
1000
0010
1000
0000
0010
0000
,
0100
0001
0100
0001
,
0100
0000
0001
0100
0001
0000
1000
0000
;
#NOTES:
     dance-single:
     Renard:
     Beginner:
     4:
     0.339,0.406,0.010,0.000,0.000:
0000
0000
0000
0000
,
0000
0000
0000
0000
,
0000
0000
0000
0000
,
0000
0000
0000
0000
,
0001
0000
0001
0001
,
1000
0000
1000
1000
,
0001
0000
0001
0001
,
1000
0000
1000
0000
,
0010
0000
0010
0000
,
0100
0000
0100
0000
,
0010
0000
0010
0000
,
0100
0000
0100
0000
,
0001
1000
0001
0000
,
1000
0001
1000
0000
,
0001
1000
0001
0000
,
1000
0001
1000
0000
,
0010
0000
0010
0000
,
0100
0000
0100
0000
,
0010
0000
0010
0000
,
0100
0000
0100
0000
,
0001
1000
0001
1000
,
0001
1000
0000
0000
,
0001
1000
0001
1000
,
0001
1000
0000
0000
,
0010
0000
0010
0000
,
0100
0000
0100
0000
,
0010
0000
0010
0000
,
0100
0000
0100
0000
,
0001
1000
0001
1000
,
0001
1000
0001
1000
,
0001
1000
0001
1000
,
0001
1000
0000
1000
,
0100
0010
0000
0010
,
0000
0001
0000
0001
,
0010
0100
0000
0100
,
0000
1000
0000
1000
,
0010
0100
0000
0100
,
0000
0001
0000
0001
,
0100
0010
1000
1000
,
1000
1000
1000
0000
,
0010
0000
0100
0000
,
0010
0000
0100
0000
,
0010
0100
0001
0001
,
0001
0001
0001
0000
,
0100
0000
0010
0000
,
0100
0000
0010
1000
,
0010
1000
0001
0000
,
0001
0000
1000
0000
,
1000
0000
0001
0000
,
0001
0000
1000
0000
,
1000
0000
0001
0000
,
1000
0001
1000
0000
,
0001
1000
0001
0000
,
1000
0001
1000
0000
,
0001
0000
0100
0010
,
0100
0010
0100
0010
,
0100
0010
0100
0010
,
0100
0010
0100
0010
,
0100
0010
1000
0000
,
1000
0000
0001
0000
,
0001
0000
1000
0000
,
1000
0000
0001
0000
,
0001
0000
0100
0010
,
0100
0010
0100
0010
,
0100
0000
0010
0100
,
0010
0100
0010
0100
,
0010
0000
1000
0000
,
0001
0000
1000
0000
,
0001
0000
1000
0000
,
0001
0000
1000
0000
,
0001
0000
0100
0010
,
0100
0000
0010
0100
,
0010
0000
0100
0010
,
0100
0000
1001
0001
,
1000
0001
1000
0001
,
0000
0001
0000
1000
,
0001
1000
0001
1000
,
0000
1000
0000
0010
,
0100
0010
0100
0010
,
0000
0010
0000
0100
,
0010
0100
0010
0100
,
0001
0000
0001
1000
,
0100
0000
0100
0000
,
1000
0000
1000
0001
,
0100
0000
0100
0000
,
0001
0000
0001
1000
,
0010
0000
0010
0000
,
1000
0000
1000
0001
,
0010
0000
0010
0000
;
