#TITLE:What Do You Really Want;
#SUBTITLE:;
#ARTIST:Crash;
#TITLETRANSLIT:;
#SUBTITLETRANSLIT:;
#ARTISTTRANSLIT:;
#CRChallenge:;
#BANNER:want.png;
#BACKGROUND:want-bg.png;
#LYRICSPATH:;
#CDTITLE:_black.png;
#MUSIC:want.ogg;
#OFFSET:-0.034;
#SAMPLESTART:39.040;
#SAMPLELENGTH:12.000;
#SELECTABLE:YES;
#BPMS:0.000=110.000;
#STOPS:;
#BGCHANGES:;
#NOTES:
     dance-single:
     Renard:
     Medium:
     9:
     0.661,0.620,0.049,0.039,0.729:
0000
0000
0000
0000
,
0000
0000
0000
0000
,
1001
0000
0000
0000
,
0001
1000
0000
0000
0000
0000
0000
0000
0001
1000
0001
1000
0001
1000
0001
1000
,
0001
1000
0100
0010
0001
0010
0000
0000
0001
0010
0100
1000
0100
1000
0000
0000
,
0100
1000
0001
1000
0010
1000
0001
1000
0100
0000
1000
0000
0001
0000
0100
0000
,
0010
1000
0001
1000
0010
1000
0000
0000
0100
1000
0001
1000
0010
1000
0000
0000
,
0100
1000
0100
1000
0100
0010
0001
0010
0001
0010
0100
1000
0001
0000
0100
0000
,
0001
1000
0001
0100
0001
1000
0000
0000
0001
1000
0100
1000
0001
1000
0000
0000
,
0010
1000
0001
0100
0010
1000
0100
0010
0001
0000
0010
0000
0100
0000
1000
0000
,
0001
0100
0010
1000
0001
1000
0000
0000
0001
1000
0001
0100
0001
1000
0010
0000
,
2002
0000
0000
0000
0000
0000
3003
0000
1000
0001
1000
0001
1000
0000
0001
0000
,
1000
0000
0001
0000
0100
0000
0010
0000
1000
0010
1000
0010
1000
0000
0010
0000
,
1000
0000
0100
0000
0010
0000
0001
0000
0100
0001
0100
0001
0100
0000
0001
0000
,
0100
0000
0010
0000
1000
0000
0100
0000
1000
0001
1000
0001
1000
0000
0001
0000
,
1000
0000
0010
0000
0100
0000
0001
0000
1000
0001
1000
0001
1000
0010
1000
0010
,
1000
0000
0010
0000
1000
0000
0001
0000
0100
0001
0100
0001
0100
0000
0001
0000
,
1000
0000
0001
0000
1000
0000
0100
0000
1000
0001
1000
0100
0010
0001
0010
0100
,
1000
0000
0001
0010
0100
0000
1000
0000
0100
0010
0001
0010
0001
0000
0010
0000
,
0001
0000
0010
0100
1000
0000
0100
0000
1000
0001
1000
0001
1000
0000
0001
0000
,
0100
0000
0010
1000
0001
0000
0100
0000
0010
1000
0001
1000
0010
0000
1000
0000
,
1010
0000
1000
0010
1000
0000
0001
0100
0010
0000
1000
0001
1000
0000
0001
0000
,
0100
0000
0010
1000
0001
0000
0100
0010
1000
0000
0001
0100
0010
0000
1000
0000
,
0001
0000
0010
0100
1000
0000
0100
0010
0001
0000
1000
0100
0010
0000
0100
0000
,
1000
0000
0001
0010
0100
0000
1000
0001
0100
0000
0010
1000
0001
0000
0100
0000
,
0010
1000
0010
1000
0001
1000
0001
1000
0100
1000
0100
1000
0001
0000
1000
0000
,
0001
1000
0001
1000
0001
0100
0001
0100
0001
0010
0001
0010
0001
0000
1000
0000
,
0001
1000
0001
0000
1000
0010
1000
0000
0001
0100
0001
1000
0100
0000
0010
0000
,
0001
0010
0001
0000
1000
0100
1000
0000
0001
0100
0010
1000
0001
0000
1000
0000
,
0100
1000
0100
0000
0010
0100
0010
0000
0001
0010
0001
0010
0100
0000
1000
0000
,
0001
0100
0001
0000
0100
0010
0100
0000
0010
1000
0001
1000
0010
1000
0100
1000
,
0001
0000
1000
0000
0100
1000
0001
0010
0001
0010
0100
1000
0001
0010
0001
0000
,
1000
0000
0100
0000
1000
0001
0100
0010
1000
0001
0100
0010
1000
0100
1000
0000
,
0001
0000
0010
0001
0010
0100
1000
0100
1000
0001
0100
0010
1000
0100
1000
0000
,
0001
0000
0010
0100
1000
0000
0001
0100
0010
0000
1000
0001
1000
0000
0010
0000
,
1010
1000
0001
0001
1000
1000
0010
0010
,
0100
0000
0100
0000
0001
0000
0001
0000
1000
0000
1000
0000
0100
0000
0100
0010
,
0001
0001
0010
0010
0100
0100
1000
1000
,
0010
0000
0010
0000
0100
0000
0100
0000
0001
0000
0001
1000
0100
0000
0100
0000
,
1000
0000
0100
0000
0010
0001
0000
0010
0100
0000
1000
0001
0100
0000
0010
0000
,
1000
0000
0001
0000
0100
0010
0000
1000
0010
0000
1000
0001
0100
0000
0010
0000
,
1000
0000
0001
0000
1000
0100
0000
0010
0001
0000
0010
0100
1000
0000
0001
0000
,
0010
0000
0100
0000
1000
0001
0000
0100
0010
0000
1000
0001
0100
0000
0010
0000
,
1000
0000
0001
0000
0100
0010
0000
1000
0001
0000
0010
0100
1000
0000
0001
0000
,
2002
0000
0000
0000
,
3013
0000
0000
0000
;
#NOTES:
     dance-single:
     Renard:
     Easy:
     4:
     0.398,0.400,0.936,0.039,0.000:
0000
0000
0000
0000
,
0000
0000
0000
0000
,
1001
0000
0000
0000
,
0001
0000
0000
0000
1000
0001
1000
0001
,
1000
0000
1000
0010
0100
0000
0100
0000
,
0001
1000
0001
1000
0001
0000
0001
0000
,
1000
0100
1000
0000
0100
1000
0100
0000
,
0010
0001
0010
0001
0010
0000
0001
0000
,
1000
1000
1000
0000
0001
0001
0001
0000
,
0100
0010
0100
0010
0000
0100
0000
0010
,
1000
1000
1000
0000
0001
0001
0001
0000
,
1001
0000
0110
1001
,
0000
0001
0010
0001
0010
0001
0010
0001
,
0000
1000
0000
0001
,
0000
1000
0100
1000
0100
1000
0100
1000
,
0000
0010
0000
1000
,
0000
0001
0100
0001
0100
0001
0100
0001
,
0000
1000
0001
1000
,
0101
0011
0101
0011
,
1100
1010
1100
1010
,
0101
0011
0101
0011
,
1100
1010
1100
1010
,
1100
1010
1100
1010
,
0101
0011
0101
0011
,
0101
0011
0101
0011
,
1001
1001
0110
0110
,
1001
1001
0110
0110
,
1010
0110
1010
0110
,
0101
0110
0101
0110
,
0011
0110
0011
0110
,
1100
0110
1100
0110
,
0011
0011
1100
1100
,
1010
1010
0101
0101
,
0011
0011
1100
1100
,
1001
1001
0110
0110
,
2001
0010
0001
0010
,
0001
0010
0001
3010
,
1002
0010
1000
0010
,
1000
0010
1000
0013
,
1001
1010
1001
0011
,
1001
1100
1001
0101
,
1001
1010
1001
0011
,
1001
1100
1001
0101
,
1001
1010
1001
0011
,
2002
0000
0000
0000
,
0010
3003
0000
0000
0000
0000
0000
0000
;
#NOTES:
     dance-single:
     Renard:
     Beginner:
     3:
     0.359,0.401,1.000,0.049,0.000:
0000
0000
0000
0000
,
0000
0000
0000
0000
,
1001
0000
0000
0000
,
2001
0000
0010
3010
,
0001
1100
0000
1100
,
1000
0101
0000
0101
,
0001
1010
0000
1010
,
1000
0011
0000
0011
,
0001
1100
0000
1100
,
1000
0011
0000
0011
,
0001
1010
0000
1010
,
1000
0000
0101
1001
,
0000
0101
0000
0101
,
0000
0001
0100
0010
,
0000
1100
0000
1100
,
0000
0010
0001
1000
,
0000
0101
0000
1100
,
0000
0001
0001
0001
,
1100
1100
1100
1100
,
0011
0011
0011
0011
,
1100
1100
1100
1100
,
1001
1001
1001
1001
,
0101
0101
0101
0101
,
0011
0011
0011
0011
,
1001
1001
1001
1001
,
1100
1100
1100
1100
,
1010
1010
1010
1010
,
0110
0110
0110
0110
,
0101
0101
0101
0101
,
0011
0011
0011
0011
,
0110
0110
0110
0110
,
1100
1100
1100
1100
,
1001
1001
1001
1001
,
0101
0101
0101
0101
,
0110
0110
0110
0110
,
2001
0000
0000
0000
,
0000
0000
0000
3000
,
1002
0000
0000
0000
,
0000
0000
0000
0003
,
1001
1001
1001
1001
,
0110
0110
0110
0110
,
0101
0101
0101
0101
,
1010
1010
1010
1010
,
0110
0110
0110
0110
,
2002
0000
0000
0000
,
0010
3003
0000
0000
;
