#TITLE:What Do You Really Want EX;
#SUBTITLE:;
#ARTIST:Crash;
#TITLETRANSLIT:;
#SUBTITLETRANSLIT:;
#ARTISTTRANSLIT:;
#CRChallenge:;
#BANNER:want.png;
#BACKGROUND:want-bg.png;
#LYRICSPATH:;
#CDTITLE:_black.png;
#MUSIC:want.ogg;
#OFFSET:-0.011;
#SAMPLESTART:38.920;
#SAMPLELENGTH:12.000;
#SELECTABLE:NO;
#BPMS:0.000=110.000;
#STOPS:;
#BGCHANGES:;
#NOTES:
     dance-single:
     Renard:
     Hard:
     11:
     0.727,0.716,0.067,0.033,0.988:
0000
0000
0000
0000
,
0000
0000
0000
0000
,
1001
0000
0000
0000
,
2002
3013
0000
0000
0000
0000
0000
0000
1000
1000
1000
1000
1000
1000
1000
1000
,
0001
0100
0000
0001
0100
0010
1000
0100
0010
0001
0010
0100
1000
0001
0000
0000
,
0100
0001
0000
0100
0001
0000
0100
0010
1000
0100
0010
0001
0010
0100
0000
0000
,
1000
0001
0000
1000
0001
0000
1000
0010
0100
0001
0010
0100
1000
0001
0100
0000
,
1001
1001
0000
0000
0000
0000
0000
0000
0001
0001
0001
0001
1000
1000
1000
1000
,
0001
0100
0010
1000
0100
0100
0000
0000
1000
0010
0100
0001
0010
0010
0000
0000
,
0001
0100
0010
1000
0100
0010
0001
0001
0000
0000
0010
0000
0100
0000
1000
0000
,
0001
0100
0010
1000
0100
0100
0000
0000
1000
0010
0100
0001
0010
0010
0000
0000
,
1001
0000
0001
1000
0000
1000
0001
0000
1000
0100
0010
0001
0010
0100
1000
0001
,
1000
0000
0100
1000
0010
0000
0001
0000
0010
0100
1000
0100
0001
0000
0010
0000
,
0100
0000
0001
0100
1000
0000
0010
0001
0010
0000
0100
1000
0100
0000
0001
0100
,
0010
0000
1000
0100
0001
0000
0100
0000
0010
0001
0010
1000
0010
0000
0100
0000
,
1000
0000
0010
0100
1000
0000
0100
0010
0100
0000
0001
0010
0100
0000
0001
0000
,
0100
0000
1000
0010
0100
0000
1000
0000
0100
0001
0100
0010
1000
0000
0100
0000
,
0010
0000
0000
0001
0000
0000
0010
0000
0000
0001
0000
0000
0010
0000
0000
0001
0000
0000
0010
0000
0000
0001
0000
0000
1000
0000
0100
0000
1000
0000
0100
0000
1000
0000
0100
0000
1000
0000
0100
0000
1000
0000
0100
0000
1000
0000
0100
0000
,
0010
0000
0001
0001
0100
0000
0010
0000
1000
1000
0100
0100
0010
0000
0001
0000
,
0010
0000
0001
0001
1000
0000
0010
0000
0100
0100
0010
0010
1000
0000
0100
0000
,
0010
0000
0001
0001
1000
0000
0010
0000
0100
0100
0010
0010
1000
0000
0100
0000
,
0010
0010
0001
0001
1000
0000
0010
0010
0100
0100
0001
0001
1000
0000
0100
0000
,
1000
1000
1000
0000
0100
0100
0100
0000
0010
0010
0010
0000
0001
0001
0001
0000
,
1000
1000
1000
0000
0010
0010
0010
0000
0100
0100
0100
0000
0001
0001
0001
0000
,
1000
1000
1000
1000
0001
0001
0001
0001
1000
1000
1000
1000
0001
0001
0001
0000
,
0001
0001
0001
0001
1000
1000
1000
1000
0001
0001
0001
0001
1000
1000
1000
0000
,
0001
0100
1000
0000
0001
0010
1000
0000
0100
0010
0100
0010
0001
0000
0010
0000
,
0100
0001
0100
0000
1000
0010
0001
0000
0010
0100
1000
0000
0100
0000
0010
0000
,
0001
0010
1000
0000
0001
0100
1000
0000
0010
0100
1000
0000
0100
0000
0010
0000
,
1000
0100
0001
0000
1000
0010
0001
0000
0010
0100
1000
0010
0100
0001
0010
0100
,
1000
0000
0100
1000
0100
1000
0000
0000
0001
0000
1000
0001
1000
0001
0000
0000
,
0100
0100
0010
0010
1000
1000
0100
0100
0000
0000
0010
0000
0001
0000
1000
0000
,
0001
0000
0100
0010
0100
0010
0000
0000
1000
0000
0001
0100
0001
0100
0000
0000
,
0010
0010
1000
1000
0100
0100
0010
0010
0000
0001
0010
0100
1000
0100
0010
0001
,
1000
0000
0010
0001
0010
0000
0100
1000
0100
0000
0001
0010
0001
0000
0010
0100
,
0010
0100
1000
0010
0100
0001
0010
0100
,
1000
0000
0010
0001
0010
0000
1000
0010
1000
0000
0100
1000
0100
0000
0001
0100
,
0001
0000
0100
0000
1000
0010
0000
0100
0000
0010
1000
0100
0010
0001
0010
0100
,
1000
0000
0001
0100
0001
0000
1000
0100
1000
0000
0001
0100
0001
0000
1000
0100
,
1000
0000
0001
0100
0001
0000
1000
0100
1000
0000
0001
0100
0001
1000
0100
0010
,
0001
0000
1000
0010
1000
0000
0001
0010
0001
0000
1000
0010
1000
0000
0001
0010
,
0001
0000
1000
0010
1000
0000
0001
0000
1001
0000
0100
0000
1001
0000
0010
0000
,
0001
0000
0100
0001
0100
0000
0001
0000
1000
0000
0100
1000
0100
0000
1000
0000
,
0001
0000
0010
0001
0010
0000
0001
0000
1000
0000
0010
1000
0010
0000
1000
0000
,
0001
0100
0001
0000
1000
0100
1000
0000
0001
0010
0001
0000
1000
0010
1000
0000
,
0001
0000
0100
0000
0001
0000
0100
0000
0001
1000
0001
0000
0100
0000
0001
1000
0001
0000
1000
0001
1000
0000
0010
0000
0100
0000
0001
0000
1000
0000
0001
0000
,
1000
0100
0001
0100
1000
0010
0001
0010
1000
0100
0001
0100
1000
0010
0001
0010
,
1000
0100
0001
0100
1000
0010
0001
0010
1000
0100
0001
0100
1000
0010
0001
0010
,
1000
0100
0001
0100
1000
0010
0001
0010
1000
0100
0001
0100
1000
0010
0001
0010
,
1000
0100
0001
0100
1000
0010
0001
0010
1000
0100
0001
0100
1000
0010
0001
0000
,
0010
0100
0001
0100
1000
0100
0001
0010
1000
0010
0001
0100
1000
0100
0001
0010
,
2200
0000
0000
0000
,
3300
0000
0000
0000
;
