#TITLE:Waters of Nazareth;
#SUBTITLE:;
#ARTIST:Justice;
#TITLETRANSLIT:;
#SUBTITLETRANSLIT:;
#ARTISTTRANSLIT:;
#CRChallenge:;
#BANNER:nazareth.png;
#BACKGROUND:nazareth-bg.png;
#LYRICSPATH:;
#CDTITLE:;
#MUSIC:nazareth.ogg;
#OFFSET:0.000;
#SAMPLESTART:23.186;
#SAMPLELENGTH:12.000;
#SELECTABLE:YES;
#BPMS:0.000=124.000;
#STOPS:;
#BGCHANGES:;
#NOTES:
     dance-single:
     Renard:
     Medium:
     9:
     0.697,0.773,0.592,0.054,0.926:
0000
0000
0000
0000
,
0000
0000
0000
0000
,
0000
0000
0000
0000
,
0000
0000
0000
0000
,
1001
0000
0000
0000
0000
1000
0100
0010
0000
0001
0010
0100
0000
0000
1000
0000
,
1001
0000
0000
0000
0000
0001
0010
0100
0000
1000
0100
0010
0000
0000
0001
0000
,
1001
0000
0000
0000
0000
1000
0010
0100
0000
0001
0100
0010
0000
0000
1000
0000
,
1001
0000
0000
0000
0000
0001
0100
0010
0000
1000
0010
0100
0000
0000
0001
0000
,
1100
0000
0000
0000
0000
1000
0001
0100
0000
0100
0001
1000
0000
1000
0001
0000
,
0011
0000
0000
0000
0000
0001
0010
0100
0000
0100
1000
0010
0000
0010
1000
0000
,
0101
0000
0000
0000
0000
0001
1000
0100
0000
0100
1000
0001
0000
0001
0010
0000
,
1001
0000
0000
0000
0000
0001
1000
0010
0000
0010
1000
0001
1000
0001
0000
0000
,
1000
0000
0000
0000
0101
0000
0000
0000
0010
1000
0010
1000
0000
0000
1010
0000
,
1000
0000
0000
0000
1100
0000
0000
0000
1000
0001
1000
0001
0100
0010
0000
0000
,
0001
0000
0000
0000
1010
0000
0000
0000
0100
0001
0100
0001
0000
0000
0101
0000
,
0010
1000
0010
1000
0010
1000
0010
1000
0010
1000
0010
1000
0010
1000
0010
1000
,
0020
0000
0000
0000
0000
1030
0100
0010
0000
0001
0010
0100
0000
0000
1000
0000
,
0002
0000
0000
0000
0003
0010
0100
1000
0000
1000
0100
0010
0000
0011
0000
0000
,
2000
0000
0000
0000
0000
3001
0010
0100
0000
1000
0100
0010
0000
0010
0001
0000
,
0001
1000
0010
1000
0100
1000
0001
1000
0010
1000
0100
1000
0010
1000
0001
1000
,
0001
0000
0110
0000
0010
0010
0010
1000
,
0020
0000
0000
0000
1030
0000
0001
0100
0001
0000
1000
0000
0100
1000
0000
0000
,
0001
0000
0000
0000
1000
0100
1000
0001
0000
1000
0001
1000
0000
0001
1000
0000
,
0001
0100
0001
0100
0010
1000
0010
1000
0001
0100
0001
0100
0010
1000
0010
1000
,
0001
0010
0100
1000
0001
0010
0100
1000
0001
0010
0100
1000
0001
0010
0100
1000
,
0001
0010
0100
1000
0001
0010
0100
1000
0001
0010
0000
0000
1100
0000
0000
0000
,
1100
0000
0000
1010
0000
0000
0101
0000
0001
0010
0000
0100
1000
0100
1000
0100
,
0000
1001
0000
0000
0000
0000
0101
0000
0110
0000
0000
0001
1000
0000
0000
0000
,
0011
0000
0000
0101
0000
0000
1010
0000
1000
0100
0000
0010
0001
0010
0001
0010
,
0000
1001
0000
0000
0000
0000
1010
0000
0110
0000
0000
1000
0001
1000
0001
0000
,
0110
0000
0000
0101
0000
0000
1010
0000
1000
0001
0000
0010
0100
0010
0100
0010
,
0000
1100
0000
0000
0000
0000
1010
0000
0011
0000
0000
1000
0001
1000
0001
1000
,
0001
0000
0000
1010
0000
0000
0101
0000
0100
0010
0000
1000
0001
1000
0001
1000
,
0000
0011
0000
0000
0000
0000
1010
0000
1100
0000
0000
0010
0001
0000
0001
0000
,
1100
1100
1100
1100
,
1100
1100
1100
1100
,
0011
0011
0011
0011
,
0011
0011
0011
0011
,
0001
0000
1000
0000
0100
1000
0001
0010
0000
0001
1000
0100
0010
0001
0010
0000
,
0001
0000
1000
0000
0100
1000
0001
1000
0000
0010
1000
0001
0100
0010
1000
0000
,
0001
0000
0010
0000
0001
1000
0010
0100
0000
0001
0100
0010
1000
0100
0010
0000
,
0001
0000
0010
0000
0100
1000
0001
0100
0000
0001
1000
0010
1000
0001
1000
0000
,
0100
0000
1000
0000
0001
0010
0100
1000
0000
0001
1000
0001
0100
0001
0010
0000
,
0001
0000
0010
0000
0100
1000
0001
0100
0000
0010
1000
0001
1000
0010
1000
0000
,
0001
0000
1000
0000
0100
0010
0001
1000
0000
0001
0100
0001
0010
0001
1000
0000
,
0001
0000
0010
0000
0100
1000
0001
0100
0000
0010
1000
0001
0010
0100
1000
0000
,
0002
0000
0000
0000
,
0000
0000
0000
0000
0000
0000
0000
0003
;
#NOTES:
     dance-single:
     Renard:
     Easy:
     7:
     0.392,0.412,0.162,0.011,0.000:
0000
0000
0000
0000
,
0000
0000
0000
0000
,
0000
0000
0000
0000
,
0000
0000
0000
0000
,
0001
0000
0001
1000
,
0100
0000
0100
1000
,
0001
0000
0001
0100
,
0010
0000
0010
1000
,
0001
0000
0100
0000
0001
0100
0010
1000
,
0100
0000
0100
0000
1000
0100
0010
0001
,
0100
0000
0100
0000
0001
0100
0010
1000
,
0100
0000
0100
0000
1000
0100
0010
0001
,
1000
0000
1100
0000
1000
0000
0001
0100
,
0010
0000
1000
0000
0010
0100
0001
0100
,
0010
0000
1000
0000
0010
0100
0001
0000
,
0001
0100
0001
0100
0001
0100
0001
0100
,
0010
0000
1010
0000
1000
0100
0010
0010
,
0001
0000
1000
0000
0010
0100
0010
0100
,
0001
0000
1000
0000
0100
0010
0001
0000
,
1000
0001
1000
0001
0100
0010
0100
0010
,
1000
0010
0100
0001
0010
0000
0011
0000
,
0001
0010
0100
1000
0001
0100
0010
0000
,
1000
0000
0010
0000
0100
0001
0100
0000
,
0010
0010
0100
0100
0010
0010
0100
0100
,
0010
1000
0100
0010
0001
0010
0100
1000
,
0001
0010
0100
1000
0001
0000
1001
0000
,
1000
1001
0100
0110
,
0010
1000
0001
0100
0010
0000
0110
0000
,
0010
0110
0001
1001
,
0100
0010
1000
0001
0100
0000
0110
0000
,
0010
1010
0100
0101
,
0001
1000
0100
0010
0001
0010
0100
0000
,
1000
1001
0100
0101
,
1000
0000
1100
0000
0001
0010
0100
1000
,
0001
0000
0001
0000
0001
1000
0010
0100
,
0001
0000
0001
0000
1000
0010
0100
0001
,
0001
0000
0001
0000
0001
1000
0010
0100
,
0001
0000
0001
0000
1000
0010
0100
0001
,
0001
0000
0001
0000
0100
0010
1000
0100
,
0010
0000
0010
0000
0100
1000
0001
0010
,
0001
0000
0001
0000
1000
0010
0100
0001
,
0100
0000
0100
0000
0001
1000
0100
0010
,
0001
0000
0001
0000
1000
0010
0100
0001
,
0100
0000
0100
0000
0001
1000
0010
0100
,
0010
0000
0010
0000
1000
0010
0100
0001
,
0010
0000
0010
0000
0001
1000
0100
0010
,
0002
0000
0000
0000
,
0000
0000
0000
0000
0000
0000
0000
0003
;
#NOTES:
     dance-single:
     Renard:
     Beginner:
     3:
     0.288,0.335,0.366,0.011,0.000:
0000
0000
0000
0000
,
0000
0000
0000
0000
,
0000
0000
0000
0000
,
0000
0000
0000
0000
,
0001
0000
0001
1000
,
0010
0000
0010
0100
,
0001
0000
0001
1000
,
0100
0000
0100
1000
,
0010
0000
0010
0100
,
0001
0000
0001
0010
,
1000
0000
1000
0010
,
0001
0100
1000
0100
,
0001
1001
1000
1001
,
0010
0110
0100
0110
,
0001
0101
1000
1100
,
0001
0010
1000
0010
,
0001
0011
1000
1010
,
1000
1001
0001
0101
,
0100
0110
0010
1010
,
1000
0100
0001
0100
,
1000
1000
0001
0100
,
1000
1000
0100
0001
,
1000
1000
0100
0001
,
0100
0010
0001
1000
,
0010
0010
0100
0100
,
0010
0100
0010
0110
,
0010
0010
1000
1000
,
0010
1000
0010
0110
,
0010
0010
0100
0001
,
0100
0010
0100
0110
,
0100
0001
0100
1000
,
0100
0010
0100
0110
,
0010
1000
0010
0001
,
0010
0100
0010
0110
,
0010
1000
0000
1000
,
0010
0100
0000
0100
,
0001
0010
0000
0010
,
0001
0100
0010
1000
,
0010
0110
0000
0101
,
1000
1100
0000
0011
,
1000
1010
0000
0101
,
0001
1001
0000
1100
,
0010
0011
0000
1010
,
0100
0101
0100
1100
,
0000
0101
1000
0110
,
0000
1001
0100
1010
,
1002
0000
0000
0000
,
0000
0000
0000
0000
0000
0000
0000
0003
;
