#TITLE:Warpdrive From Planet Celba;
#SUBTITLE:;
#ARTIST:Strobe - Titan;
#TITLETRANSLIT:;
#SUBTITLETRANSLIT:;
#ARTISTTRANSLIT:;
#CRChallenge:;
#BANNER:celba.png;
#BACKGROUND:celba-bg.png;
#LYRICSPATH:;
#CDTITLE:!cdtitle.png;
#MUSIC:celba.ogg;
#OFFSET:0.000;
#SAMPLESTART:18.708;
#SAMPLELENGTH:12.000;
#SELECTABLE:YES;
#DISPLAYBPM:150.000;
#BPMS:0.000=150.250,16.000=300.500,24.000=150.250,26.000=300.500,30.000=150.250,106.000=300.500,127.000=601.000,128.000=300.500,135.000=601.000,136.000=300.500,140.000=150.250,212.000=300.500,220.000=150.250;
#STOPS:16.000=0.200
,17.000=0.100
,17.500=0.100
,18.000=0.200
,19.000=0.200
,20.000=0.200
,21.000=0.050
,21.250=0.050
,21.500=0.050
,21.750=0.050
,22.000=0.100
,22.500=0.100
,23.000=0.067
,23.333=0.067
,23.667=0.067
,24.000=0.300
,24.750=0.300
,25.500=0.200
,26.000=0.200
,27.000=0.050
,27.250=0.050
,27.500=0.100
,28.000=0.399
,43.500=0.799
,106.000=0.200
,107.000=0.200
,108.000=0.050
,108.250=0.100
,108.750=0.050
,109.000=0.200
,110.000=0.050
,110.250=0.050
,110.500=0.050
,110.750=0.050
,111.000=0.200
,112.000=0.050
,112.250=0.050
,112.500=0.050
,112.750=0.050
,113.000=0.100
,113.500=0.100
,114.000=0.050
,114.250=0.050
,114.500=0.050
,114.750=0.050
,115.000=0.050
,115.250=0.050
,115.500=0.050
,115.750=0.050
,116.000=0.050
,116.250=0.050
,116.500=0.100
,117.000=0.050
,117.250=0.050
,117.500=0.050
,117.750=0.050
,118.000=0.100
,118.500=0.100
,119.000=0.100
,119.500=0.050
,119.750=0.150
,120.500=0.050
,120.750=0.050
,121.000=0.100
,121.500=0.100
,122.000=0.100
,122.500=0.100
,123.000=0.100
,123.500=0.050
,123.750=0.050
,124.000=0.050
,124.250=0.050
,124.500=0.050
,124.750=0.050
,125.000=0.050
,125.250=0.050
,125.500=0.050
,125.750=0.050
,126.000=0.050
,126.250=0.050
,126.500=0.050
,126.750=0.050
,127.000=0.300
,128.000=0.055
,128.250=0.050
,128.500=0.050
,128.750=0.050
,129.000=0.100
,129.500=0.100
,130.000=0.100
,130.500=0.050
,130.750=0.050
,131.000=0.050
,131.250=0.050
,131.500=0.100
,132.000=0.050
,132.250=0.050
,132.500=0.050
,132.750=0.050
,133.000=0.050
,133.250=0.050
,133.500=0.050
,133.750=0.050
,134.000=0.050
,134.250=0.050
,134.500=0.050
,134.750=0.050
,135.000=0.300
,136.000=0.100
,136.500=0.050
,136.750=0.050
,137.000=0.100
,137.500=0.100
,138.000=0.050
,138.250=0.050
,138.500=0.050
,138.750=0.050
,139.000=0.050
,139.250=0.050
,139.500=0.050
,139.750=0.050
,212.000=0.050
,212.250=0.050
,212.500=0.050
,212.750=0.050
,213.000=0.050
,213.250=0.050
,213.500=0.050
,213.750=0.050
,214.000=0.050
,214.250=0.050
,214.500=0.050
,214.750=0.050
,215.000=0.050
,215.250=0.050
,215.500=0.050
,215.750=0.050
,216.000=0.050
,216.250=0.050
,216.500=0.050
,216.750=0.050
,217.000=0.050
,217.250=0.050
,217.500=0.050
,217.750=0.050
,218.000=0.033
,218.167=0.033
,218.333=0.033
,218.500=0.033
,218.667=0.033
,218.833=0.033
,219.000=0.033
,219.167=0.033
,219.333=0.033
,219.500=0.033
,219.667=0.033
,219.833=0.033
;
#BGCHANGES:;
#NOTES:
     dance-single:
     Renard:
     Hard:
     11:
     0.757,0.920,0.173,0.173,0.810:
0000
0000
0000
0000
,
0000
0000
0000
0000
,
0000
0000
0000
0000
,
0000
0000
0000
0000
,
0002
0000
1003
1000
0020
0000
0130
0000
,
0002
0000
0000
0000
0000
0000
0000
0000
0000
0000
0000
0000
1003
0000
0000
0100
0000
0000
0010
0000
0000
0001
0000
0000
1000
0000
0000
0000
0000
0000
1000
0000
0000
0000
0000
0000
1000
0000
0000
0000
1000
0000
0000
0000
1000
0000
0000
0000
,
0101
0000
0000
0101
0000
0000
0101
0000
1001
0000
0000
0000
0100
1000
0100
0000
,
0020
0000
0000
0000
0000
0000
0030
0000
0001
0010
0000
0100
1000
0000
0001
0000
,
0020
0000
0230
0000
,
2300
0000
0000
0000
0000
0000
0000
3000
0001
0100
0001
0000
0100
0001
0100
0000
,
0001
0100
0001
0000
0100
0001
0100
0000
0001
0100
0001
0000
0100
0001
0100
0000
,
0001
0000
0000
1000
0000
0000
0100
0000
0010
0000
0000
0001
0000
0000
0010
0000
,
0100
0000
0000
1000
0000
0000
0001
0000
0010
0000
0000
0100
0000
0000
1000
0000
,
0001
0000
0000
0001
0100
0000
0010
0000
1000
0000
0000
1000
0100
0000
0010
0000
,
0001
0000
0000
0001
1000
0000
0010
0000
0100
0000
0000
0100
0001
0000
1000
0000
,
0100
0000
0000
0000
1000
0000
0000
0010
0000
0100
0001
0000
0100
0000
0010
0000
,
1000
0000
0000
0000
0100
0000
0000
0010
0000
0001
0010
0000
0100
0000
1000
0000
,
0001
0000
0000
0000
0100
0000
0000
0010
0000
1000
0100
0000
0010
0000
0001
0000
,
0010
0000
0000
0100
0000
0000
1000
0000
0010
0000
0100
0000
0001
0000
0010
0000
,
0100
1000
0100
0000
1000
0100
1000
0000
0100
1000
0100
0000
1000
0100
1000
0000
,
0100
1000
0100
0000
1000
0100
1000
0000
0011
0000
0011
0000
0000
0000
0000
0000
,
1000
0100
1000
0000
0001
1000
0001
0000
1000
0001
1000
0000
0001
1000
0001
0000
,
0100
0001
0100
0000
0001
1000
0001
0000
1001
0000
1001
0000
0000
0000
0000
0000
,
0001
0100
0001
0000
0100
0001
0100
0000
0001
0100
0001
0000
0100
0001
0100
0000
,
0010
0100
0010
0000
0100
0010
0100
0000
0010
1000
0100
0000
0000
0000
0010
0001
,
0100
0000
0001
1000
0100
0010
0001
0000
,
1001
0000
0000
0110
0000
0000
1002
0000
0203
0000
0000
0000
0020
0000
0330
0000
,
0010
1000
0000
1000
0020
0000
0000
0000
0130
0001
0100
0010
2000
0000
0000
0000
,
3001
0010
0100
1000
0001
0000
0001
0000
0010
0001
0010
0001
1000
0100
0010
0001
,
1000
0100
1000
0000
0001
0010
0001
0010
0001
0000
1000
0000
0100
0000
0010
0010
,
0000
0000
0001
0001
1000
0000
0100
0000
0011
0000
0100
0000
1001
0000
1000
0001
,
0100
0001
0100
0001
1000
0100
1000
0100
1000
0100
0010
0001
2000
0000
0000
0000
,
3001
0100
0001
0100
0010
0000
0010
0000
1000
0000
0010
0100
0001
0100
0010
0000
,
1000
0100
1000
0001
0010
0001
1000
0100
0010
0001
0010
0100
2000
0000
0000
0000
,
3001
0000
0010
0001
1000
0000
0100
0000
0010
0001
1000
0100
1000
0001
0010
0100
,
1000
0100
0010
0000
0000
0001
0010
0100
1000
0000
0000
0000
0000
0000
0000
0000
,
0001
0100
0010
0000
0000
1000
0010
0100
0001
0000
0000
0000
0000
0000
0000
0000
,
0001
1000
0100
0000
0000
0010
0001
0010
0100
0000
0000
0000
1000
0000
0001
0000
,
0100
0000
0010
0000
2000
0000
0200
3300
,
0010
0001
1000
0000
0000
0000
0001
0100
0010
0000
0000
0000
1000
0000
0000
0000
,
0100
0010
0001
0000
0000
0000
0010
0100
1000
0000
0000
0000
0001
0000
0000
0000
,
0100
0010
1000
0000
0000
0000
0010
0100
0001
0000
0000
0000
0100
0000
0000
0000
,
0010
0000
1000
0000
0000
0000
0100
0010
0001
0000
0000
0000
0010
0000
0000
0000
,
0100
0000
0100
0000
0000
0000
1000
1000
0100
0000
0010
0000
0000
0000
0001
0000
,
0010
0100
0000
0000
1001
0000
0000
0000
0110
0000
0110
0000
1000
0001
1000
0001
,
1000
0100
0010
0000
0000
0000
0001
0010
0100
1000
0100
0000
0000
0000
0010
0000
,
0001
0010
0100
1000
0001
0000
0010
0000
0100
1000
0100
0000
0010
0001
0010
0000
,
0100
1000
0100
0010
0001
0000
0001
0000
0010
0000
0010
0000
0100
0000
0000
0000
,
1000
0010
0100
0001
0100
0000
0100
0000
0010
0000
0010
0000
1000
0000
0000
0000
,
0100
0010
0001
0010
0100
0000
0100
0000
1000
0000
1000
0000
0010
0000
0000
0000
,
0100
0001
0100
0010
1000
0000
1000
0000
0010
0000
0010
0000
0100
0000
0000
0000
,
0001
0010
0100
0000
0000
0000
1000
0100
0010
0000
0001
0000
0000
0000
0010
0000
,
0100
1000
0001
0010
0100
0000
1000
0000
0001
0001
1000
1000
0001
0010
0100
1000
,
0001
0010
0100
1000
0100
0010
0001
1000
0100
0010
0001
0010
0100
1000
0001
0010
,
0100
0000
0000
1000
0000
0000
0100
0000
0000
0010
0000
0000
0001
0000
0000
1000
0000
0000
0100
0000
0000
0010
0000
0000
0001
0000
0010
0000
0001
0000
0010
0000
0001
0000
0010
0000
0001
0000
0010
0000
0001
0000
0010
0000
0001
0000
0010
0000
;
#NOTES:
     dance-single:
     Renard:
     Medium:
     8:
     0.555,0.505,0.151,0.022,0.049:
0000
0000
0000
0000
,
0000
0000
0000
0000
,
0000
0000
0000
0000
,
0000
0000
0000
0000
,
1000
0000
0001
0001
0100
0000
0010
0000
,
1000
0000
0100
0010
0001
0000
1000
0000
,
0010
0000
0000
0100
0000
0000
0001
0000
1000
0000
0000
0000
0100
0000
1000
0000
,
0002
0000
1003
1000
,
0001
0001
1000
1000
,
0001
0000
0001
0000
1000
0010
0001
0010
,
1000
0010
0001
0010
1000
0100
0001
0100
,
1000
0010
0100
0001
0000
0001
0010
0100
,
1000
0001
0100
0010
0000
0010
1000
0100
,
0010
0001
0010
0100
1000
0010
0100
0001
,
0010
0100
1000
0001
0100
0000
1001
0000
,
0001
0100
1000
0100
0001
0010
1010
0000
,
0010
0001
0100
1000
0100
0001
0011
0000
,
0010
0100
0001
0100
1000
0010
0110
0000
,
0010
1000
0100
0010
0001
0010
1010
0000
,
0010
0100
1000
0010
0100
0001
0100
0010
,
1000
0100
0010
0001
0010
0010
0000
0001
,
0001
0010
0100
1000
0001
0100
0010
1000
,
0100
0010
0001
1000
0010
0010
0000
0100
,
0100
0001
1000
0100
0010
0001
0010
0100
,
1000
0001
0100
0010
0100
0100
0000
0010
,
0010
1000
0100
0010
0001
0010
0100
1000
,
0001
0100
0010
1000
0010
0000
1001
0000
,
0100
0001
1000
0000
1001
0000
0110
0000
,
0010
1000
0100
0010
0001
0000
0010
0100
,
1000
0001
0100
0010
1000
0100
0010
0001
,
0000
0100
1000
0001
0100
0010
1000
0100
,
0010
0001
0010
0100
1000
0001
0100
0000
,
0010
0000
1000
0110
0000
0001
0010
0000
,
0100
0000
1000
0001
0100
0010
1100
0000
,
0010
0010
0010
0010
1000
1000
0001
0100
,
0010
0000
0010
1000
0100
0010
0001
0010
,
0100
0000
0100
0010
0001
0100
0010
1000
,
0100
0000
0100
0001
0100
1000
0010
0001
,
0010
0000
0010
0100
0001
0010
0100
0001
,
0100
1000
0010
0100
0001
0100
1000
0100
,
0001
0010
0100
0001
0100
1000
0010
0001
,
0010
0100
1000
0100
0001
0010
0100
0001
,
0100
1000
0010
0100
0001
0010
0100
1000
,
0010
0000
0010
0100
0001
1000
0000
0100
,
0010
0000
0011
0000
0110
0110
0000
0100
,
1000
0010
0000
0100
0001
1000
0000
0100
,
0010
0001
0010
0100
1000
0001
0100
0110
,
0010
1000
0100
0010
0001
0010
0100
0000
,
1000
0010
0100
0100
0001
0001
0010
0000
,
0100
0010
0001
0010
0100
1000
0010
0000
,
0100
0001
1000
1000
0010
0010
0100
0000
,
0001
1000
0100
0010
0001
0010
0100
1000
,
0001
0000
0100
0000
0010
0010
0010
0000
,
1M00
0001
01M0
0010
100M
0100
M010
0001
,
0M10
0000
0000
0100
0000
0000
100M
0000
0000
0001
0000
0000
02M0
000M
M000
00M0
000M
M000
00M0
000M
M000
00M0
000M
M000
,
0300
0000
0000
0000
;
#NOTES:
     dance-single:
     Renard:
     Easy:
     6:
     0.355,0.386,0.076,0.227,0.049:
0000
0000
0000
0000
,
0000
0000
0000
0000
,
0000
0000
0000
0000
,
0000
0000
0000
0000
,
1000
0001
1000
0001
,
0100
0100
0010
1000
,
1001
0000
0000
0110
0000
0000
1001
0000
0100
0000
0000
0000
0001
0000
0000
0000
,
2000
0000
3100
0100
,
0100
0100
0100
0100
,
0100
0000
0100
0000
1000
0100
0010
0000
,
0010
0100
1000
0000
1000
0100
0010
0100
,
1000
1000
0001
0001
,
1000
0000
1000
0000
0001
0000
0100
0010
,
1000
1000
0001
0001
,
1000
0000
1000
0000
0001
0000
1000
0010
,
0100
0101
0001
0100
,
0010
1010
1000
0100
,
0010
0011
0010
0100
,
1000
0000
1001
0000
0001
0100
0010
1000
,
0002
0000
0203
0000
,
0320
0000
0000
0000
1030
0010
0000
1000
,
0020
0000
2030
0000
,
3200
0000
0000
0000
0310
0001
0000
0010
,
0002
0000
0023
0000
,
0230
0000
0000
0000
1300
0001
0000
0100
,
0020
0000
2030
0000
,
3200
0320
0031
0001
,
1000
1000
0001
0001
,
1000
1000
0010
0010
,
0100
0100
0010
0010
,
0000
0100
0010
0001
,
0010
0100
1000
0001
,
0100
0010
1000
0100
,
0010
0001
0010
0100
,
1000
1000
0001
0001
,
1000
0100
0000
1000
0100
0000
0000
0000
,
0010
0001
0000
0010
0001
0000
0000
0000
,
1000
0010
0000
1000
0010
0000
0000
0000
,
0100
0001
0000
0100
0001
0000
0000
0000
,
1000
0100
0000
1000
0100
0000
0000
0000
,
0010
0001
0000
0010
0001
0000
0000
0000
,
1000
0010
0000
0100
0001
0000
0000
0000
,
1000
0100
0000
0010
0001
0000
0000
0000
,
1000
1000
0000
0000
0001
0001
0000
0000
,
0100
0010
0100
0000
,
0001
0001
0000
1000
1000
0000
0000
0000
,
0010
0100
0010
0100
,
0001
0000
1000
0000
0100
1000
0100
0000
,
0010
0000
0001
0000
0100
0001
0100
0000
,
0001
0000
0010
0000
0100
1000
0100
0000
,
1000
0000
0010
0000
0100
0001
0100
0000
,
0001
0000
1000
0000
,
0001
1000
0100
0000
,
200M
320M
M320
M032
,
20M3
0000
0000
0000
0000
0000
320M
0000
0000
0000
0000
0000
M320
000M
M000
000M
M000
000M
M000
000M
M000
000M
M000
000M
,
0030
0000
0000
0000
;
#NOTES:
     dance-single:
     Renard:
     Beginner:
     3:
     0.313,0.386,0.076,0.227,0.049:
0000
0000
0000
0000
,
0000
0000
0000
0000
,
0000
0000
0000
0000
,
0000
0000
0000
0000
,
1000
0001
1000
0001
,
0100
0100
0010
1000
,
1001
0000
0000
0110
0000
0000
1001
0000
0100
0000
0000
0000
0001
0000
0000
0000
,
2000
0000
3100
0100
,
0100
0100
0100
0100
,
0100
0100
1000
0010
,
0010
1000
1000
0010
,
1000
1000
0001
0001
,
1000
1000
0001
0100
,
1000
1000
0001
0001
,
1000
1000
0001
1000
,
0100
0101
0001
0100
,
0010
1010
1000
0100
,
0010
0011
0010
0100
,
1000
1001
0001
0010
,
0002
0000
0203
0000
,
0320
0000
1030
0010
,
0020
0000
2030
0000
,
3200
0000
0310
0001
,
0002
0000
0023
0000
,
0230
0000
1300
0001
,
0020
0000
2030
0000
,
3200
0320
0031
0001
,
1000
1000
0001
0001
,
1000
1000
0010
0010
,
0100
0100
0010
0010
,
0000
0100
0010
0001
,
0010
0100
1000
0001
,
0100
0010
1000
0100
,
0010
0001
0010
0100
,
1000
1000
0001
0001
,
1000
0100
0100
0000
,
0010
0001
0001
0000
,
1000
0010
0010
0000
,
0100
0001
0001
0000
,
1000
0100
0100
0000
,
0010
0001
0001
0000
,
1000
0001
0001
0000
,
1000
0001
0001
0000
,
1000
0000
0001
0000
,
0100
0010
0100
0000
,
0001
0000
1000
0000
,
0010
0100
0010
0100
,
0001
1000
0100
0100
,
0010
0001
0100
0100
,
0001
0010
0100
0100
,
1000
0010
0100
0100
,
0001
0000
1000
0000
,
0001
1000
0100
0000
,
200M
320M
M320
M032
,
20M3
0000
0000
0000
0000
0000
320M
0000
0000
0000
0000
0000
M320
000M
M000
000M
M000
000M
M000
000M
M000
000M
M000
000M
,
0030
0000
0000
0000
;
