#TITLE:Warp Trooper;
#SUBTITLE:;
#ARTIST:SamplingMasters AYA;
#TITLETRANSLIT:;
#SUBTITLETRANSLIT:;
#ARTISTTRANSLIT:;
#CRChallenge:;
#BANNER:warp.png;
#BACKGROUND:warp-bg.png;
#LYRICSPATH:;
#CDTITLE:!cdtitle.png;
#MUSIC:warp.ogg;
#OFFSET:0.000;
#SAMPLESTART:54.166;
#SAMPLELENGTH:12.000;
#SELECTABLE:YES;
#BPMS:0.000=168.000;
#STOPS:;
#BGCHANGES:;
#NOTES:
     dance-single:
     Renard:
     Hard:
     10:
     0.597,0.783,0.282,0.350,0.438:
0000
0000
0000
0000
,
0000
0000
0000
0000
,
0000
0000
0000
0000
,
0000
0000
0000
0000
,
0000
0000
0000
0000
,
0000
0000
0000
0000
,
1000
0100
1000
0010
1000
0001
1000
1100
,
0000
0000
1000
0100
0010
0001
1000
0100
,
0010
0001
1000
0001
0100
0001
0010
0011
,
0000
0000
0010
0001
0010
0100
1000
0001
,
0100
0010
1000
0100
0010
0100
1000
1100
,
0000
0000
1000
0100
0010
0100
1000
0010
,
0100
0001
0010
0100
0010
0001
0100
0101
,
0000
0000
0001
0100
0010
1000
0100
0000
,
1000
0000
0100
1000
0100
0000
1000
0001
1000
0000
0001
0000
0100
0000
0010
0000
,
1000
0000
0100
1000
0100
0000
1000
0001
1000
0000
0001
0000
0100
0000
0010
0000
,
1000
0000
0001
0010
0001
0000
1000
0001
1000
0000
0001
0000
0100
0000
0010
0000
,
1000
0000
0100
1000
0100
0000
1000
0001
1000
0000
0001
0100
0001
0000
0100
0010
,
0100
0010
1000
0100
0010
0001
0010
0100
,
1000
0000
0001
0000
0100
0000
0010
0000
1000
0000
0100
1000
0100
0000
1000
0001
,
1000
0000
0001
0000
0100
0000
0010
0000
1000
0000
0100
0000
0010
0000
0001
0010
,
0001
0000
0010
0100
0010
0000
0100
1000
0100
0000
1000
0001
1000
0000
0010
0000
,
0100
0000
0001
0000
1000
0100
1000
0100
0000
0000
1000
0000
0001
1000
0001
1000
,
0000
0000
0001
0000
0100
0001
0100
0001
0000
0000
1000
0000
0100
0010
0001
0010
,
0000
0001
1000
0000
0001
0100
0001
0100
0000
0000
0010
0000
1000
0010
1000
0010
,
0000
0000
0100
0000
0001
0100
0001
0100
0000
0000
0010
1000
0010
0000
1000
0000
,
0010
0000
1000
0000
0001
0010
0001
0010
0000
0000
0001
0000
1000
0001
1000
0001
,
0000
0000
1000
0000
0010
1000
0010
1000
0000
0000
0001
0000
0010
0100
1000
0100
,
0000
1000
0001
0000
1000
0010
1000
0010
0000
0000
0100
0000
0001
0100
0001
0100
,
0000
0000
0010
0000
1000
0010
1000
0010
0000
0000
0100
0001
0100
0000
0000
0000
,
0100
0000
0000
0000
1001
0000
0000
0010
0000
0000
1000
0000
1100
0000
0000
0000
,
1000
0000
0000
0000
0101
0000
0000
0010
0000
0000
1000
0000
1100
0000
0000
0000
,
1000
0000
0000
0000
0101
0000
0000
0010
0000
0000
1000
0000
1001
0000
0000
0000
,
0100
0000
0000
0000
0110
0000
0000
1001
0000
0000
0110
0000
0000
0000
0000
0000
,
0010
0000
0000
0000
0101
0000
0000
0010
0000
0000
1000
0000
1100
0000
0000
0000
,
1000
0000
0000
0000
0101
0000
0000
0010
0000
0000
1000
0000
0101
0000
0000
0000
,
1000
0000
0000
0000
0011
0000
0000
0100
0000
0000
1000
0000
1001
0000
0000
0000
,
0100
0000
0000
0000
1010
0000
0000
0101
0000
0000
1001
0000
0000
0000
0000
0000
,
0001
0000
0100
0000
0001
1000
0001
1000
0000
0000
0010
0000
0000
0100
0000
0001
,
0000
1000
0100
0000
0000
1000
0000
0001
0000
0000
0100
0000
0000
0001
0000
0000
,
1000
0000
0010
0000
1000
0001
1000
0001
0000
0000
0100
0000
0010
0000
0000
1000
,
0000
0001
0010
0000
0000
0001
0000
1000
0000
0000
1001
0000
0000
0000
0000
0000
,
0001
0000
0100
0000
0001
1000
0001
1000
0000
0000
0010
0000
0000
0100
0000
0001
,
0000
1000
0100
0000
0000
1000
0000
0001
0000
0000
0100
0000
0000
0001
0000
0000
,
1000
0000
0010
0000
1000
0001
1000
0001
0000
0000
0100
0000
0000
0010
0000
1000
,
0000
0001
0000
1000
0000
0001
0000
1000
0000
0001
0000
1000
0000
0001
0000
1000
,
0002
0000
0000
2003
0000
0000
3200
0000
,
0000
0000
0000
0000
0000
0300
0001
1000
,
0020
0000
0000
0032
0000
0000
2003
0000
,
0000
0000
0000
0000
,
3020
0000
0000
0230
0000
0000
0302
0000
,
0000
0000
0000
0000
0000
0000
1003
0100
,
0020
0000
0000
0032
0000
0000
0000
0000
,
2003
0000
0000
3000
,
2001
0000
0000
3002
0000
0000
0023
0000
,
0000
0000
0000
0000
0000
0030
1000
0001
,
0200
0000
0000
2300
0000
0000
3002
0000
,
0000
0000
0000
0000
,
0203
0000
0000
0320
0000
0000
2030
0000
,
0000
0000
0000
0000
0000
0000
3001
0010
,
0200
0000
0000
2300
0000
0000
0000
0000
,
3002
0000
0000
0003
,
2100
0000
0002
0000
,
0200
0000
3313
0000
,
0102
0000
2000
0000
,
0200
0000
3313
0000
,
2010
0000
0200
0000
,
0002
0000
3313
0000
,
0012
0000
0200
0000
,
0020
0000
1333
0000
,
1011
0000
0000
0000
;
#NOTES:
     dance-single:
     Renard:
     Medium:
     9:
     0.528,0.647,0.156,0.389,0.267:
0000
0000
0000
0000
,
0000
0000
0000
0000
,
0000
0000
0000
0000
,
0000
0000
0000
0000
,
0000
0000
0000
0000
,
0000
0000
0000
0000
,
0001
1000
0100
1000
0001
0100
0010
0110
,
0000
0010
0100
0001
1000
0000
1001
0000
,
1000
0100
0010
0001
0010
0100
0010
0110
,
0000
0100
1000
0010
1000
0000
1010
0000
,
1000
0000
0001
0100
0000
0000
0010
0000
1000
0000
0100
0000
0010
0000
0000
0000
,
0001
0000
0010
0001
0000
0000
1000
0000
0100
0000
0010
0000
0001
0000
0000
0000
,
1000
0000
0010
1000
0000
0000
0001
0000
0100
0000
0010
0000
1000
0000
0000
0000
,
0001
0000
0100
0001
0000
0000
1000
0000
0100
0000
0010
0000
0001
0000
0000
0000
,
1000
0010
0100
0001
0100
0010
1000
0000
,
1010
0000
1001
0000
1000
0100
0010
0001
,
0010
0100
1000
0001
0010
0100
0010
0000
,
0011
0000
0000
0000
1001
0000
0000
0000
0001
0100
0001
0100
0001
0000
0000
0000
,
0100
0001
0100
0010
1000
0000
1010
0000
,
1000
0100
0010
0001
0010
0000
0110
0000
,
0100
1000
0001
0100
0000
0100
0010
0000
,
0010
1000
0010
1000
0010
0000
1000
0000
0001
0000
1000
0000
0100
0000
0000
0000
,
0100
0000
1000
0000
0001
0000
0100
0010
0000
0000
0100
0000
0010
0000
0100
0001
,
0000
0000
0100
0000
0010
0000
0100
0001
0000
0000
0100
0000
0010
0000
1000
0000
,
0100
0000
0010
0000
0100
1000
0100
1000
0000
0000
0100
0000
1000
0000
0001
0100
,
0000
0000
0010
0000
1000
0010
1000
0010
0000
0000
1000
0000
0100
0000
0010
0000
,
0001
0000
0010
0000
0100
0000
1000
0001
0000
0000
0100
0000
0010
0000
1000
0100
,
0000
0000
0010
0000
0001
0000
0010
0100
0000
0000
1000
0000
0001
0000
0100
0000
,
0010
0000
1000
0000
0001
0000
0100
0010
0000
0000
1000
0000
0100
0000
0010
0001
,
0000
0010
0100
1000
0001
0100
0010
1000
,
0001
0000
0010
0000
0001
0000
0000
1000
0001
0000
0100
0000
0010
0000
0000
0000
,
1000
0000
0100
0000
1000
0000
0000
0001
1000
0000
0010
0000
1000
0000
0000
0000
,
0100
0000
0000
0010
0001
0000
1000
0000
0001
0000
0100
0000
0001
0000
0000
0000
,
0010
0001
1000
0010
0001
1001
0000
0000
,
0001
0000
1000
0000
0100
0000
0010
0001
0000
0000
0010
0000
0100
0000
1000
0000
,
0001
0000
0100
0000
0010
0000
1000
0010
0000
0000
0100
0000
0001
0000
1000
0000
,
0100
0000
0010
0000
0001
0000
0010
0100
0000
0000
1000
0000
0001
0000
0010
0000
,
0100
1000
0001
0100
0010
1001
0000
0000
,
0001
0000
0100
0000
0010
0000
0000
1000
0000
0000
0100
0000
0000
0010
0000
0001
,
0000
0000
0010
0000
0000
0100
0000
1000
0000
0000
0001
0000
0000
0100
0000
0000
,
0010
0000
1000
0000
0100
0000
0000
0010
0000
0000
0001
0000
0000
0010
0000
0100
,
0000
1000
0000
0000
0001
0000
0000
0100
0000
0000
1001
0000
0000
0000
0000
0000
,
1000
0000
0010
0000
0100
0000
0000
0001
0000
0000
0010
0000
0000
0100
0000
1000
,
0000
0000
0100
0000
0000
0010
0000
0001
0000
0000
1000
0000
0000
0010
0000
0000
,
0100
0000
0001
0000
0010
0000
0000
0100
0000
0000
1000
0000
0000
0100
0000
0010
,
0000
0001
0000
1000
0000
0010
0000
0100
0000
0001
0000
1000
0000
0010
0000
0100
,
0002
0000
0000
2003
0000
0000
3200
0000
,
0000
0000
0000
0000
0000
0300
0010
0001
,
2000
0000
0000
3020
0000
0000
0230
0000
,
0000
0000
0000
0000
,
0302
0000
0000
2003
0000
0000
0000
3200
,
0000
0000
0000
0000
,
0320
0000
0000
0032
0000
0000
0000
0000
,
2003
0000
3020
0000
,
0230
0000
0000
0302
0000
0000
2003
0000
,
0000
0000
0000
0000
0000
3000
0001
0010
,
0200
0000
0000
2300
0000
0000
3002
0000
,
0000
0000
0000
0000
0000
0003
0000
0000
,
0020
0000
0000
0230
0000
0000
2300
0000
,
0000
0000
0000
0000
,
3002
0000
0000
0000
,
0203
0000
0000
0300
,
0202
0000
0000
0000
,
0020
0000
0000
0000
2000
0000
0000
3333
,
2000
0000
0200
0000
,
0020
0000
0000
0000
0002
0000
0000
3333
,
2200
0000
0000
0000
,
0020
0000
0000
0000
0002
0000
0000
3333
,
0002
0000
0200
0000
,
0020
0000
0000
0000
2000
0000
0000
3333
,
1001
0000
0000
0000
;
#NOTES:
     dance-single:
     Renard:
     Easy:
     5:
     0.353,0.408,0.175,0.350,0.000:
0000
0000
0000
0000
,
0000
0000
0000
0000
,
0000
0000
0000
0000
,
0000
0000
0000
0000
,
0000
0000
0000
0000
,
0000
0000
0000
0000
,
0001
0000
0001
0000
0001
0000
0001
1000
,
0100
0100
0100
0100
,
0100
0000
0100
0000
0100
0000
0100
0010
,
0001
0001
0001
0001
,
0100
0000
0100
0000
0010
0000
0010
1000
,
0100
0100
0010
0010
,
0001
0000
0001
0000
0100
0000
0100
0010
,
1000
1000
0100
0100
,
0010
0001
0010
0001
0010
0000
0011
0000
,
1000
1000
0100
0100
,
1000
0010
1000
0010
1000
0000
0000
1010
,
0000
0010
0100
0001
,
0010
0001
0010
0001
0010
0000
0011
0000
,
0010
0100
1000
0100
,
1000
0010
1000
0010
1000
0000
0000
1010
,
0000
0010
1000
0001
,
0200
0000
0320
0000
,
0230
0000
0320
0000
,
1030
0010
0200
0000
0000
0000
0302
0000
,
0000
0203
0000
0310
,
2000
0000
3020
0000
,
0230
0000
0302
0000
,
1003
0010
0200
0000
0000
0000
0302
0000
,
0000
2003
0000
3010
,
1000
1010
0000
0101
,
0001
0000
0010
0000
0100
1000
0100
0000
,
1000
1010
0000
0101
,
0001
0000
1000
0000
0000
0110
0000
0000
,
0010
0100
0000
0101
,
0000
1010
0000
1100
,
1000
0101
0000
1010
,
1000
0000
0010
0100
0001
1001
0000
0000
,
0001
0010
0001
0010
0000
0000
0100
0000
,
1000
0010
1000
0010
0000
0000
0100
0000
,
0001
0010
0001
0010
0000
0000
0100
0000
,
1000
0010
1000
0010
0000
1001
0000
0000
,
0001
0100
0001
0100
0000
0001
0000
0000
,
1000
0100
1000
0100
0000
1000
0000
0000
,
0001
0010
0001
0010
0000
0001
0000
0000
,
1000
0000
0010
0000
0100
0001
0100
0010
,
0200
0000
0000
0320
,
0000
0000
0000
0000
0000
0000
1030
0010
,
0200
0000
0000
0302
,
0000
0000
0000
0000
,
2003
0000
0000
3200
,
0000
0000
0000
0000
0000
0000
0310
0001
,
2000
0000
0000
0000
,
3002
0000
0000
0000
,
0203
0000
0000
0320
,
0000
0000
0000
0000
0000
0000
1030
0010
,
0200
0000
0000
0302
,
0000
0000
0000
0000
,
0023
0000
0000
0000
,
0230
0000
0000
0000
,
2300
0000
0000
0000
,
0002
0000
0000
0000
,
3013
0000
1000
0000
,
0002
0000
2000
0000
,
3013
0000
2000
0000
,
0002
0000
0000
0000
,
3013
0000
0002
0000
,
2000
0000
0000
0000
,
3013
0000
0010
0000
,
1000
0000
0101
0000
,
0111
0000
0000
0000
;
#NOTES:
     dance-single:
     Renard:
     Beginner:
     3:
     0.258,0.306,0.078,0.428,0.000:
0000
0000
0000
0000
,
0000
0000
0000
0000
,
0000
0000
0000
0000
,
0000
0000
0000
0000
,
0000
0000
0000
0000
,
0000
0000
0000
0000
,
1000
0000
1000
0000
1000
0000
1000
0001
,
0000
0000
0000
0000
,
0100
0000
0100
0000
0100
0000
0100
0010
,
0000
0000
0000
0000
,
1000
0000
1000
0000
1000
0000
1000
0001
,
0000
0000
0000
0000
,
0010
0000
0010
0000
0010
0000
0010
0100
,
0000
0000
0000
0000
,
2000
0000
3020
0000
,
0130
0001
0100
0010
,
2000
0000
3020
0000
,
0130
0001
0100
0010
,
2000
0000
3020
0000
,
0130
0001
0100
0010
,
2000
0000
3020
0000
,
0130
0001
0100
0010
,
2000
0000
3002
0000
,
2003
0000
3002
0000
,
1003
0000
0020
0000
,
0230
0000
0000
0300
0020
0000
0000
0030
,
0100
0000
0002
0000
,
2003
0000
3002
0000
,
1003
0000
0020
0000
,
0230
0000
0301
1000
,
0001
1000
0000
0010
,
0100
0001
0000
1000
,
0100
0010
0000
0001
,
1000
0000
0010
0000
0000
1001
0000
0000
,
1000
0001
0000
0100
,
0000
0010
0000
1000
,
0010
0100
0000
0001
,
1000
0000
0100
0000
0000
1001
0000
0000
,
1000
1000
0000
0001
,
0000
0100
0000
0010
,
1000
0100
0000
0010
,
0001
0000
0010
0000
0000
1001
0000
0000
,
1000
0001
0000
0100
,
0000
0010
1000
0010
,
0100
0001
0000
1000
,
0001
0100
0010
1000
,
0002
0000
0000
0203
,
0000
0000
0000
0000
,
0320
0000
0000
2030
,
0000
0000
0000
0000
,
3200
0000
0000
0320
,
0000
0000
0000
0000
,
0032
0000
0000
2003
,
0000
0000
0000
0000
,
3020
0000
0000
0230
,
0000
0000
0000
0000
,
0302
0000
0000
0023
,
0000
0000
0000
0000
,
0230
0000
0000
2300
,
0000
0000
0000
0000
0000
0000
0000
3000
,
0020
0000
0000
0000
,
0200
0000
0000
0330
,
2002
0000
0000
0000
,
0000
0000
0010
3003
,
2002
0000
0000
0000
,
0000
0000
0010
3003
,
2002
0000
0000
0000
,
0000
0000
0010
3003
,
2002
0000
0000
0000
,
0000
0000
0010
3003
,
1011
0000
0000
0000
;
