#TITLE:Warehouse (CubeHard Remix);
#SUBTITLE:;
#ARTIST:Jon Doe;
#TITLETRANSLIT:;
#SUBTITLETRANSLIT:;
#ARTISTTRANSLIT:;
#CRChallenge:;
#BANNER:house-banner.avi;
#BACKGROUND:house-bg.jpg;
#LYRICSPATH:;
#CDTITLE:;
#MUSIC:house.ogg;
#OFFSET:0.000;
#SAMPLESTART:45.654;
#SAMPLELENGTH:12.000;
#SELECTABLE:YES;
#BPMS:0.000=168.000;
#STOPS:;
#BGCHANGES:;
#NOTES:
     dance-single:
     Renard:
     Hard:
     9:
     0.673,0.824,0.556,0.227,0.319:
0000
0000
0000
0000
,
0000
0000
0000
0000
,
0000
0000
0000
0000
,
0000
0000
0000
0000
,
1000
0200
0010
0000
1000
0000
0010
0000
,
1000
0001
0010
1300
,
0001
0020
0100
0000
0001
0000
0100
0000
,
0001
1000
0100
0031
,
0012
0100
1000
0013
,
2100
0010
0001
3100
,
1000
0100
1000
0100
0010
0001
1000
0000
,
0001
0100
0001
0100
0001
0010
0100
0000
,
1200
0000
0310
0001
0100
0010
1000
0000
,
0001
0100
0010
1000
0100
0100
1000
0000
,
0001
0010
0001
0100
0010
0010
1000
0000
,
0001
0010
0001
1000
2002
0000
3013
0000
,
0001
0100
0000
0000
1010
0000
0000
0000
1000
0000
0100
0000
0010
0000
0001
0000
,
1000
0100
0000
0000
0011
0000
0000
0000
0001
0000
0100
0000
0010
0000
1000
0000
,
0001
0010
0000
0000
1100
0000
0000
0000
1000
0000
0010
0000
0100
0000
0001
0000
,
0010
0100
0000
0000
1001
0000
0000
0000
0010
0000
1000
0000
0001
0000
0000
0000
,
1000
0100
1000
0000
0011
0000
0000
0000
1000
0000
0100
0000
0010
0000
0001
0000
,
0100
0001
0100
0000
1010
0000
0000
0000
1000
0000
0010
0000
0100
0000
0001
0000
,
0010
0001
0010
0000
1100
0000
0000
0000
1000
0000
0100
0000
0010
0000
0001
0000
,
2002
0000
0000
3003
,
0001
0001
1000
1000
0010
0100
0010
0100
,
0010
0010
0100
0100
0001
1000
0001
1000
,
0010
0010
0100
0100
0001
1000
0001
1000
,
0100
0100
0010
0010
0001
1000
0001
1000
,
0010
0000
0010
0000
0010
0000
0000
0100
0000
0000
0010
0000
0000
0100
0000
0000
,
0010
0000
0010
0000
0010
0000
0000
1000
0000
0000
0001
0000
0000
1000
0000
0000
,
0001
0000
0001
0000
0001
0000
0000
0010
0000
0000
0100
0000
0000
1000
0000
0000
,
1000
0000
1000
0000
1000
0000
0000
0100
0000
0000
0010
0000
0000
0001
0000
0000
,
1000
0000
0100
0000
1100
0000
0000
0010
0000
0000
0001
0000
0000
0100
0000
0000
,
0010
0000
1000
0000
1010
0000
0000
0100
0000
0000
0001
0000
0000
0010
0000
0000
,
0100
0000
1000
0000
1001
0000
0000
0001
0000
0000
0100
0000
0000
0010
0000
0000
,
1000
0000
0100
0000
1100
0000
0000
0100
0000
0000
0010
0000
0000
0001
0000
0000
,
0100
0000
0010
0000
0110
0000
0000
0010
0000
0000
1000
0000
0010
0100
0000
0000
,
0001
0000
0100
0000
0101
0000
0000
0001
0000
0000
0010
0000
0100
1000
0000
0000
,
0010
0000
1000
0000
1010
0000
0000
0010
0000
0000
0100
0000
0001
0010
0000
0000
,
0100
0000
1000
0000
1100
0000
0000
0010
0000
0000
0001
0000
0100
0010
0000
0000
,
0100
0000
0010
0000
1000
0000
0000
1001
0000
0000
1100
0000
0000
0011
0000
0000
,
0010
0000
0100
0000
1000
0000
0000
1010
0000
0000
0101
0000
0000
1001
0000
0000
,
1000
0000
0100
0000
0010
0000
0000
0011
0000
0000
1001
0000
0000
1010
0000
0000
,
0010
0000
0100
0000
0001
0000
0000
0110
0000
0000
1010
0000
0000
1001
0000
0000
,
1000
0000
0100
0000
0010
0000
0000
0011
0000
0000
0110
0000
0000
1100
0000
0000
,
1000
0000
0010
0000
0100
0000
0000
0110
0000
0000
1010
0000
0000
1001
0000
0000
,
1000
0000
0100
0000
0010
0000
0000
0011
0000
0000
0110
0000
0000
1100
0000
0000
,
1000
0001
0100
0000
2002
0000
3013
0000
,
0010
1000
0000
0000
0101
0000
0000
0000
0001
0000
0010
0000
0100
0000
1000
0100
,
1000
0000
0011
0000
0100
1000
0010
0000
,
0100
0001
0000
0000
1010
0000
0000
0000
1000
0000
0010
0000
0100
0000
0001
0010
,
0001
0000
1100
0000
1000
0010
1001
0000
,
0100
0001
0000
0000
1010
0000
0000
0000
1000
0000
0100
0000
0010
0000
0001
0010
,
0001
0000
1100
0000
0010
0001
0100
0000
,
0010
1000
0000
0000
0101
0000
0000
0000
0001
0000
0100
0000
0010
0000
1000
0100
,
1000
0000
0011
0000
0001
0100
1001
0000
,
1000
0000
0010
1000
0010
1000
0010
1000
0020
0000
0000
0000
0130
0000
0000
0000
,
0002
0013
2000
3010
,
0001
0200
0010
0000
1000
0000
0301
0000
,
0001
0020
1000
0000
0100
0000
0031
0000
,
0001
0010
0001
0000
1000
0000
0000
0000
0001
0100
0001
0000
1000
0000
0000
0000
,
1000
0100
1000
0000
0001
0000
0000
0000
1000
0010
1000
0000
0001
0000
0000
0000
,
1000
0100
2000
0000
3001
0000
0020
0000
0031
0100
0002
0000
1003
0000
0020
0000
,
1030
0001
0100
0010
0110
0000
2002
0000
,
3013
0000
0000
0000
;
#NOTES:
     dance-single:
     Renard:
     Medium:
     8:
     0.573,0.692,0.113,0.165,0.227:
0000
0000
0000
0000
,
0000
0000
0000
0000
,
0000
0000
0000
0000
,
0000
0000
0000
0000
,
0001
0020
0100
0000
0001
0000
0100
0000
,
0001
1000
0100
0031
,
1000
0200
0010
0000
1000
0000
0010
0000
,
1000
0001
0010
1300
,
2100
0010
0001
3100
,
0012
0100
1000
0013
,
0001
0010
0001
0010
0100
1000
0001
0000
,
1000
0010
1000
0010
1000
0100
0010
0000
,
0021
0000
0130
1000
0010
0100
0001
0000
,
1000
0010
0100
0001
0010
0010
0001
0000
,
1000
0100
1000
0010
0100
0100
0001
0000
,
1000
0100
1000
0001
1001
0000
0010
0000
,
1000
0010
0000
0000
0100
0000
0000
0000
0001
0000
0010
0000
0100
0000
1000
0000
,
0001
0010
0000
0000
0100
0000
0000
0000
1000
0000
0010
0000
0100
0000
0001
0000
,
1000
0100
0000
0000
0010
0000
0000
0000
0001
0000
0100
0000
0010
0000
1000
0000
,
0100
0010
0000
0000
0001
0000
0000
0000
0100
0000
0001
0000
1000
0000
0000
0000
,
0001
0010
0000
0000
0100
0000
0000
0000
0001
0000
0010
0000
0100
0000
1000
0000
,
0010
1000
0000
0000
0001
0000
0000
0000
0001
0000
0100
0000
0010
0000
1000
0000
,
0100
1000
0000
0000
0001
0000
0000
0000
0001
0000
0010
0000
0100
0000
1000
0000
,
2002
0000
0000
3003
,
1000
1000
0001
0001
0100
0010
0100
0010
,
0100
0100
0010
0010
1000
0001
1000
0001
,
0100
0100
0010
0010
1000
0001
1000
0001
,
0010
0010
0100
0100
1000
0001
1000
0001
,
0100
0000
0100
0000
0100
0000
0000
0010
0000
0000
0100
0000
0000
0010
0000
0000
,
0100
0000
0100
0000
0100
0000
0000
0001
0000
0000
1000
0000
0000
0001
0000
0000
,
1000
0000
1000
0000
1000
0000
0000
0100
0000
0000
0010
0000
0000
0001
0000
0000
,
0001
0000
0001
0000
0001
0000
0000
0010
0000
0000
0100
0000
0000
1000
0000
0000
,
0001
0000
0100
0000
0010
0000
0000
1000
0000
0000
0100
0000
0000
0010
0000
0000
,
0001
0000
0100
0000
0010
0000
0000
1000
0000
0000
0100
0000
0000
0010
0000
0000
,
0010
0000
0100
0000
1000
0000
0000
0010
0000
0000
0100
0000
0000
0001
0000
0000
,
0100
0000
0010
0000
1000
0000
0000
0100
0000
0000
0010
0000
0000
0001
0000
0000
,
1000
0000
0010
0000
0100
0000
0000
0001
0000
0000
0010
0000
0000
0100
0000
0000
,
1000
0000
0100
0000
0010
0000
0000
0001
0000
0000
0100
0000
0000
0010
0000
0000
,
1000
0000
0100
0000
0010
0000
0000
0001
0000
0000
0100
0000
0000
0010
0000
0000
,
0100
0000
0001
0000
0010
0000
0000
0100
0000
0000
1000
0000
0000
0001
0000
0000
,
0100
0000
0010
0000
0100
0000
0000
0010
0000
0000
1000
0000
0000
0100
0000
0000
,
0010
0000
0001
0000
0100
0000
0000
0010
0000
0000
1000
0000
0000
0100
0000
0000
,
1000
0000
0001
0000
0010
0000
0000
0100
0000
0000
1000
0000
0000
0001
0000
0000
,
0100
0000
0010
0000
1000
0000
0000
0010
0000
0000
0100
0000
0000
0001
0000
0000
,
1000
0000
0100
0000
0010
0000
0000
0001
0000
0000
1000
0000
0000
0010
0000
0000
,
0100
0000
0001
0000
1000
0000
0000
0100
0000
0000
1000
0000
0000
0001
0000
0000
,
0010
0000
0001
0000
1000
0000
0000
0100
0000
0000
1000
0000
0001
0000
0000
0000
,
0001
1000
0010
0000
1001
0000
0100
0000
,
0001
0100
0001
0000
1000
0010
1000
0000
,
0100
1000
0100
0010
0001
1000
0010
0000
,
0100
0001
0100
0000
0010
1000
0010
0000
,
0100
0001
0010
0001
1000
0000
1001
0000
,
0100
1000
0100
0000
0010
0001
0010
0000
,
0001
0100
0010
1000
0100
0010
0001
0000
,
1000
0010
1000
0000
0100
1000
0001
0000
,
0100
0001
1000
0010
0100
0000
1001
0000
,
0110
0000
0100
0001
0200
0000
0310
0000
,
2000
3100
0002
0103
,
1000
0020
0100
0000
0001
0000
1030
0000
,
1000
0200
0001
0000
0010
0000
1300
0000
,
1000
1000
0100
0000
1000
1000
0010
0000
,
0001
0001
0010
0000
0001
0001
0100
0000
,
0001
0020
0130
2000
3010
0200
0301
2000
,
3001
1000
0010
0100
0110
0000
1001
0000
,
0100
0000
0000
0000
;
#NOTES:
     dance-single:
     Renard:
     Easy:
     6:
     0.408,0.528,0.031,0.021,0.000:
0000
0000
0000
0000
,
0000
0000
0000
0000
,
0000
0000
0000
0000
,
0000
0000
0000
0000
,
1000
2000
0000
0000
0000
0000
0000
0000
,
0001
0000
3001
0000
,
0001
0002
0000
0000
0000
0000
0000
0000
,
1000
0000
1003
0000
,
1000
0000
1000
0000
0001
1000
0001
0000
,
1000
0000
1000
0000
0001
1000
0001
0000
,
1000
0000
1000
0000
0001
1000
0001
0000
,
1000
0001
1000
0001
,
0001
0000
0001
0000
0001
1000
0001
0000
,
0001
0000
0001
0000
0001
1000
0001
0000
,
1000
0001
1000
0000
0001
1000
0001
0000
,
0100
0100
0010
1001
,
1000
0100
0000
0100
,
0010
0000
0001
0000
1000
0001
1000
0001
,
1000
0001
0000
0100
,
0010
0000
1000
0000
0001
1000
0001
1000
,
0100
0100
0010
0010
,
0001
0000
0001
0000
1000
0001
1000
0000
,
0010
0010
0100
0100
,
0000
0001
1000
0000
0001
0000
1000
0000
,
0001
0001
0001
0001
,
1000
0001
1000
0001
1000
0001
1000
0001
,
1000
1000
1000
1000
,
0001
1000
0001
1000
0001
1000
0001
1000
,
0001
0001
0001
0001
,
0100
0100
0100
0100
,
0010
0010
0010
0010
,
1000
1000
1000
1000
,
0100
1000
0100
0000
0000
1000
0000
0000
,
0001
0010
0001
0000
0000
1000
0000
0000
,
0001
0100
0001
0000
0000
1000
0000
0000
,
0001
0010
0001
0000
0000
1000
0000
0000
,
0001
0100
0001
0000
0000
0100
0000
0010
,
1000
0010
1000
0000
0000
0100
0000
0010
,
0001
0010
0001
0000
0000
1000
0000
0001
,
0100
0001
0100
0000
0001
0000
1000
0000
,
0100
0000
0100
0000
0010
0001
0010
0000
,
0100
0000
0100
0000
0010
0001
0010
0000
,
0100
0010
0001
0010
,
0001
0100
0010
1000
,
0010
0100
0010
0000
1000
0000
1000
0000
,
0010
0100
0010
0000
1000
0000
1000
0000
,
0010
0100
0010
0000
1000
0000
0001
0000
,
1000
0100
1000
1100
,
1000
1000
0001
0001
,
1000
1000
0001
0001
,
1000
0001
1000
0001
,
1000
0100
1000
0100
1000
0100
1000
0100
,
1000
1000
0001
0001
,
1000
1000
0001
0001
,
0010
0001
1000
0010
,
1000
0001
1000
0000
0001
0000
0000
0000
,
1000
0100
0010
0001
1000
0000
1000
0000
,
0001
0001
1000
1000
,
0010
0010
0100
0100
,
0010
0010
1000
1000
,
0001
0010
0100
0100
,
0010
0001
1000
1000
,
0100
1000
0100
1000
0001
1000
0001
1000
,
0010
1000
0001
1000
0100
0000
1001
0000
,
0010
0000
0000
0000
;
#NOTES:
     dance-single:
     Renard:
     Beginner:
     3:
     0.278,0.297,0.000,0.000,0.000:
0000
0000
0000
0000
,
0000
0000
0000
0000
,
0000
0000
0000
0000
,
0000
0000
0000
0000
,
1000
0001
0000
0001
,
0000
0001
0000
0001
,
1000
0001
0000
0001
,
0000
0001
1000
0001
,
1000
1000
0010
0010
,
1000
1000
0010
0010
,
1000
1000
0010
0010
,
0100
0001
0100
0001
,
1000
1000
0010
0010
,
1000
1000
0010
0010
,
1000
1000
0010
0010
,
0100
0001
0100
0000
,
0001
0000
1000
0000
,
0001
0100
0010
1000
,
0001
0000
1000
0000
,
0100
0010
0001
0000
,
1000
0000
0001
0000
,
1000
0010
0100
0001
,
1000
0000
0010
0000
,
1000
0001
1000
0001
,
0100
0100
0100
0100
,
0100
0100
0100
0100
,
0010
0010
0010
0010
,
0010
0010
0010
0010
,
1000
0000
1000
0000
0000
1000
0000
0000
,
0001
0000
0001
0000
0000
0001
0000
0000
,
0100
0000
0100
0000
0000
0100
0000
0000
,
0010
0000
0010
0000
0000
0010
0000
0000
,
1000
0000
0010
0000
0000
1000
0000
0000
,
0010
0000
1000
0000
0000
0010
0000
0000
,
1000
0000
0010
0000
0000
1000
0000
0000
,
0010
0000
1000
0000
0000
0010
0000
0000
,
0100
0000
0001
0000
0000
0100
0000
0000
,
0001
0000
0100
0000
0000
0001
0000
0000
,
0100
0000
0001
0000
0000
0100
0000
0000
,
0001
0000
0100
0000
0000
0001
0000
0000
,
1000
0000
1000
0000
0000
0001
0000
0000
,
0001
0000
0001
0000
0000
1000
0000
0000
,
0010
0000
0010
0000
0000
1000
0000
0000
,
0001
0000
0001
0000
0000
0100
0000
0000
,
0001
0001
0000
0001
,
1000
1000
0000
1000
,
0010
0010
0000
0100
,
0010
0100
0010
0000
,
1000
0000
0010
0000
,
0100
0000
0001
0000
,
1000
0000
0010
0000
,
0100
0000
0001
0000
,
1000
0001
1000
0000
,
0001
1000
0001
0000
,
1000
0000
0010
0000
,
0100
0001
0100
0000
,
0001
1000
0100
0100
,
0100
0100
0100
0100
,
0100
0100
0100
0100
,
0010
0000
0001
0000
,
1000
1000
0010
0000
,
0100
0100
0001
0000
,
1000
1000
0100
0100
,
0010
0001
1000
0001
,
0100
0000
0000
0000
;
