#TITLE:Wake Me Up in Heaven;
#SUBTITLE:;
#ARTIST:General Patton & The X-Ecutioners;
#TITLETRANSLIT:;
#SUBTITLETRANSLIT:;
#ARTISTTRANSLIT:;
#CRChallenge:;
#BANNER:heaven.png;
#BACKGROUND:heaven-bg.png;
#LYRICSPATH:;
#CDTITLE:;
#MUSIC:heaven.ogg;
#OFFSET:0.000;
#SAMPLESTART:11.230;
#SAMPLELENGTH:12.000;
#SELECTABLE:YES;
#BPMS:0.000=96.000,50.000=99.000,82.000=100.300,98.000=96.000,110.000=93.000,114.000=94.680,120.000=97.340,122.000=93.000,126.000=98.200,130.000=96.000,164.000=100.000;
#STOPS:;
#BGCHANGES:;
#NOTES:
     dance-single:
     Renard:
     Medium:
     9:
     0.604,0.514,0.303,0.129,0.754:
0000
0000
0000
0000
1001
0000
0000
0000
0001
0010
0100
1000
0010
0100
0001
0000
,
0010
0100
1000
0000
1100
0000
0000
0000
1000
0100
0010
0001
1000
0010
0100
0000
,
0010
0100
0001
0000
0101
0000
0000
0000
0001
0100
0010
1000
0100
0010
0001
0000
,
1000
0100
0010
0000
0110
0000
0000
0000
0010
0001
1000
0010
0100
0001
0010
0000
,
2200
0000
0000
0000
3310
0000
0000
0000
0100
1000
0001
0000
1001
0000
0000
0000
,
0001
0100
0010
1000
0100
0010
0001
0000
0010
0001
1000
0000
1001
0000
0000
0000
,
0001
0100
0010
1000
0100
0010
0001
0000
0010
0001
1000
0000
1001
0000
0000
0000
,
1000
0010
0100
0001
0010
0100
1000
0000
0100
1000
0001
0000
0101
0000
0000
0000
,
0001
1000
0100
0010
0001
1000
0100
0010
0001
1000
0100
0000
1100
0000
0000
0000
,
1000
0100
0010
0001
0010
0100
1000
0000
0001
1000
0100
0000
1100
0000
0000
0000
,
1000
0001
0100
0010
1000
0001
1000
0000
0001
0100
0010
0000
0110
0000
0000
0000
,
0010
1000
0100
0010
0001
1000
0001
0000
1000
0100
1000
0000
1100
0000
0000
0000
,
0001
0010
0001
0010
0001
0010
0001
0010
0001
0000
0000
0000
0011
0000
0000
0001
,
0010
0000
0000
0000
1010
0000
0000
0010
0100
0000
0000
0000
1100
0000
0000
1000
,
0100
0000
0000
0001
0100
0000
0000
0010
0100
0010
0000
0000
0110
0000
0000
0000
,
0100
1000
0000
0000
1010
0000
0000
0010
0001
0000
0000
0000
0011
0000
1010
0000
,
0100
0001
0100
0001
0100
0001
0100
0001
1000
0000
0100
1000
0010
0000
1000
0001
,
0100
0000
0000
0000
0110
0000
0000
0010
1000
0000
0000
0000
0011
0000
0000
0010
,
0100
0000
0000
1000
0100
0000
0001
0000
0200
0000
0001
0000
0302
0000
0010
0000
,
0023
1000
2030
0100
3200
0000
1300
0010
,
0100
0000
0002
0000
0020
0000
0033
0000
0001
0010
0000
0000
1100
0000
0100
1000
,
0000
0000
0001
0100
0010
0000
1000
0000
0100
1000
0000
0000
0011
0000
0100
1000
,
0000
0000
0001
0100
0010
1000
0001
0000
0100
0001
0000
0000
0101
0000
0001
1000
,
0000
0000
0100
1000
0001
0010
0001
0000
1000
0010
0000
0000
0000
0000
0000
0000
,
0100
0000
0100
0000
0100
0000
0100
0000
0001
0000
0100
0010
1000
0000
0100
0000
,
0010
0001
0010
0001
0000
0000
0000
0001
1000
0100
0010
0000
0001
0000
1000
0001
,
0000
0110
0000
1001
0000
0000
0000
0000
0001
0001
1000
1000
0001
0001
0000
0100
,
0000
0010
1000
0010
2000
0000
0000
0000
3001
0000
0100
0000
1001
0000
0000
0001
,
1000
0100
0000
0010
0011
0000
1000
0100
0000
0010
0001
0100
0000
0010
0000
1000
,
0000
0100
0000
0010
0000
0000
0001
0000
0010
0100
1000
0001
0010
0000
0001
0000
,
1000
0010
0000
0100
0000
0001
0000
0000
1000
0100
0010
0001
1000
0001
0000
0000
,
0010
0000
0100
0000
1100
0000
0000
0000
0001
0010
0100
1000
0001
0010
0000
0100
,
0000
0100
1000
0000
1001
0000
0000
0000
0001
0100
1000
0000
0000
0000
0000
0000
,
0100
0010
1000
0100
0010
0001
0000
0000
0010
1000
0010
0000
0000
0000
0000
0000
,
0100
1000
0010
0100
0001
0010
0000
0000
0001
0010
1000
0000
0000
0000
0000
0000
,
0010
0100
0001
0100
1000
0010
0000
0000
0100
0010
0100
0000
0000
0000
0000
0000
,
1000
0100
0001
0010
0100
1000
0000
0000
2200
0000
0000
0000
3301
0000
0000
0000
,
0100
1000
0001
0000
0100
0000
0000
0000
0001
0010
1000
0010
0001
0010
0000
0000
,
0100
1000
0100
0000
1000
0000
0000
0000
0001
0100
1000
0100
0001
0100
0000
0000
,
0010
1000
0010
0000
1000
0000
0000
0000
0010
0001
0010
1000
0010
0100
0001
0000
,
2002
0000
0000
0000
0000
0000
0000
0000
0000
0000
0000
0000
0000
0000
0000
3003
,
0001
1000
0001
0000
1000
0000
0001
1000
0001
1000
0001
0000
1000
0001
1000
0001
,
0100
0001
1000
0010
0100
0001
1000
0010
0100
0001
1000
0010
0100
0001
0100
0010
1000
0001
0100
0001
1000
0010
0100
0001
,
1000
0000
0000
0000
;
#NOTES:
     dance-single:
     Renard:
     Easy:
     4:
     0.242,0.237,0.018,0.037,0.000:
0000
0000
0000
0000
,
0000
0000
0000
0000
,
0000
0000
0000
0000
,
0000
0000
0000
0000
,
1001
0000
0001
1000
,
0100
1000
0100
0000
1000
0000
0001
0000
,
0100
0001
0100
0000
0001
0000
1000
0000
,
0100
1000
0100
0000
1000
0000
1000
0000
,
0001
0100
0001
0000
0100
0000
0100
0000
,
0010
1000
0010
0000
0100
0000
0100
0000
,
0001
0010
0001
0000
1000
0000
1000
0000
,
0010
0100
0010
0000
1000
0000
1000
0000
,
0001
0100
0001
0000
1000
0000
1000
0000
,
0100
0000
0100
0000
0010
0001
0010
0001
,
0010
0010
0001
0001
,
0100
0000
0100
0000
0010
1000
0010
1000
,
0010
0010
1000
1000
,
0100
0000
0100
0000
0010
0001
0010
0001
,
0010
0010
0002
1003
,
0020
0130
0001
1000
,
0100
1000
0100
0000
1000
0000
0000
0001
,
0000
0000
0100
0010
1000
0000
0000
0001
,
0000
0000
0100
0010
1000
0000
0000
0001
,
0000
0000
0100
0010
1000
0000
0000
0000
,
0000
0000
0001
0001
,
1000
0100
0010
0000
0001
0000
0001
0000
,
0010
0100
1000
0000
0001
0000
0001
0000
,
1000
0000
0010
0000
0100
0010
0100
0000
,
0010
0100
0001
1000
,
0100
1000
0100
0000
1000
0000
0001
0000
,
0100
0001
0100
0000
0001
0000
0001
0000
,
1000
0000
0100
0000
1000
0001
0100
0000
,
0010
0010
1000
1000
,
0010
1000
0010
0000
0100
0000
0100
0000
,
0001
0010
0001
0000
1000
0000
1000
0000
,
0100
1000
0100
0000
1000
0000
1000
0000
,
0001
0100
0001
0000
0100
0000
0010
0000
,
1000
0000
0010
0000
1000
0010
1000
0000
,
0001
0000
0100
0000
0001
1000
0001
0000
,
1000
0000
0100
0000
0010
0001
0010
0000
,
0001
0000
0000
0000
,
0001
0001
1000
1000
0001
1000
0001
1000
,
2002
0000
0000
0000
,
3003
0000
0000
0000
;
#NOTES:
     dance-single:
     Renard:
     Beginner:
     2:
     0.151,0.217,0.009,0.055,0.000:
0000
0000
0000
0000
,
0000
0000
0000
0000
,
0000
0000
0000
0000
,
0000
0000
0000
0000
,
0001
0001
1000
0000
,
0100
0100
1000
0000
,
0010
0010
0100
0000
,
0001
0001
1000
0000
,
0010
0010
1000
0000
,
1000
0000
0001
0000
,
0001
0000
0100
0100
,
0100
0000
0010
0010
,
0010
0000
1000
0000
,
1000
0000
0001
0000
,
0100
0100
0001
0000
,
0001
0000
1000
0000
,
0010
0010
1000
0000
,
0001
0000
0100
0000
,
0010
0010
2000
3010
,
0200
0301
2000
0000
,
3002
0000
1003
0000
,
0001
0001
0100
0000
,
0010
0010
1000
0000
,
0001
0001
0100
0000
,
0000
0000
0010
0010
,
1000
0000
0010
0000
,
0100
0000
0001
0001
,
1000
1000
0001
0010
,
0100
1000
0010
0010
,
1000
0000
0001
0001
,
0100
0000
0001
0000
,
1000
0000
0001
0001
,
1000
0010
0100
0000
,
0100
0010
1000
0000
,
1000
0001
0010
0000
,
0010
0100
1000
0000
,
1000
0001
0100
0000
,
0001
0000
1000
0100
,
1000
0000
0001
0001
,
0100
0000
0010
1000
,
0001
0000
0000
0000
,
1000
1000
0001
0001
,
2002
0000
0000
0000
,
3003
0000
0000
0000
;
