#TITLE:Vision Quest;
#SUBTITLE:;
#ARTIST:Totally Radd!!;
#TITLETRANSLIT:;
#SUBTITLETRANSLIT:;
#ARTISTTRANSLIT:;
#CRChallenge:;
#BANNER:vision.png;
#BACKGROUND:vision-bg.png;
#LYRICSPATH:;
#CDTITLE:;
#MUSIC:vision.ogg;
#OFFSET:0.000;
#SAMPLESTART:34.909;
#SAMPLELENGTH:12.000;
#SELECTABLE:YES;
#BPMS:0.000=165.000;
#STOPS:;
#BGCHANGES:;
#NOTES:
     dance-single:
     Renard:
     Hard:
     12:
     0.802,1.000,0.448,0.224,0.555:
0000
0000
0000
0000
,
0000
0000
0000
0000
,
0000
0000
0000
0000
,
0000
0000
0000
0000
,
0000
0000
0000
0000
,
0000
0000
0000
0000
,
0000
0000
0000
0000
,
0000
0000
0000
0000
,
1000
0000
1100
0000
1000
0000
0100
0010
,
0001
0000
0011
0000
0001
0010
0100
1000
,
0010
0100
0010
0000
0100
0000
0001
0010
,
0110
0000
1100
1100
1000
0000
1001
1001
,
0002
0000
0103
0000
2000
0000
3100
0010
,
2000
0000
3100
0000
0020
0000
0031
0010
,
0100
0000
0101
0000
0100
1000
0010
0000
,
0100
0000
0000
0000
0101
0000
0000
0000
0100
0000
0010
1000
0010
0000
0100
0001
,
0100
0010
0100
0010
0100
0000
0010
0000
0100
0010
0100
0010
0100
0000
0010
0000
,
1000
0001
1000
0001
1000
0000
0001
0000
1000
0001
1000
0001
1000
0000
0001
0000
,
1000
0100
1000
0100
1000
0000
0100
0000
1000
0100
1000
0100
1000
0000
0100
0000
,
1000
0001
1000
0001
1000
0000
0001
0000
0010
0001
0010
0001
0010
0000
0001
0000
,
0010
0100
0010
0100
0010
0000
0100
0000
0010
0100
0010
0100
0010
0000
0100
0000
,
0010
0001
0010
0001
0010
0000
0001
0000
0010
0001
0010
0001
0010
0000
0001
0000
,
1000
0100
1000
0100
1000
0000
0100
0000
1000
0100
1000
0100
1000
0000
0100
0000
,
1000
0000
0010
0100
0001
0000
0100
0010
1000
0000
0010
0100
0001
0000
0100
0010
,
1000
0100
0110
0000
0010
0001
1001
0000
,
0001
0100
0110
0000
0010
1000
1010
0000
,
1000
0100
0010
0000
0011
0000
0110
0000
,
0100
1000
0010
0000
0110
0000
0101
0000
,
0001
0100
0110
0000
0010
1000
1010
0000
,
1000
0100
0110
0000
0010
0001
0011
0000
,
0001
0100
0110
0000
1010
0000
1001
0000
,
1000
0100
0010
0000
0110
0000
0011
0000
,
0001
0010
0100
1000
0010
0100
0001
0100
,
0010
1000
0100
0010
0001
0000
0011
0000
,
0010
0100
1000
0010
0100
0001
0100
1000
,
0100
0010
1000
0100
0001
0100
0010
0001
,
0010
0000
0011
0000
0010
0100
1000
0010
,
0100
0000
0110
0000
0100
0001
0010
0100
,
0110
0000
0010
0001
0011
0000
0110
0000
,
1000
0000
1000
0100
0010
0000
0010
0100
1000
0000
1000
0100
0010
0000
0010
0100
,
1000
0001
1000
0001
1000
0001
1000
0001
,
1000
0000
0001
0000
1000
0000
0001
0000
0100
0000
0000
0010
0000
0000
1000
0000
,
0200
0000
0320
0M00
,
0M32
0000
0000
0000
00M0
0000
0000
0003
20M0
0000
0000
0000
000M
0000
0000
0000
,
301M
0000
0100
0000
0020
0000
0000
0000
0230
0000
0000
0300
0002
0000
0000
0000
,
0023
0230
2300
3020
,
0230
0301
0020
0130
,
0001
0000
1000
0000
0100
0000
0010
0000
0001
0010
0100
1000
0001
0010
0100
1000
,
0001
0010
0001
1100
1100
1000
0010
0100
,
0010
1000
0010
0101
0101
0100
0010
1000
,
0100
0010
0001
1100
1100
0010
0001
0100
,
0010
1000
0010
0101
0101
0100
0010
1000
,
0100
0010
0001
1100
1100
1000
0010
0100
,
0001
1000
0010
0110
0110
1000
0100
0010
,
0001
1000
0010
1001
1001
1000
0010
0100
,
0001
0000
0010
0000
0100
0000
1000
0000
0101
0000
0101
0000
0010
1000
0010
0000
,
1000
0010
1000
0010
1000
0001
1000
0100
1000
0010
1000
0010
1000
0001
1000
0100
,
0010
0001
0010
0001
0100
0001
1000
0001
0010
0001
0010
0001
0100
0001
1000
0001
,
0100
0010
0100
0010
0100
0001
0100
0001
1000
0100
1000
0100
1000
0010
1000
0010
,
0100
0001
0100
0001
0100
0010
0100
0010
1000
0100
1000
0100
0010
0100
0010
0100
,
0010
0001
0010
0001
0100
0001
1000
0001
0010
0001
0010
0001
0100
0001
1000
0001
,
0100
0010
0100
0010
0100
0001
1000
0001
0100
0010
0100
0010
0100
0001
1000
0001
,
1000
0100
1000
0100
1000
0010
1000
0001
0100
0010
0100
0010
0100
0001
1000
0001
,
0100
0010
1000
0100
0010
0001
0100
0010
1000
0100
0010
0001
1000
0010
0100
0001
,
1000
0100
0010
0000
0001
0000
0010
0000
0100
1000
0001
0000
0010
0000
0100
0000
,
1000
0001
0100
0000
0010
0000
1000
0000
0100
0010
0001
0000
0010
0000
0100
0000
,
1000
0001
0100
0000
0010
0000
1000
0000
0100
0010
0001
0000
0010
0000
0100
0000
,
1000
0000
0010
0100
0001
0000
0100
0000
0010
0000
1100
0000
0110
0000
0011
0000
,
1001
0000
0000
0000
0001
0000
0100
0010
0100
0000
0010
1000
0010
0000
1000
0001
,
1000
0000
0001
0100
0001
0000
1000
0100
1000
0000
0001
0010
0001
0000
1000
0010
,
1000
0000
0001
0000
0100
0000
0010
0000
1000
0000
0100
0010
0100
0000
0010
0000
,
0001
0000
0001
0010
0100
0000
0100
1000
0010
0000
0010
0100
0001
0010
0100
1000
,
00M2
0M00
M000
00M0
0M00
00M0
M000
0M00
,
00M0
0000
M000
0000
00M0
0000
M000
0000
02M3
0000
M000
0320
000M
0000
2M30
0000
,
320M
M000
00M0
M000
032M
M000
0M00
M000
,
0M32
M000
00M0
0M00
20M3
0M00
000M
0M00
,
0020
0000
0000
0000
,
0000
0000
0000
0000
,
3030
0000
0000
0000
;
#NOTES:
     dance-single:
     Renard:
     Medium:
     9:
     0.625,0.705,0.172,0.172,0.125:
0000
0000
0000
0000
,
0000
0000
0000
0000
,
0000
0000
0000
0000
,
0000
0000
0000
0000
,
0000
0000
0000
0000
,
0000
0000
0000
0000
,
0000
0000
0000
0000
,
0000
0000
0000
0000
,
1000
0000
1000
0001
0100
0000
0100
0001
,
0010
0000
0010
0100
1000
0010
0100
0001
,
0010
0000
0001
0001
1000
0000
0010
0010
,
0100
0000
0001
0001
1000
0000
0100
0100
,
0010
0000
0011
0000
0010
0000
0100
1000
,
0010
0000
1010
0000
1000
0010
0100
0001
,
0010
0011
0010
0110
,
0100
0000
1000
0000
0010
0000
0100
0000
0001
0000
1000
0100
1000
0000
0001
0000
,
0010
0000
0001
0000
1000
0000
0010
0000
0100
0000
0001
0100
0001
0000
0100
0000
,
0010
0000
1000
0000
0100
0000
0010
0000
0001
0000
1000
0100
1000
0000
0001
0000
,
0010
0000
0100
0000
1000
0000
0001
0000
0100
0000
0010
0100
0010
0000
0100
0000
,
0010
1000
0100
0010
0001
1000
0100
0010
,
0001
0000
1000
0000
0100
0000
1000
0000
0001
0000
1000
0001
1000
0000
0001
0000
,
0100
0000
0010
0000
1000
0000
0100
0000
0010
0000
0001
0010
0001
0000
0010
0000
,
0100
1000
0001
0100
0010
1000
0001
0100
,
0010
0000
1000
0010
1000
0000
0001
1000
0001
0000
1000
0000
0100
0000
0010
0000
,
0001
0010
0100
0000
0100
1000
0010
0000
,
0010
0100
0001
0000
0010
0001
1000
0100
,
1000
0000
1001
0000
0001
0100
0010
1000
,
0001
0000
1001
0000
1000
0100
0010
0001
,
1000
0000
0001
0100
0001
0000
0100
0000
0010
0000
1000
0000
0100
0000
0010
0000
,
0001
0000
1000
0100
1000
0000
0001
0000
0010
0000
0100
0000
1000
0000
0001
0000
,
0100
0000
0110
0000
0010
1000
0100
0010
,
0001
0000
0011
0000
0010
0100
1000
0001
,
0100
0000
0010
1000
0100
0010
0001
0010
,
0100
0000
0100
1000
0010
0100
0001
1000
,
1100
0000
1001
0000
1010
0000
1000
0001
,
0101
0011
1001
0101
,
1001
0000
1000
0100
0010
0001
1000
0010
,
0100
0000
0100
0001
0010
0100
1000
0010
,
0100
0100
0001
0001
0010
0010
0100
0100
,
1000
0000
1000
0100
0010
0000
0001
0000
0010
0000
0100
1000
0001
0000
0010
0000
,
0100
1000
0100
1000
,
0100
0000
0000
0000
1000
0000
0000
0000
0010
0000
0000
0100
0000
0000
0001
0000
,
0200
0000
0000
0000
0000
0000
0000
0000
0320
0000
0000
0000
0000
0000
0000
0030
,
2000
0000
3200
0000
,
0310
0001
0020
0000
0000
0000
0100
0000
,
0100
0230
2300
3020
,
0230
0000
0302
0000
,
0013
0000
0100
0000
1000
0000
0100
0000
0010
0000
0001
0010
0001
0000
0010
0000
,
0100
1000
0001
0100
0100
0010
1000
0100
,
0010
0001
1000
0010
0010
0100
0001
0010
,
0100
1000
0001
0100
0100
0010
1000
0100
,
0010
0001
0100
0010
0010
1000
0010
0100
,
0001
0010
0100
1000
1000
0100
0010
0001
,
1000
0010
0100
0001
0001
0100
0010
1000
,
0100
0010
0001
0010
0010
0100
1000
0010
,
0100
0000
0001
0000
0010
0000
0100
0000
1000
0000
0001
1000
0001
0000
1000
0000
,
0001
0000
0100
0000
0010
0000
1000
0000
0100
0000
0010
0000
0001
0000
1000
0010
,
1000
0000
0010
0000
0100
0000
0001
0000
0010
0000
0100
0000
1000
0000
0001
1000
,
0001
0000
1000
0000
0001
0000
0100
0000
0010
0000
1000
0000
0100
0000
0010
0001
,
0010
0000
0100
0000
1000
0000
0001
0000
0100
0000
0010
0000
1000
0000
0001
1000
,
0001
0000
1000
0000
0100
0000
0010
0000
0001
0000
0010
0000
0100
0000
1000
0100
,
1000
0000
0001
0000
0010
0000
0100
0000
1000
0000
0010
0000
0100
0000
0001
0100
,
0001
0000
0100
0000
0010
0000
1000
0000
0100
0000
0010
0000
0001
0000
1000
0100
,
1000
0000
0001
0000
0010
0000
0100
1000
0100
0000
1000
0000
0001
0000
0100
0001
,
0100
0001
1000
0100
0010
0001
0010
0100
,
1000
0000
1000
0010
0100
0000
0100
0001
,
0010
0001
1000
0010
0100
0000
0101
0000
,
0010
0100
0110
0000
0010
1000
1010
0100
,
1001
0000
0100
0000
0001
1000
0100
0010
,
0001
0000
0001
0010
0100
0000
1000
0000
,
0010
0100
0001
1000
0100
0010
0001
0010
,
0100
0000
1000
0001
1000
0000
0001
1000
0001
0000
1000
0001
1000
0000
0001
1000
,
0002
0000
0000
0000
,
0000
0000
0000
0000
0000
0000
0000
0000
0203
0000
0000
0320
0000
0000
2030
0000
,
3200
0000
0320
0000
,
0032
0000
2003
3020
,
0200
0000
0000
0000
,
0000
0000
0000
0000
,
0330
0000
0000
0000
;
#NOTES:
     dance-single:
     Renard:
     Easy:
     6:
     0.397,0.503,0.095,0.095,0.000:
0000
0000
0000
0000
,
0000
0000
0000
0000
,
0000
0000
0000
0000
,
0000
0000
0000
0000
,
0000
0000
0000
0000
,
0000
0000
0000
0000
,
0000
0000
0000
0000
,
0000
0000
0000
0000
,
1000
0000
1000
0000
1000
0000
0001
0100
,
0001
0000
0001
0000
0001
0000
1000
0100
,
1000
0000
0001
0000
0010
0000
0001
0001
,
1000
0000
0010
0010
0100
0000
0001
0001
,
0010
0000
0100
0000
1000
0000
0001
0100
,
0001
0000
1000
0000
0100
0000
1000
0001
,
1000
0001
0010
0100
,
1000
0000
0010
0000
0100
0001
0100
0001
,
1000
0000
1100
0000
1000
0100
0010
0001
,
0010
0000
0011
0000
0001
0010
0100
1000
,
0100
0000
1100
0000
1000
0100
0010
0001
,
0010
0000
0011
0000
0001
0010
0100
1000
,
0010
0000
1010
0000
1000
0010
0100
0001
,
0100
0000
0101
0000
0001
0100
0010
1000
,
0010
1010
1000
0010
,
1000
0100
1000
0001
1000
0001
1000
0001
,
1000
0001
0100
0010
,
1000
0100
1000
0000
0001
0000
0010
0000
,
0001
0011
0010
0110
,
0100
1100
1000
1100
,
1000
0000
0100
1000
0100
0000
1000
0000
,
0001
0000
0100
0001
0100
0000
0001
0000
,
0010
0001
0010
0000
0100
0000
0000
0000
,
1000
0100
1000
0000
0100
0000
0000
0000
,
1000
0010
0100
0001
,
0010
0100
1000
0010
,
0100
0000
0010
0010
0100
0000
0010
0000
,
0100
0000
0010
0010
0100
0000
0010
0000
,
0100
0001
0010
0100
,
1000
0001
0100
0001
,
1000
0000
0001
0001
1000
0000
0001
0000
,
1000
0001
0100
0010
,
1000
1000
1000
1000
,
1000
0000
1000
0000
1000
0000
0010
1000
,
0020
0000
0230
0000
,
0302
0000
0023
0000
,
0130
0100
1000
0001
,
1000
1000
0001
0100
,
0001
0010
0001
0000
0010
0000
0001
0000
,
1000
0100
1000
0000
0001
1000
0001
0000
,
1000
1000
0001
0100
,
0010
1000
0010
1000
,
0100
0000
0100
0010
0001
0000
0000
0000
,
0010
0000
0010
0100
1000
0000
0000
0000
,
0001
0100
0001
0000
,
1000
0100
1000
0000
,
0001
0010
0001
1000
,
0010
1000
0001
0100
,
0001
1000
0100
1000
,
0001
0000
0100
0000
0001
0000
1000
0100
,
1000
0000
0001
0100
0001
0000
1000
0100
,
1000
0000
0001
0100
0001
0000
1000
0100
,
1000
0001
0010
0001
,
1000
0010
1000
0001
,
0010
0000
0001
1000
0001
0000
1000
0010
,
1000
0000
0001
0010
0001
0000
1000
0010
,
1000
1000
0010
0010
,
0100
0100
0001
0001
,
0010
0010
0100
0100
,
1000
0010
0100
0001
,
0010
0000
0000
0000
0001
0000
0000
0001
,
1000
0000
0010
0000
,
0100
0000
0001
0100
0001
0000
1000
0000
,
0100
0000
0010
0000
0001
0010
0100
1000
,
0002
0000
0000
0000
,
0000
0000
0203
0000
,
0320
0000
2030
0000
,
3200
0000
0002
0300
,
0200
0000
0000
0000
,
0000
0000
0000
0000
,
0303
0000
0000
0000
;
#NOTES:
     dance-single:
     Renard:
     Beginner:
     3:
     0.327,0.436,0.181,0.318,0.000:
0000
0000
0000
0000
,
0000
0000
0000
0000
,
0000
0000
0000
0000
,
0000
0000
0000
0000
,
0000
0000
0000
0000
,
0000
0000
0000
0000
,
0000
0000
0000
0000
,
0000
0000
0000
0000
,
1000
1000
0001
0001
,
1000
1000
0001
0001
,
0200
0310
0020
0130
,
0200
0310
0020
0130
,
0001
0001
1000
1000
,
0100
0100
0010
0001
,
1000
0001
0100
0001
,
1000
0100
0011
0011
,
0010
0011
0010
0100
,
1000
0000
1100
0000
,
1000
1010
0010
0100
,
0001
0000
0101
0000
,
0001
1001
1000
0100
,
0010
0000
0110
0000
,
0010
0001
1000
0010
,
0100
0001
0100
0001
,
0000
2000
3200
0320
,
0031
0001
0001
0001
,
1001
0000
0110
0000
,
1001
0000
0110
0000
,
0000
0002
0023
0230
,
1300
1000
1000
1000
,
0002
0103
0020
1030
,
0200
1300
0002
0013
,
0001
1000
0001
0100
,
0001
1000
0100
0010
,
0001
0001
1000
1000
,
0010
0100
0001
1000
,
0100
0000
0010
0000
,
0001
0000
1000
0000
,
0010
0100
0001
1000
,
0200
0000
0320
0000
,
0031
0000
0000
0000
,
0000
0000
2000
0000
,
3002
0000
0203
0000
,
0320
0000
2030
0000
,
3200
0010
0010
0010
,
0010
0010
0010
0010
,
0010
0010
0010
0010
,
0010
0010
0010
0010
,
0310
0000
0011
0000
,
0010
0100
0110
0000
,
0100
0000
1100
0000
,
1000
0010
1010
0000
,
0010
0000
0110
0000
,
0100
0001
0101
0000
,
0001
0000
0011
0000
,
0100
1000
1100
0000
,
1000
0001
1000
0001
,
0100
0010
0100
0000
,
0010
0100
0010
0100
,
0001
1000
0001
0000
,
1000
0100
1000
0100
,
0010
0001
0010
0000
,
0001
0100
0001
0000
,
1000
0010
1000
0000
,
0001
0000
2000
0000
,
3200
0000
0320
0000
,
0031
0010
0100
1000
,
0001
0010
0100
1000
,
1001
0000
2000
0000
,
3200
0000
0320
0000
,
0031
0010
0100
1000
,
0002
0000
0203
0000
,
0320
0000
0000
0000
,
0000
0000
0230
0000
,
0302
0000
2003
0000
,
3200
0000
0320
0000
,
0002
0000
0000
0000
,
0000
0000
0000
0000
,
0033
0000
0000
0000
;
