#TITLE:Vienna Calling;
#SUBTITLE:;
#ARTIST:Falco;
#TITLETRANSLIT:;
#SUBTITLETRANSLIT:;
#ARTISTTRANSLIT:;
#CRChallenge:;
#BANNER:vienna.png;
#BACKGROUND:vienna-bg.png;
#LYRICSPATH:;
#CDTITLE:;
#MUSIC:vienna.ogg;
#OFFSET:0.000;
#SAMPLESTART:14.596;
#SAMPLELENGTH:12.000;
#SELECTABLE:YES;
#BPMS:0.000=131.543,208.000=131.300;
#STOPS:;
#BGCHANGES:;
#NOTES:
     dance-single:
     Renard:
     Medium:
     8:
     0.525,0.508,0.568,0.027,0.031:
0000
0000
0000
0000
,
0000
0000
0000
0000
,
0000
0000
0000
0000
,
0000
0000
0000
0000
,
0011
0000
0100
1010
0000
0100
0001
0100
,
0101
0000
0001
1000
1100
0000
0011
0000
,
0011
0100
1000
1010
0000
1000
0010
0110
,
0000
0010
1000
0001
1001
0000
0110
0000
,
1010
0000
0101
0000
0001
0100
0010
0010
,
0000
1000
0100
0010
0001
0010
0100
1000
,
0001
0000
0001
1000
0000
1000
0010
0000
,
0010
0100
0010
1000
0100
0010
0001
0000
,
0011
0000
1100
0000
0001
1000
0010
0100
,
0000
0010
1000
0100
1000
0001
0001
0100
,
0010
0000
0010
1000
0000
1000
0001
0100
,
0010
1000
0100
0010
0001
0000
1001
0000
,
0101
0000
0001
1000
0000
1000
0100
0010
,
0011
0000
0010
0100
1100
0000
0011
0000
,
1001
0000
0001
0100
0000
0100
0010
1000
,
1010
0000
1000
0100
1100
0000
0011
0000
,
1001
0000
0001
0100
0000
0100
0010
1010
,
0000
1000
0100
0010
0011
0000
1100
0000
,
1001
0000
0001
0101
0000
0100
0010
1010
,
0000
1000
0100
0010
0011
0000
1001
0000
,
0101
0000
0100
0010
1000
0000
0010
1000
,
1100
0000
1000
0001
0011
0000
1100
0000
,
1001
0000
1000
0001
0100
0000
0100
0001
,
1000
0000
1000
0001
0100
0000
1001
0000
,
1000
0000
1100
1000
0001
0000
0101
0001
,
1000
0000
1100
1000
0001
0000
0011
0000
,
1001
0000
1000
0010
0000
0010
0100
0001
,
1000
0100
0010
0001
0010
0100
1000
0001
,
2001
0000
0001
0010
3100
0000
0100
1000
,
0100
0010
0000
0010
0001
0100
0010
0000
,
0102
0000
0100
1000
0013
0000
0010
0001
,
0010
0100
1000
0001
0100
0010
1010
0000
,
1010
0000
1001
0000
1000
0100
0010
0001
,
0000
0001
0010
0100
1000
0001
0100
0010
,
0110
0000
0010
0010
0000
1000
1000
0000
,
0001
0100
0010
1000
0100
0000
0010
0000
,
0011
0000
1100
0000
1000
0010
0100
0001
,
0000
0001
0100
0010
1000
0100
0010
0001
,
0011
0000
0010
0100
0000
0100
1000
0000
,
1000
0001
0100
0010
1000
0001
0010
0100
,
1100
0000
0011
0000
1000
0100
0010
0001
,
0100
0010
0000
1001
0000
1000
0100
0010
,
0001
0010
0100
1000
0000
0001
0100
0000
,
1001
1001
1001
0000
0000
0001
1000
0100
,
1100
0000
1000
0001
0000
0001
0100
0010
,
0000
1000
0100
0010
0001
0000
0011
0000
,
0010
0000
0010
0100
0000
0100
1000
0001
,
0100
0010
1000
0100
0010
0000
0011
0000
,
0001
0000
0000
0010
0000
0000
0100
0000
0000
1000
0000
0000
0001
0000
0100
0000
0000
0000
0001
0000
0000
1000
0000
0000
,
0100
0000
0000
0010
0001
0000
0010
0000
0100
0000
0000
0000
1000
0000
0001
0000
,
0100
0000
0000
0100
0000
0000
0100
0000
0000
0100
0000
0000
0100
0000
0010
0000
0000
0000
0000
0000
0000
0010
0000
0000
,
1000
0100
0010
0001
0010
0100
1000
0110
,
0000
0000
1001
0000
0000
0000
0100
0010
0100
0000
0000
0000
0010
0000
1000
0000
,
0100
0000
0000
0100
0010
0000
0001
0000
0010
0000
1100
0000
0000
0000
1000
0000
,
0001
0000
0001
0100
0010
1000
0001
0010
,
0100
0000
1000
0000
0100
0000
0010
0000
0001
0000
1000
0000
0010
0100
0010
0100
,
0020
0030
0000
0000
;
#NOTES:
     dance-single:
     Renard:
     Easy:
     5:
     0.323,0.348,0.169,0.009,0.000:
0000
0000
0000
0000
,
0000
0000
0000
0000
,
0000
0000
0000
0000
,
0000
0000
0000
1001
,
0000
1000
0100
1000
0001
0000
1000
0000
,
0001
0100
0010
1000
,
0000
0001
1000
0001
0100
0000
0001
0000
,
1000
0100
0110
1001
,
0110
0000
1001
0000
0000
0001
1000
0100
,
0000
0000
0000
0000
0000
1000
0001
0100
,
0001
0000
0000
1000
0000
0000
0100
0000
,
1000
0100
0010
0001
0000
0000
1001
0000
,
1010
0000
1001
0000
0000
1000
0001
0100
,
0000
0000
0000
0000
0000
0001
1000
0100
,
1000
0000
0000
0001
0000
0000
0100
0000
,
0001
0000
1000
0000
0100
1000
0100
0000
,
1000
0000
1000
0001
0000
0000
0001
0000
,
0100
0000
0100
0010
1000
0000
1000
0000
,
0010
0000
0010
0100
0000
0000
0001
0000
,
1000
0000
0100
1000
0001
0000
0001
0000
,
1000
0000
0000
0100
0000
0000
0000
1000
,
0000
0000
0000
0001
0100
0000
0100
0000
,
0001
0000
0000
1000
0000
0000
0000
0100
,
0000
0000
0000
1000
0001
0000
0100
0000
,
0001
0001
1000
1000
,
0010
0000
0010
0100
0010
0000
0110
0000
,
0010
1000
0010
1000
,
0001
0100
0001
0100
0001
0000
1001
0000
,
0001
0001
1000
1000
,
0100
0000
1000
0001
1000
0000
0001
0000
,
0100
0000
0100
0010
0000
0010
0100
0000
,
0010
0000
1000
0000
0001
1000
0001
0000
,
1100
0000
1000
0100
0010
0000
0000
0001
,
0010
0100
0000
0000
1000
0000
0001
0000
,
0100
0000
0010
1000
0010
0000
0000
1000
,
0010
0000
0100
0000
0001
1000
0001
0000
,
1001
0000
0110
0000
0000
0000
0010
0100
,
0000
0000
0000
0000
0000
0001
1000
0000
,
0001
0000
0001
1000
0000
0000
0100
0000
,
1000
0000
0001
0100
0001
0000
1000
0000
,
0001
0000
0101
0000
0000
0000
0001
1000
,
0000
0000
0100
0000
0000
1000
0001
1000
,
0001
0000
0000
0100
0000
0000
0010
0000
,
1000
0001
1000
0000
0001
0000
0100
0000
,
0001
0001
1000
0001
,
0100
0001
0000
1001
0000
0000
0000
0000
,
0000
0001
1000
0001
0000
0000
0000
0000
,
0110
0110
0110
0000
0000
0000
0010
0000
,
0100
0100
0001
0001
,
1000
0000
1000
0000
0000
0100
1000
0001
,
1000
0000
0000
0001
0000
0000
0100
0000
,
0000
0010
1000
0010
,
0100
0100
0110
0010
,
0100
0000
0010
1000
0010
0000
0000
0000
,
1000
1000
1000
1000
1000
0000
0000
0000
,
0001
0000
1000
0100
,
0010
0000
0000
0001
0001
0000
0000
0000
,
1000
0000
0010
1000
0010
0000
1000
0000
,
0001
0100
0010
1000
,
0001
1000
0100
0010
0001
0010
0100
1000
,
0002
0003
0000
0000
;
#NOTES:
     dance-single:
     Renard:
     Beginner:
     3:
     0.240,0.348,0.169,0.115,0.000:
0000
0000
0000
0000
,
0000
0000
0000
0000
,
0000
0000
0000
0000
,
0000
0000
0000
0000
,
1000
1000
0000
0001
,
0000
0100
0000
0010
,
1000
1000
0000
0001
,
0000
0100
0000
0010
,
1001
0110
0000
0010
,
0000
0100
0000
0010
,
1001
0110
0000
0100
,
0000
0010
0000
0100
,
0110
1001
0000
1000
,
0000
0001
0000
0100
,
0110
1001
0000
1000
,
0000
0001
0100
0001
,
2000
0000
3002
0000
,
1000
0010
1003
0000
,
0002
0000
2003
0000
,
0001
0010
3001
1001
,
1000
0000
0100
0000
,
0010
0000
0001
0001
,
1000
0000
0010
0000
,
0100
0000
0001
0001
,
1000
1000
0000
0100
,
0000
1000
0100
1000
,
0001
0001
0000
0010
,
0000
0001
0010
0001
,
1000
1000
0000
0010
,
0000
1000
0010
1000
,
0001
0001
0000
0100
,
0000
0001
0100
0001
,
2000
0000
3001
0000
,
0100
0100
0000
0001
,
1000
1000
1000
0000
,
0100
1000
0001
0001
,
1000
1000
0000
0010
,
0000
0000
0000
1000
,
0001
0001
0000
0100
,
0000
0010
0010
0010
,
0100
0100
0000
0001
,
0000
1000
0000
0100
,
1000
1000
0000
0001
,
0000
0100
0010
0010
,
1010
1010
1010
1010
,
0101
0000
0101
0000
,
0002
2000
0000
0000
,
0010
3013
0000
1000
,
0001
0001
0000
0100
,
0000
0010
0000
1000
,
1000
0001
0000
0010
,
0001
0100
0010
1000
,
0002
1000
0100
1000
,
1000
0100
0020
0033
,
0011
0011
0011
0000
,
2000
0000
0000
0000
,
3002
0000
0100
0000
,
0100
1000
0013
0000
,
0010
0001
1000
0100
,
1000
0010
0100
0010
,
2002
3003
0000
0000
;
