#TITLE:Vicious Delicious;
#SUBTITLE:;
#ARTIST:Infected Mushroom;
#TITLETRANSLIT:;
#SUBTITLETRANSLIT:;
#ARTISTTRANSLIT:;
#CRChallenge:;
#BANNER:vicious-banner.avi;
#BACKGROUND:vicious-bg.jpg;
#LYRICSPATH:;
#CDTITLE:!cdtitle.png;
#MUSIC:vicious.ogg;
#OFFSET:0.000;
#SAMPLESTART:67.842;
#SAMPLELENGTH:12.000;
#SELECTABLE:YES;
#BPMS:0.000=145.000;
#STOPS:;
#BGCHANGES:;
#NOTES:
     dance-single:
     Renard:
     Hard:
     10:
     0.696,0.980,0.320,0.119,0.682:
0000
0000
0000
0000
,
0000
0000
0000
0000
,
0000
0000
0000
0000
,
0000
0000
0000
0000
,
0000
0000
0000
1000
0000
0001
0100
0100
,
0000
0010
1000
0000
1010
0000
0000
1001
,
0000
0101
0000
0001
0000
1000
0100
1000
,
0000
0001
0010
0000
1001
0000
0000
0101
,
0000
0000
0000
0000
,
0001
0000
1000
0100
1000
0000
0001
0000
0010
0000
0001
1000
0001
0000
0100
0000
,
0010
0000
1000
0010
1000
0000
0001
0000
0100
0000
0001
0000
1000
0000
0100
0000
,
0010
0000
0001
0010
0001
0000
0010
0000
0100
0000
1000
0100
1000
0000
0001
0000
,
0100
0000
0010
0100
0010
0000
1000
0000
0010
0000
0100
0000
0001
0000
0000
0000
,
1000
0000
0100
0010
0100
0000
0010
0000
0001
0000
1000
0001
1000
0000
0001
0000
,
0100
0000
0010
0100
0010
0000
1000
0000
0100
0000
0010
0000
0001
0000
1000
0000
,
0010
0000
0100
0001
0100
0000
0010
0000
1000
0000
0100
1000
0100
0000
1000
0000
,
0001
0010
0001
1000
0010
0000
0101
0000
,
0001
0000
0100
0000
1000
0000
0100
0000
0001
0000
0020
0000
0000
0000
0000
0030
,
0100
1000
0010
0100
0001
1000
0100
0110
,
0010
0100
0000
0000
0000
0000
0010
0000
0100
0000
1000
0000
0010
0000
0100
0000
,
0001
0000
0000
0000
0100
0000
0010
0000
1000
0000
0100
0000
0020
0000
0000
0030
,
0001
0010
0000
0000
0000
0000
0010
0000
0100
0000
1000
0000
0000
0000
0010
0000
,
0100
0001
0010
0100
1000
0000
1001
0000
,
0001
0100
0000
0000
0000
0000
0010
0000
2000
0000
0000
0000
0000
0000
3100
0000
,
0020
0000
0000
0031
0011
0011
0000
0000
,
0011
0000
0000
0000
1001
0000
1001
0000
0000
0000
0110
0000
0000
0000
0010
1000
,
0010
0000
0000
0000
0000
0000
1100
0000
0000
1100
0000
0000
0000
0000
0000
0010
0000
0000
0001
1000
0001
1000
0000
0000
,
0000
0000
1010
1010
0000
0101
0000
1001
,
1001
0000
0000
0000
1100
0000
1100
0000
0000
0000
1000
0000
0000
0000
0001
0100
,
0001
0000
0101
0101
0000
0110
0000
1010
,
1010
0000
0000
0000
1100
0000
1100
0000
0000
0000
0110
0000
0000
0000
0010
0001
,
0010
0000
0011
0011
0000
0110
0000
1000
,
0001
0100
0001
0100
0000
0000
0010
1000
0010
1000
0000
0000
1001
0000
0000
0000
,
0001
0010
0100
1000
0001
0010
0100
1000
0001
0010
0100
1000
0001
0010
0100
1000
,
0001
0100
0010
1000
0001
0100
0010
1000
0001
0100
0010
1000
0001
0100
0010
1000
,
0001
0100
0010
1000
0100
0010
0001
0010
0100
1000
0001
0100
0010
1000
0100
0010
,
0001
0010
0100
1000
0001
0100
0010
1000
0100
0010
0001
0010
0100
1000
0001
0100
,
0010
1000
0100
0010
0001
0100
0010
1000
0100
0010
0001
0100
0010
1000
0100
0010
,
0001
0100
0010
1000
0100
0010
0001
0010
0100
1000
0001
0100
0010
1000
0100
0010
,
0001
0100
0010
1000
0100
0010
0001
0100
0010
1000
0100
0010
0001
1000
0010
0100
,
0001
0000
0001
1000
0000
1000
0010
0000
0100
0000
0100
0001
0000
0001
0010
0000
,
0001
0000
0100
0010
0000
1000
0100
0000
0010
0000
0001
1000
0000
0010
0100
0000
,
0001
0000
0010
0100
0000
1000
0100
0000
0010
0000
0001
0100
0000
0010
1000
0000
,
0100
0000
0010
0100
0000
1000
0100
0000
0010
0000
0001
0100
0000
0010
1000
0000
,
0100
0000
0010
0001
0000
0100
0010
0000
0100
0000
0001
0010
0000
0100
0010
0000
,
0001
0000
0100
1000
0000
0100
0010
0000
0001
0000
0010
1000
0000
0010
1000
0000
,
0100
0000
0010
0001
0000
0010
1000
0000
0010
0000
0100
1000
0000
0100
0010
0000
,
0001
0000
0100
0010
0000
0100
1000
0000
0100
0000
0010
0001
0000
0010
1000
0000
,
0100
0000
0010
0001
0000
1000
0010
0000
0100
0000
0001
0010
0000
0100
1000
0000
,
0001
0100
0010
1000
0100
0000
0010
0001
0000
0010
0100
0000
1000
0000
0001
0000
,
0100
0010
1000
0010
0100
0000
0001
0010
0000
0100
1000
0000
0001
0000
0100
0000
,
0010
1000
0100
0010
0001
0000
0010
0100
0000
1000
0001
0000
0100
0000
0010
0000
,
1000
0100
0010
0001
0010
0000
0100
1000
0000
0001
0100
0000
0020
0000
0000
0000
,
1030
0100
0010
0001
0010
0000
0100
1000
0000
0001
0100
0000
0010
0000
1000
0000
,
0100
0010
0001
0010
0100
0000
1000
0001
0000
0100
0010
0000
1000
0000
0100
0000
,
0010
0001
0010
0100
1000
0000
0001
0100
0000
0010
1000
0000
0100
0000
0010
0000
,
0001
0010
0100
1000
0000
1000
0100
0000
0010
0001
0010
0100
0000
0100
1000
0000
,
0002
0000
0000
0000
,
0200
0000
0000
0000
0000
0000
0000
0003
,
0020
0000
0000
0300
,
2000
0000
0000
0030
,
0200
0000
0000
0000
,
0020
0000
0000
0000
,
0002
0000
0000
0000
0000
0000
0000
0030
,
0020
0000
0000
0000
0000
0000
0000
3333
;
#NOTES:
     dance-single:
     Renard:
     Medium:
     9:
     0.572,0.741,0.220,0.082,0.348:
0000
0000
0000
0000
,
0000
0000
0000
0000
,
0000
0000
0000
0000
,
0000
0000
0000
0000
,
0000
0000
0000
1001
0000
0110
0010
0100
,
0000
0001
0010
0000
0110
0000
0000
1100
,
0000
1001
0000
0001
0100
0001
1000
0100
,
0000
0010
0001
0000
1000
0000
0001
0100
,
0000
0000
0000
0000
,
0010
0000
1000
0000
0001
0000
0100
0000
0001
0000
1000
0100
1000
0000
0000
0000
,
0001
0000
0010
0000
0100
0000
1000
0000
0001
0000
0100
0001
0100
0000
0000
0000
,
0001
0000
0010
0000
0100
0000
1000
0000
0001
0000
0010
0001
0010
0000
0000
0000
,
0001
0010
0100
1000
0010
0000
0101
0000
,
0100
0000
0010
0000
1000
0000
0100
0000
1000
0000
0001
1000
0001
0000
0000
0000
,
1000
0000
0001
0000
0010
0000
0100
0000
1000
0000
0001
0100
0001
0000
0000
0000
,
0100
0000
0010
0000
1000
0000
0100
0000
0010
0000
0001
1000
0001
0000
0000
0000
,
0010
0100
1000
0010
0100
0000
1001
0000
,
1000
0100
1000
0001
0010
0001
0000
0000
,
1000
0010
0100
0001
0010
0100
1000
0001
,
0001
1000
0000
0000
0000
0000
0001
0000
0100
0000
0010
0000
1000
0000
0100
0000
,
0010
0000
0001
0010
0000
0100
1000
0001
,
0100
0000
0010
1000
0001
0100
0000
0010
,
1000
0000
0100
0010
0000
0001
0010
0100
,
1000
0100
0000
0000
0000
0000
1000
0000
0010
0000
0100
0000
0001
0000
1000
0000
,
0200
0000
0000
0010
0010
0010
0000
0000
,
0310
0000
0011
0110
0000
1100
0000
1000
,
0001
0000
0000
0000
0110
0000
0110
0000
0000
0000
1001
0000
0000
0000
1000
0100
,
0010
0000
0011
0011
0000
0110
0000
0100
,
1000
0000
0000
0000
1010
0000
1010
0000
0000
0000
0101
0000
0000
0000
0001
1000
,
0100
0000
0110
0110
0000
0011
0000
0010
,
0100
0000
0000
0000
1000
0000
1000
0000
0000
0000
1010
0000
0000
0000
0001
0100
,
0001
0000
0100
0100
0000
0110
0000
0010
,
1000
0010
1000
0010
0000
0000
0100
0001
0100
0001
0000
0000
1000
0000
0000
0000
,
0001
0000
0001
0010
0000
0010
0100
0000
1000
0000
1000
0010
0000
0010
0100
0000
,
0001
0000
0001
0010
0000
0010
0100
0000
1000
0000
1000
0010
0000
0010
0100
0000
,
0001
0000
0001
0100
0000
0100
0010
0000
1000
0000
1000
0100
0000
0100
0010
0000
,
0001
0000
0001
0010
0000
0010
0100
0000
1000
0000
0100
0010
0001
0000
0001
0000
,
0100
0001
0100
0000
0001
0000
0100
0000
0010
0100
0010
0000
0100
0000
0010
0000
,
1000
0100
1000
0100
1000
0000
1000
0000
0001
0100
0001
0100
0001
0000
0001
0000
,
0010
0001
0010
0001
0010
0000
0100
0000
1000
0100
1000
0100
1000
0000
0001
0000
,
0100
0000
0100
0010
0000
0010
1000
0000
0010
0000
0010
0100
0000
0100
0001
0000
,
1000
0000
0100
1000
0000
0000
0001
0000
0010
0000
0001
1000
0000
0000
0001
0000
,
0100
0000
0010
0100
0000
0000
0010
0000
1000
0000
0100
1000
0000
0000
0001
0000
,
0010
0000
0001
1000
0000
0000
0001
0000
0100
0000
0010
1000
0000
0000
0010
0000
,
0100
0000
0001
1000
0000
0000
0100
0000
0010
0000
0001
0010
0000
0000
0100
0000
,
1000
0000
0001
0100
0000
0000
0010
0000
1000
0000
0010
0100
0000
0000
0001
0000
,
0100
0000
0010
1000
0000
0000
0100
0000
0010
0000
0001
0010
0000
0000
0100
0000
,
1000
0000
0001
0100
0000
0000
0010
0000
1000
0000
0100
0010
0000
0000
0001
0000
,
0010
0000
0100
1000
0000
0000
0001
0000
0100
0000
0010
0000
0100
0000
0010
0000
,
0100
0000
0100
0001
0000
0001
1000
0000
0100
0000
0010
0000
0001
0000
0010
0000
,
0100
0000
0100
1000
0000
1000
0001
0000
0100
0000
0010
0000
1000
0000
0100
0000
,
0010
0000
0010
0001
0000
0001
1000
0000
0001
0000
0100
0000
0010
0000
1000
0000
,
0100
0000
0100
0010
0000
0010
0001
0000
1000
0000
0010
0000
0100
0000
0001
0000
,
1000
0000
1000
0001
0000
0001
0010
0000
0100
0000
1000
0000
0001
0000
0100
0000
,
0010
0000
0010
1000
0000
0000
0100
0000
0010
0000
0001
0000
0010
0000
0100
0000
,
1000
0000
1000
0010
0000
0010
0100
0000
0001
0000
1000
0000
0100
0000
0010
0000
,
0001
0000
0001
1000
0000
1000
0001
0000
0010
0000
0010
0100
0000
0100
1000
0000
,
0002
0000
0000
0000
,
2003
0000
0000
0000
,
3200
0000
0000
0000
,
0302
0000
0000
0000
,
0023
0000
0000
0000
,
2030
0000
0000
0000
,
0200
0000
0000
0000
,
0020
0000
0000
3330
;
#NOTES:
     dance-single:
     Renard:
     Easy:
     6:
     0.379,0.504,0.183,0.082,0.000:
0000
0000
0000
0000
,
0000
0000
0000
0000
,
0000
0000
0000
0000
,
0000
0000
0000
0000
,
0000
0000
0000
1000
0000
0001
0100
0001
,
0000
1000
0100
0000
0010
0000
0000
0001
,
0000
1000
0000
0010
0000
0100
0000
0000
,
0000
0001
0000
0000
1000
0000
0000
0100
,
0000
0000
0000
0000
,
0010
0000
0011
0000
0010
0100
1000
0000
,
0100
0000
1100
0000
1000
0010
0100
0000
,
0001
0000
0101
0000
0001
0100
0010
0000
,
1000
1010
1000
1010
,
1000
0000
0100
0000
0010
0001
0010
0000
,
0100
0000
1000
0000
0001
0010
0001
0000
,
1000
0000
0010
0000
0100
0001
0100
0000
,
0010
1000
0100
1100
,
1000
0001
0020
0000
,
0031
1000
0010
0100
,
0001
0100
0001
0100
0000
0000
0000
0001
,
0000
1000
0200
0000
,
0310
0000
0001
1000
0001
0100
0000
0000
,
0001
0000
1000
0000
0100
0000
0010
0001
,
1000
0000
0001
1000
0000
0001
0100
0010
,
2000
0000
0000
0000
0001
0001
0000
3000
,
1000
0000
1100
0000
1000
0100
0010
0000
,
0001
0000
0011
0000
0001
0010
0100
0000
,
1000
0000
1010
0000
1000
0010
0100
0000
,
0001
0000
0101
0000
0001
0100
0010
0000
,
1000
0000
1100
0000
1000
0100
0010
0000
,
0001
0000
0011
0000
0001
0010
0100
0000
,
1000
0000
1010
0000
1000
0010
0100
0000
,
0001
0100
0001
0100
0001
1000
0001
0000
,
1000
0000
0001
0000
1000
0001
1000
0001
,
0100
0000
0010
0000
0100
0010
0100
0010
,
1000
0000
0010
0000
1000
0010
1000
0010
,
0100
0000
0001
0000
0100
0001
0100
0000
,
0001
1000
0001
1000
0001
1000
0001
1000
,
0010
0100
0010
0100
0010
0100
0010
0100
,
0001
1000
0001
1000
0001
1000
0001
1000
,
0001
0000
0000
0000
,
1000
0000
1001
0000
0001
0100
0010
0000
,
1000
0000
1010
0000
1000
0010
0100
0000
,
0001
0000
1001
0000
1000
0100
0010
0000
,
0001
0000
0011
0000
0001
0010
0100
0000
,
1000
0000
1100
0000
1000
0100
0010
0000
,
0001
0000
1001
0000
0001
0010
0001
0000
,
1000
0000
1010
0000
1000
0010
1000
0000
,
1000
0000
0010
0000
1000
0010
1000
0000
,
0010
0000
1000
0000
0010
1000
0010
0000
,
0010
0000
0100
0000
0001
0100
0001
0000
,
0010
0000
0001
0000
0010
0001
0010
0000
,
0100
0000
1000
0000
0100
1000
0100
0000
,
1000
0000
0001
0000
0010
0001
0010
0000
,
0100
0000
1000
0000
0001
0100
0001
0000
,
1000
0000
0100
0000
0010
0001
0010
0000
,
0100
0000
1000
0000
0001
0100
0001
0000
,
2000
0000
0000
0000
,
0200
0000
3000
0000
,
0020
0000
0300
0000
,
0000
0000
0000
0000
,
0032
0000
0000
0000
,
0200
0000
0000
0000
,
0000
0000
0000
0000
,
0020
0000
0000
0333
;
#NOTES:
     dance-single:
     Renard:
     Beginner:
     3:
     0.314,0.534,0.412,0.119,0.000:
0000
0000
0000
0000
,
0000
0000
0000
0000
,
0000
0000
0000
0000
,
0000
0000
0000
0000
,
0000
0000
0000
0000
,
0000
0000
0000
0000
,
0000
0000
0000
0000
,
0000
0000
0000
0000
,
0000
0000
0000
0000
,
1000
1000
0001
0001
,
1000
0001
1000
0001
,
0100
0100
0010
0010
,
0100
0010
0100
0010
,
1000
1000
0010
0010
,
1000
0010
1000
0010
,
0100
0100
0001
0001
,
0100
0001
0101
0000
,
0001
0000
1000
0100
,
0010
0000
0001
1000
,
0020
0000
0130
0001
,
1000
0000
0100
0000
,
0020
0000
0031
1000
,
0010
0000
0100
0001
,
2000
0000
3100
0000
,
0020
0000
0000
0000
,
0031
0001
0010
0100
,
1000
1000
0100
0010
,
0001
0001
0010
0100
,
1000
1000
0001
0000
,
1000
1000
0010
0100
,
0001
0001
0100
0010
,
1000
1000
0010
0100
,
0001
1000
0001
1000
,
0001
0001
1000
1000
,
0001
0001
1000
1000
,
0010
0010
0100
0100
,
0010
0010
0100
0100
,
1001
1001
0110
0110
,
1001
1001
0110
0110
,
1001
0110
1001
0110
,
2002
0000
0000
3003
,
1000
1001
1000
1001
,
1000
1001
1000
1001
,
0001
1001
0001
1001
,
0001
1001
0001
1001
,
0100
0110
0100
0110
,
0100
0110
0100
0110
,
0010
0110
0010
0110
,
0010
0110
0010
0110
,
0010
1010
0010
1010
,
0010
1010
0010
1010
,
0100
0101
0100
0101
,
0100
0101
0100
0101
,
0001
0011
0010
0011
,
0001
0011
0010
0011
,
1000
1100
0100
1100
,
1000
1100
1000
0001
,
0200
0000
0000
0000
,
0002
0000
0300
0000
,
2000
0000
0000
0000
,
0000
0000
0003
0000
,
0200
0000
3000
0000
,
0020
0000
0000
0300
,
0002
0030
0000
0000
,
0200
0000
0000
0303
;
