#TITLE:Vi Sitter I Ventrilo Och Spelar DotA;
#SUBTITLE:;
#ARTIST:Basshunter;
#TITLETRANSLIT:;
#SUBTITLETRANSLIT:;
#ARTISTTRANSLIT:;
#CRChallenge:;
#BANNER:dota.png;
#BACKGROUND:dota-bg.png;
#LYRICSPATH:;
#CDTITLE:!cdtitle.png;
#MUSIC:dota.ogg;
#OFFSET:0.000;
#SAMPLESTART:76.533;
#SAMPLELENGTH:12.000;
#SELECTABLE:YES;
#BPMS:0.000=140.000;
#STOPS:;
#BGCHANGES:;
#NOTES:
     dance-single:
     Renard:
     Medium:
     9:
     0.537,0.645,0.018,0.027,0.816:
0000
0000
0000
0000
,
0000
0000
0000
0000
,
0000
0000
0000
0000
,
0000
0000
0000
0000
,
0000
0000
0000
0000
,
0000
0000
0000
0000
,
0000
0000
0000
0000
,
0000
0000
0000
0000
,
0000
0000
0000
0000
,
0100
0000
0000
0100
0000
0000
0100
0000
0000
0000
1000
0000
0010
0000
0100
0000
,
0001
0000
0000
0001
0000
0000
0001
0000
0000
0000
1000
0000
0100
0000
0010
0000
,
0001
0000
0000
0001
0000
0000
0100
0000
0001
0000
0000
0001
0000
0000
1000
0000
,
0001
0000
0001
0000
1000
0000
1000
0000
0001
1000
0001
1000
0001
1000
0001
0000
,
1000
0100
1000
0100
1000
0000
0000
0000
1100
0000
0010
0001
0020
0000
0000
0000
,
0031
0000
0000
0010
0000
0000
0100
0000
1000
0100
1000
0000
0010
0000
0100
0000
,
0001
0000
0000
1000
0000
0000
0010
0000
0100
0000
0001
0000
0010
0000
0100
0000
,
1000
0000
0000
0010
0000
0010
0100
0000
0001
0000
0010
0000
0100
0000
1000
0000
,
0010
0000
0000
0100
0000
0100
0010
0000
1000
0000
0100
0000
0010
0000
0001
0000
,
1000
0000
0000
1000
0000
0000
0001
0000
0010
0001
0010
0000
0001
0000
0010
0000
,
0100
0000
0000
1000
0000
0000
0010
0000
0100
0000
0001
0000
1000
0000
0100
0000
,
0010
0000
0000
0001
0000
0001
0010
0000
0100
0000
0100
0000
1000
0000
1000
0000
,
0010
0000
0000
0010
0000
0000
0100
0000
0001
0100
0001
0100
0001
0100
0001
0100
,
0001
0000
0000
0000
0000
0000
0001
0000
0001
1000
0000
1000
,
0010
0000
0010
0000
0000
0100
0001
0000
1000
0010
0000
1000
,
0001
0000
0010
0000
0000
0001
0010
0000
0100
1000
0000
0010
,
0100
0000
0001
0000
0000
0100
0010
0000
1000
0100
0000
0010
,
0001
0000
1000
0000
0000
0001
0010
0000
0100
1000
0000
0001
,
0100
0000
0010
0000
0000
1000
0010
0000
0100
0001
0000
0010
,
0100
0000
1000
0000
0000
0001
0010
0000
0001
1000
0000
0010
,
0100
0000
0001
0000
0000
0100
0010
0000
1000
0100
0000
0010
,
0001
0000
1000
0000
0000
0001
0010
0000
0100
1000
0000
0001
,
0100
0000
0010
0000
0000
1000
0010
0000
0100
0001
0000
0010
,
0100
0000
1000
0000
0000
0001
0010
0000
0001
1000
0000
0010
,
0100
0000
0001
0000
0000
1000
0100
0000
1000
0001
0000
0010
,
0001
0000
1000
0000
0000
0001
0010
0000
0100
1000
0000
0010
,
0100
0000
0010
0000
0000
1000
0010
0000
0100
0001
0000
0010
,
0100
0000
1000
0000
0000
0001
0010
0000
0001
1000
0000
0010
,
0100
0000
0001
0000
0000
0100
0010
0000
1000
0100
0000
0010
,
0001
0000
0001
1000
0000
1000
0001
0010
0100
1000
0001
0010
,
0100
0000
0100
1000
0000
1000
0100
1000
0100
1000
0000
1000
,
0100
0000
0100
0010
0000
0010
0001
0010
0001
0010
0000
0010
,
0001
0000
0001
0100
0000
0100
0010
0000
0010
1000
0000
1000
,
0001
0100
0001
0100
0001
0100
0010
0000
0010
0100
0000
0100
,
0000
0000
0000
0000
0000
0000
0000
0000
0000
0000
0000
0010
,
1000
0001
0100
0010
0000
0000
1010
0000
1000
0010
0100
0001
,
0100
0000
0100
0001
0000
0001
1000
0100
0010
0001
0000
0001
,
1000
0000
1000
0001
0000
0001
0010
0100
1000
0001
0000
0100
,
0010
0000
1000
0010
0000
0100
0001
0100
0010
1000
0001
0010
,
0001
0000
1000
0100
0000
1000
0001
0010
0100
1000
0001
0100
,
0010
0000
1000
0010
0000
0100
0001
0100
0010
1000
0001
0010
,
0100
0000
1000
0001
0000
1000
0010
0100
0001
1000
0100
0010
,
0001
0000
0001
0010
0000
0010
0100
1000
0100
1000
0000
1000
,
0100
0000
0100
1000
0000
1000
0002
0000
0000
0000
0000
0000
,
0013
0000
0000
0010
0000
0000
0100
0000
1000
0100
1000
0000
0010
0000
0100
0000
,
0001
0000
0000
0001
0000
0000
0100
0000
0010
0000
1000
0000
0001
0000
0010
0000
,
0001
0000
0000
1000
0000
1000
0001
0000
0010
0000
0100
0000
1000
0000
0010
0000
,
0100
0000
0000
0001
0000
0001
0100
0000
0010
0000
1000
0000
0100
0000
0010
0000
,
0001
0000
0000
1000
0000
0000
0100
0000
1000
0001
1000
0000
0001
0000
0100
0000
,
0010
0000
0000
1000
0000
0000
0010
0000
0100
0000
0001
0000
0100
0000
0010
0000
,
1000
0000
0000
0001
0000
0001
0010
0000
0100
0000
1000
0000
0001
0000
0010
0000
,
0100
0000
0000
1000
0000
0000
0010
0000
1000
0001
1000
0001
1000
0001
1000
0001
,
2000
0000
3000
0000
;
#NOTES:
     dance-single:
     Renard:
     Hard:
     9:
     0.582,0.617,0.082,0.009,0.848:
0000
0000
0000
0000
,
0000
0000
0000
0000
,
0000
0000
0000
0000
,
0000
0000
0000
0000
,
0000
0000
0000
0000
,
0000
0000
0000
0000
,
0000
0000
0000
0000
,
0000
0000
0000
0000
,
0000
0000
0000
0000
,
1001
0000
0000
0001
0000
0000
0001
0000
0000
0000
1000
0000
0100
0000
0010
0000
,
0001
0000
0000
0001
0000
0000
0001
0000
0000
0000
0010
0000
0100
0000
1000
0000
,
0100
0000
0000
0100
0000
0000
1000
0000
0010
0000
0000
0010
0000
0000
0100
0000
,
0001
0000
0100
0000
0010
0000
1000
0000
0100
0010
0001
0010
0100
1000
0001
0000
,
0010
0001
0010
0001
0010
0000
0000
0000
0011
0000
0000
0000
0001
0010
0100
0000
,
1000
0000
1000
0010
0000
0000
0100
0000
0001
0100
0010
0000
1000
0000
0100
0000
,
0010
0000
0010
0001
0000
0000
0010
0000
0100
1000
0100
0000
1000
0010
1000
0000
,
0010
0000
0010
0100
0000
0100
0001
0000
0100
0000
0010
0000
1000
0000
0100
0000
,
0010
0000
0010
0001
0000
0001
0010
0000
0100
1000
0100
0000
1000
0001
1000
0000
,
0001
0000
0001
0100
0000
0100
0010
0000
1000
0010
1000
0000
0100
0000
0010
0000
,
0001
0000
0001
0010
0000
0010
0100
0000
1000
0000
0001
0000
0100
0000
0010
0000
,
1000
0000
0000
0010
0000
0000
0100
0000
0001
0000
0010
0000
0100
0000
1000
0000
,
0001
0000
0000
0100
0000
0000
0010
0000
1000
0100
0010
0001
0010
0100
1000
0001
,
0010
0000
0000
0000
0000
0001
0010
0000
0010
0001
0000
0000
,
0010
0000
0010
0001
0000
0001
0010
0000
0010
0001
0000
0001
,
1000
0000
1000
0100
0000
0100
1000
0000
1000
0100
0000
0100
,
1000
0000
1000
0010
0000
0010
1000
0000
1000
0010
0000
0010
,
0100
0000
0100
0001
0000
0001
0100
0000
0100
0001
0000
0001
,
1000
0000
1000
0100
0000
0100
0010
0000
0010
0001
0000
0001
,
1000
0000
1000
0010
0000
0010
0100
0000
0100
0001
0000
0001
,
1000
0000
1000
0100
0000
0100
0010
0000
0010
0100
0000
0100
,
1000
0000
1000
0010
0000
0010
0100
0000
0100
0010
0000
0010
,
0100
0000
0100
0001
0000
0001
0010
0000
0010
0001
0000
0001
,
0100
0000
0100
0010
0000
0010
1000
0000
1000
0100
0000
0100
,
0010
0000
0010
0001
0000
0001
0010
0000
0010
0100
0000
0100
,
1000
0000
1000
0100
0000
0100
1000
0000
1000
0010
0000
0010
,
0100
0000
0100
0001
0000
0001
0010
0000
0010
0001
0000
0001
,
1000
0000
1000
0100
0000
0100
1000
0000
1000
0010
0000
0010
,
0100
0000
0100
0001
0000
0001
0010
0000
0010
0001
0000
0001
,
1000
0000
1000
0100
0000
0100
0010
0001
0010
0100
1000
0001
,
0010
0000
0010
0001
0000
0001
1000
0100
0010
0001
0000
0001
,
0010
0000
0010
0001
0000
0001
0010
0100
1000
0001
0000
0001
,
0010
0000
0010
0001
0000
0001
1000
0000
1000
0100
0000
0100
,
0010
0001
0010
0100
1000
0001
0010
0100
1000
0001
0010
0100
,
1000
0000
0000
0000
0000
0000
0000
0000
0000
0000
0000
0100
,
1000
0100
1000
0100
0000
0000
0100
0000
1000
0100
1000
0001
,
0010
0000
0010
0001
0000
0001
1000
0010
0100
0001
0000
0001
,
0100
0000
0100
0010
0000
0010
1000
0100
0010
0001
0000
0001
,
1000
0000
1000
0001
0000
0001
0010
0100
1000
0001
0000
0001
,
0100
0000
0100
0010
0000
0010
1000
0100
0010
0001
0000
0001
,
0010
0000
0010
0100
0000
0100
1000
0010
0100
0001
0000
0001
,
0100
0000
0100
0010
0000
0010
1000
0100
0010
0001
0000
0001
,
0010
0000
0010
0100
0000
0100
1000
0001
0010
0100
0000
0100
,
0010
0000
0010
0001
0000
0001
1000
0100
1000
0100
1000
0100
,
1000
0000
0000
1100
0000
0000
0100
0000
1000
0100
1000
0000
0100
0000
0010
0000
,
0001
0000
0000
0011
0000
0000
0001
0000
0010
0000
0100
0000
1000
0000
0001
0000
,
0100
0000
0000
0101
0000
0001
0100
0000
0010
0000
1000
0000
0100
0000
0010
0000
,
0001
0000
0000
0011
0000
0001
0010
0000
0100
0000
1000
0000
0001
0000
0100
0000
,
0110
0000
0000
0110
0000
0000
0010
0000
1000
0010
1000
0000
0100
0000
0010
0000
,
0001
0000
0000
0011
0000
0000
0010
0000
0100
0000
1000
0000
0001
0000
0100
0000
,
0010
0000
0000
1000
0000
1000
0010
0000
0100
0000
0001
0000
0100
0000
0010
0000
,
1000
0000
0000
0100
0000
0000
0010
0000
0001
0010
0100
1000
0100
0010
0001
0010
,
0200
0000
0300
0000
;
#NOTES:
     dance-single:
     Renard:
     Easy:
     6:
     0.361,0.417,0.009,0.000,0.228:
0000
0000
0000
0000
,
0000
0000
0000
0000
,
0000
0000
0000
0000
,
0000
0000
0000
0000
,
0000
0000
0000
0000
,
0000
0000
0000
0000
,
0000
0000
0000
0000
,
0000
0000
0000
0000
,
0000
0000
0000
0000
,
1001
0000
0000
0000
0000
0000
0001
1000
,
0100
0000
0000
0000
0000
0000
1000
0001
,
0100
0000
0001
0000
,
1000
0000
0100
0000
1000
0001
1000
0001
,
0100
0000
0000
0000
,
0001
0000
0100
0000
0010
1000
0010
1000
,
0100
0000
0010
0000
0001
0100
0001
0100
,
0010
0000
1000
0000
0100
1000
0100
1000
,
0010
0000
0100
0000
0001
0010
0001
0010
,
0100
0000
1000
0000
0010
0100
0010
0100
,
0010
0000
1000
0000
0100
0010
0100
0010
,
0001
1000
0010
0100
,
0001
1000
0100
0010
0001
0010
0100
1000
,
0001
0000
0000
0000
,
1000
0000
0000
1000
0000
0000
0001
0000
0001
1000
0000
0000
,
0001
0000
0000
0001
0000
0000
1000
0000
1000
0001
0000
0000
,
0100
0000
0000
0100
0000
0000
0010
0000
0010
0100
0000
0000
,
0010
0000
0000
0100
0000
0000
0010
0000
0010
1000
0000
0000
,
0001
0000
0000
0100
0000
0000
0001
0000
0001
1000
0000
0000
,
0100
0000
0000
1000
0000
0000
0001
0000
0001
0010
0000
0000
,
0001
0000
0000
1000
0000
0000
0010
0000
0010
1000
0000
0000
,
0001
0100
0010
0000
,
1000
0000
1000
0010
0000
0010
1000
0000
1000
0010
0000
0000
,
0100
0000
0100
0001
0000
0001
0100
0000
0100
0001
0000
0000
,
0010
0000
0010
0001
0000
0001
0010
0000
0010
0001
0000
0000
,
1000
0000
1000
0100
0000
0100
1000
0000
1000
0100
0000
0000
,
1000
0000
1000
0010
0000
0010
1000
0000
0000
0001
0000
0000
,
0100
0000
0100
0001
0000
0001
0100
0000
0000
0010
0000
0000
,
1000
0000
1000
0001
0000
0001
1000
0000
0000
0001
0000
0000
,
0010
0000
0010
0100
0000
0100
0010
0000
0010
0100
0000
0000
,
1000
0000
0000
1000
0000
0000
0001
0000
0000
0100
0000
0001
,
1000
0000
0000
0100
0000
0000
0010
0000
0000
0001
0000
1000
,
0010
0000
0000
1000
0000
0001
0100
0000
0000
0001
0000
1000
,
0100
0000
0010
0001
0000
1000
0010
0000
0100
0001
0000
1000
,
0001
0000
0000
0000
,
1000
0001
1000
0000
,
0001
0000
0001
1000
0000
0000
0010
0000
0010
0100
0000
0100
,
0010
0000
0000
1000
0000
0000
0100
0000
0100
0010
0000
0000
,
0001
0000
0000
1000
0000
0000
0010
0000
0010
0100
0000
0100
,
0001
0000
0000
0100
0000
0000
0010
0000
0010
1000
0000
1000
,
0100
0000
0000
0010
0000
0000
0001
0000
0001
1000
0000
1000
,
0100
0000
0000
0010
0000
0000
0001
0000
0001
1000
0000
1000
,
0010
0000
0000
0100
0000
0000
0001
0000
0001
0100
0000
0100
,
0010
1000
0100
0000
,
0010
0000
0001
0000
0010
0100
1000
0000
,
0100
0000
0010
0000
0001
0010
0100
0010
,
0001
0000
1000
0000
0100
0010
0100
1000
,
0001
0000
0100
0000
0010
1000
0001
0100
,
0010
0000
1000
0000
0001
0100
0001
1000
,
0100
0000
1000
0000
0001
0100
0010
1000
,
0001
1000
0100
0010
,
0001
1000
0001
1000
0010
1000
0100
1000
,
0001
0000
0000
0000
;
#NOTES:
     dance-single:
     Renard:
     Beginner:
     3:
     0.307,0.361,0.401,0.155,0.000:
0000
0000
0000
0000
,
0000
0000
0000
0000
,
0000
0000
0000
0000
,
0000
0000
0000
0000
,
0000
0000
0000
0000
,
0000
0000
0000
0000
,
0000
0000
0000
0000
,
0000
0000
0000
0000
,
0000
0000
0000
0000
,
2002
0000
0000
3000
,
2000
0000
0000
0003
,
0002
0000
0000
3000
,
2003
3002
2003
0002
,
3003
0000
0000
1001
,
0100
0100
0010
1100
,
0010
0010
0001
0101
,
0010
0010
1000
1100
,
0010
0010
0001
0101
,
0100
0100
0010
1001
,
0010
0010
0100
1001
,
1000
1000
1000
1000
,
0001
0001
1000
0001
,
0200
0000
0000
0000
,
0310
0110
0100
0110
,
0010
0110
0100
0110
,
1000
1001
0001
1001
,
1000
0001
1000
1001
,
1000
0010
0100
0110
,
0100
0001
1000
1001
,
1000
0100
0010
0110
,
0010
0001
0100
0101
,
0100
0010
1000
1010
,
1000
0100
0010
0110
,
0010
0001
0100
0101
,
0100
0010
1000
1010
,
1000
0100
0010
0110
,
0010
0001
0100
0101
,
0001
1000
0100
1100
,
1000
0001
0100
0101
,
1002
0000
0000
0000
,
2003
0000
0000
0000
,
3002
0000
2003
0000
,
3002
2003
3002
2003
,
3001
0000
0000
0000
,
1000
0101
1010
0000
,
1000
0101
0000
0101
,
0010
1100
0000
1100
,
0010
0101
0000
0101
,
0010
1100
0000
1100
,
0010
0101
0000
0101
,
0010
1100
0000
1100
,
0010
0010
1000
1000
,
0001
0100
0010
0000
,
1000
1000
0001
0001
,
0100
0100
0010
1001
,
0100
0100
0010
0010
,
1000
1000
0001
0100
,
0010
0010
0100
0001
,
1000
1000
0001
0100
,
0010
0010
0010
0010
,
0100
0010
0100
0010
,
1001
0000
0000
0000
;
