#TITLE:Venus Return;
#SUBTITLE:;
#ARTIST:Sonitus Vir feat. N. Sato;
#TITLETRANSLIT:;
#SUBTITLETRANSLIT:;
#ARTISTTRANSLIT:;
#CRChallenge:;
#BANNER:;
#BACKGROUND:;
#LYRICSPATH:;
#CDTITLE:;
#MUSIC:venus.ogg;
#OFFSET:0.000;
#SAMPLESTART:44.384;
#SAMPLELENGTH:12.000;
#SELECTABLE:YES;
#BPMS:0.000=108.000,112.000=216.000,172.000=108.000;
#STOPS:;
#BGCHANGES:;
#NOTES:
     dance-single:
     Renard:
     Hard:
     12:
     0.776,0.866,0.610,0.010,1.000:
0000
0000
0000
0000
,
0000
0000
0000
0000
,
0000
0000
0000
0000
,
0000
0000
0000
0000
,
0001
0000
0000
1000
0100
0000
1000
0000
0001
0000
0000
1000
0100
0000
1000
0000
,
0001
0000
0000
1000
0100
0000
1000
0000
0001
0000
0000
1000
0100
0000
1000
0000
,
1000
0000
0000
0001
0100
0000
0001
0000
1000
0000
0000
0001
0100
0000
0001
0000
,
1000
0000
0000
0001
0100
0000
0001
0000
1000
0000
0000
0001
0100
0000
0001
0000
,
1000
0100
0010
0000
0010
0100
1000
0001
0000
0010
0000
0010
0000
0001
1000
0000
,
0001
0010
0100
0000
0100
0010
0001
1000
0000
0100
0000
0100
0000
0010
0100
0000
,
1000
0010
0100
0000
0100
0010
1000
0010
0000
0100
0000
0001
0000
0001
0100
0000
,
0001
0010
0100
0010
0000
0010
0000
0001
1000
0000
1000
0000
0001
0100
0010
0000
,
1000
0000
0000
0000
0000
0000
0000
0000
0001
0000
0000
0000
0000
0000
0100
0001
0100
0000
0000
0000
0001
0000
1000
0000
0000
0000
0000
0000
0000
0000
0000
0000
,
0000
0000
0001
0000
1000
0100
0010
0001
0000
0010
0000
0001
1000
0000
1010
0000
,
0000
0000
0000
0000
1001
0000
0000
0000
0100
0000
0000
0000
0000
0000
0001
1000
0001
0000
0000
0000
1000
0000
0100
0000
0000
0000
0000
0000
0010
0000
0000
0000
,
0001
0000
1000
0000
0100
1000
0001
0100
0000
0000
0110
0110
0000
0000
0000
0000
,
0010
0000
0000
0000
0000
0000
0000
0000
0000
1000
0000
0000
0000
0000
0001
0100
0001
0000
0000
0000
0100
0000
0010
0000
0000
0000
0000
0000
1000
0000
0000
0000
,
0100
0000
0010
0000
0001
1000
0001
1000
0000
0010
0000
0100
0010
0000
0110
0000
,
0000
0000
0000
0000
0101
0000
0000
0000
1001
0000
0000
0000
0000
0000
0001
1000
0100
0000
0000
0000
1000
0000
0001
0000
0000
0000
0000
0000
0100
0000
0000
0000
,
0010
0000
1000
0000
0100
0010
0001
1000
0000
0000
1001
1001
0000
0000
0010
0100
,
0001
0000
1000
0000
0001
0010
0001
0000
0000
0000
1100
0000
0000
0000
0011
0000
0000
0000
0001
0000
0000
0000
1000
0010
1000
0000
0000
0000
0001
0000
0100
0000
,
0010
0000
0000
1000
0000
0000
0001
0000
0100
0000
0001
0000
0100
0000
0000
0010
0000
0000
1000
0000
0010
0000
1000
0000
0010
0000
0000
0100
0000
0000
0000
0000
0000
1001
0000
0000
0100
0000
0000
1010
0000
0000
0000
0000
0000
1001
0000
0000
,
0000
0001
0001
0100
0100
0010
0010
1000
0000
1001
0000
0101
0101
0000
0010
1000
,
1010
0000
0100
0001
0000
1001
0000
0110
0000
1010
0100
0001
0010
0000
1001
0000
,
1000
0000
0001
0000
1000
0100
1000
0000
0000
0000
0011
0000
0000
0000
1100
0000
0000
0000
1000
0000
0000
0000
0001
0100
0001
0000
0000
0000
1000
0000
0010
0000
,
0100
0000
0000
0001
0000
0000
1000
0000
0010
0000
1000
0000
0010
0000
0000
0100
0000
0000
0001
0000
0100
0000
0001
0000
0100
0000
0000
0010
0000
0000
0000
0000
0000
1001
0000
0000
0010
0000
0000
0101
0000
0000
0000
0000
0000
1001
0000
0000
,
0000
1000
1000
0010
0010
0100
0100
0001
0000
1001
0000
1010
1010
0000
0100
0001
,
0101
0000
0010
1000
0000
1001
0000
0110
0000
0000
0000
0000
0000
0000
0000
0000
,
1100
0011
1100
0011
,
0001
0010
0100
1000
0000
1000
0001
0100
,
0010
0000
0000
1000
0010
0100
0001
0010
0100
1000
0100
0010
,
0001
0000
0100
0000
0010
0000
1000
0000
0000
1000
0000
0000
0001
0000
0000
0001
0000
0000
0001
0000
0000
0001
0000
0000
,
0000
0000
1000
0100
0010
0001
0000
0000
,
1000
0000
0100
0000
0010
0000
0001
0000
0010
0000
0100
0000
1000
0000
0010
0000
0100
0000
0001
0000
0000
1000
0000
0000
,
0001
0000
0100
0010
0000
1010
0000
0101
,
0000
0001
0010
0100
1000
0100
0010
0000
,
0001
0010
0001
0010
0001
0010
0001
0010
0001
1000
0001
1000
0001
1000
0001
1000
,
0001
0100
0001
0100
0001
0100
0001
0100
0001
1000
0001
1000
0001
1000
0001
1000
,
0010
0000
0010
0000
0010
0010
0010
0010
,
0010
1000
0010
1000
0010
1000
0010
1000
0001
1000
0001
1000
0001
1000
0001
1000
,
0001
0010
0100
0010
0001
0010
0100
0010
0001
0010
0100
0010
0001
0000
0000
0000
,
1000
0100
0010
0100
1000
0100
0010
0100
1000
0100
0010
0100
1000
0000
0000
0000
,
0010
0000
0010
0000
0010
0010
0010
0020
,
0000
0000
0000
0000
0000
0000
0000
0000
0000
0000
0000
0000
0000
0000
0000
0000
1030
0000
0001
0000
1000
0100
1000
0000
0000
0000
0011
0000
0000
0000
1100
0000
,
0000
0000
0000
0000
0000
0000
0000
0000
0000
0000
0000
0000
1000
0000
0000
0000
0000
0000
0000
0000
0000
0000
0000
0000
0000
0000
0000
0000
0000
0000
0000
0000
0000
0000
0000
0000
0001
0000
0000
0000
0000
0000
0100
0000
0000
0000
0000
0000
0001
0000
0000
0000
0000
0000
0000
0000
0000
0000
0000
0000
0000
0000
0000
0000
0000
0000
0000
0000
0000
0000
0000
0000
1000
0000
0000
0000
0000
0000
0000
0000
0000
0000
0000
0000
0010
0000
0000
0000
0000
0000
0000
0000
0000
0000
0000
0000
0100
0000
0000
0000
0000
0000
0000
0000
0000
0000
0000
0000
0001
0000
0000
0000
0000
0000
0000
0000
0000
0000
0000
0000
1000
0000
0000
0000
0000
0000
0000
0000
0010
0000
0000
0000
0000
0000
0000
0000
1000
0000
0000
0000
0000
0000
0000
0000
0010
0000
0000
0000
0000
0000
0000
0000
0000
0000
0000
0000
0100
0000
0000
0000
0000
0000
0000
0000
0000
0000
0000
0000
0001
0000
0000
0000
0000
0000
0000
0000
0100
0000
0000
0000
0000
0000
0000
0000
0001
0000
0000
0000
0000
0000
0000
0000
,
0100
0010
0000
1001
0010
0101
0000
1001
0000
1000
1000
0010
0010
0100
0100
0001
,
0000
1001
0000
1010
1010
0000
0100
0001
0101
0000
0010
1000
0000
1001
0000
0110
,
0000
0000
0000
0000
0000
0000
0001
1000
0001
0000
0100
0000
0010
0000
1000
0000
0001
0000
1000
0000
0001
0010
0001
0000
0000
0000
1100
0000
0000
0000
0011
0000
,
0000
0000
0000
0000
0000
0000
0000
0000
0000
0000
0000
0000
0001
0000
0000
0000
0000
0000
0000
0000
0000
0000
0000
0000
0000
0000
0000
0000
0000
0000
0000
0000
0000
0000
0000
0000
1000
0000
0000
0000
0000
0000
0010
0000
0000
0000
0000
0000
1000
0000
0000
0000
0000
0000
0000
0000
0000
0000
0000
0000
0000
0000
0000
0000
0000
0000
0000
0000
0000
0000
0000
0000
0001
0000
0000
0000
0000
0000
0000
0000
0000
0000
0000
0000
0100
0000
0000
0000
0000
0000
0000
0000
0000
0000
0000
0000
0010
0000
0000
0000
0000
0000
0000
0000
0000
0000
0000
0000
1000
0000
0000
0000
0000
0000
0000
0000
0000
0000
0000
0000
0001
0000
0000
0000
0000
0000
0000
0000
0100
0000
0000
0000
0000
0000
0000
0000
0001
0000
0000
0000
0000
0000
0000
0000
0100
0000
0000
0000
0000
0000
0000
0000
0000
0000
0000
0000
0010
0000
0000
0000
0000
0000
0000
0000
0000
0000
0000
0000
1000
0000
0000
0000
0000
0000
0000
0000
0010
0000
0000
0000
0000
0000
0000
0000
1000
0000
0000
0000
0000
0000
0000
0000
,
0010
0100
0000
1001
0100
1010
0000
1001
0000
0001
0001
0100
0100
0010
0010
1000
,
0000
1001
0000
0101
0101
0000
0010
1000
1010
0000
0100
0001
0000
1001
0000
0110
;
#NOTES:
     dance-single:
     Renard:
     Medium:
     9:
     0.569,0.586,0.220,0.010,0.620:
0000
0000
0000
0000
,
0000
0000
0000
0000
,
0000
0000
0000
0000
,
0000
0000
0000
0000
,
0001
0000
0000
0001
1000
0000
1000
0000
0001
0000
0000
0001
1000
0000
1000
0000
,
0001
0000
0000
0001
1000
0000
1000
0000
0001
1000
0001
1000
0001
0000
1000
0000
,
1000
0000
0000
1000
0001
0000
0001
0000
1000
0000
0000
1000
0001
0000
0001
0000
,
1000
0000
0000
1000
0001
0000
0001
0000
1000
0001
1000
0001
1000
0000
0001
0000
,
0100
0000
0010
0000
0100
0010
0100
0010
0000
0100
0000
0100
0010
0000
0100
0000
,
0001
0000
0001
0000
1000
0001
1000
0001
0000
1000
0000
1000
0001
0000
1000
0000
,
0010
0000
0010
0000
0100
0010
0100
0010
0000
0100
0000
0100
0001
0000
1000
0000
,
0100
0000
0100
0010
0000
0010
0000
0001
0000
1000
0100
0000
0010
0000
0001
0000
,
1000
0000
0000
0000
0001
0000
0000
0100
0010
0000
1000
0010
0000
0000
0000
0000
,
0000
0000
1000
0000
0100
0010
0001
0010
0000
0001
0000
1000
0001
0000
0100
0000
,
0000
0000
0010
0000
1000
0000
0000
0001
0100
0000
0010
1000
0000
0000
0100
0000
,
0010
0000
0001
0000
0010
0100
1000
0001
0000
0000
0010
0001
0000
0000
0000
0000
,
1001
0000
0000
0000
0110
0000
0000
0010
1000
0000
0001
0100
0000
0000
0000
0000
,
0000
0000
0101
0000
0001
0100
0010
1000
0000
0010
0000
1000
0100
0000
1100
0000
,
0000
0000
1000
0000
0100
0000
0000
0010
0001
0000
1000
0001
0000
0000
0000
0000
,
0000
0000
0100
0000
0010
1000
0001
0100
0000
0000
0010
1000
0000
0000
0000
0000
,
0000
0000
0001
0100
0000
0010
0000
1000
0000
0100
0000
0010
0001
0000
0010
0100
,
0000
0000
1000
0100
0010
0000
0001
0010
0100
0000
1000
0010
0100
0001
0000
0100
,
0000
0000
0010
1000
0010
1000
0010
1000
0000
1001
0000
0001
1000
0000
0000
0000
,
1100
0000
1000
0100
0000
0110
0000
0011
0000
0010
0001
0010
0100
0000
1000
0000
,
0000
0000
1000
0100
0010
0000
0000
0010
0000
0001
0000
1000
0010
0000
0100
0001
,
0000
0000
1000
0010
0100
0001
0100
0010
1000
0001
0000
0100
0010
1000
0000
1001
,
0000
0000
1000
0100
0010
0001
0010
0100
0000
1000
0000
1000
0100
0000
0010
0000
,
0001
0000
0001
1000
0000
0110
0000
1001
0000
0000
0000
0000
0000
0000
0000
0000
,
1000
0000
0001
0010
0100
1000
0100
0000
,
1000
0000
0001
0010
0100
1000
0100
0000
,
1000
0000
0001
0010
0100
1000
0100
0000
,
1000
0000
0001
0010
0100
1000
0100
0000
,
0001
0000
1000
0010
0100
0001
0100
0000
,
0001
0000
1000
0010
0100
0001
0100
0000
,
0001
0000
1000
0010
0100
0001
0100
0000
,
0001
0000
1000
0010
0100
0001
0100
0000
,
0001
1000
0001
1000
0001
1000
0001
1000
,
0010
0100
0010
0100
0010
0100
0010
0100
,
0001
0100
0001
0100
0010
1000
0010
1000
,
0100
1000
0100
1000
0001
0010
0001
0010
,
0001
0010
0100
1000
0001
0100
0010
1000
,
0100
0010
0100
1000
0001
0010
0100
1000
,
0001
0000
0001
0000
0001
0001
0001
0002
,
0000
0000
0000
0000
0000
0000
0000
0000
1003
0000
0100
1000
0000
1000
0000
0100
,
0000
1000
0000
0100
1000
0000
0100
0000
0000
0000
0010
0001
0010
0000
0001
0010
,
0001
0000
0000
0000
0010
0001
0000
0010
0000
0000
0001
0100
0001
0100
0001
0100
,
0000
0001
0000
0100
0001
0000
0000
0000
1000
0000
0010
1000
0000
1010
0000
1010
,
0000
0000
0000
0000
0000
0000
0000
0000
1000
0000
0001
0100
0000
0101
0000
0110
,
0000
1010
0000
1000
0010
0000
0100
0001
0000
0000
1001
0000
0100
0000
1001
0000
,
0100
0000
0000
0001
0100
0010
0000
1010
0000
0000
1000
0010
0100
0001
0010
0001
,
0000
0011
0000
0010
0100
0000
0000
0100
1000
0000
0100
1000
0000
1100
0000
1001
;
#NOTES:
     dance-single:
     Renard:
     Easy:
     6:
     0.417,0.459,0.190,0.010,0.035:
0000
0000
0000
0000
,
0000
0000
0000
0000
,
0000
0000
0000
0000
,
0000
0000
0000
0000
,
1000
0000
1000
0001
0100
0000
0100
0001
,
1000
0000
1000
0001
0100
0100
0010
0010
,
1000
0000
1000
0001
0100
0000
0100
0001
,
1000
0100
0010
0001
1000
0000
1000
0000
,
0001
0100
0001
0100
0010
0010
0100
0100
,
0001
0100
0001
0100
0010
0010
0100
0100
,
0001
0100
0001
0100
0010
0010
0100
0100
,
0001
0100
0001
0100
0010
1000
0001
0000
,
1000
0000
0100
0000
0010
0010
0010
0000
,
0001
0100
0010
1000
0001
0001
1000
1000
,
0010
0000
1000
0000
0001
0100
0010
0000
,
1000
1000
0001
0001
0100
0010
0010
0000
,
1000
0000
0001
0000
0100
0010
1000
0000
,
0001
0100
0010
0010
1000
1000
0001
0001
,
0000
0100
0001
0000
1000
0100
0010
0000
,
0000
0001
1000
0010
0100
0001
0001
0000
,
1000
0000
0001
0000
0100
1010
1000
1000
,
0000
0001
0101
0000
0110
0000
0010
1010
,
1001
0000
0101
0000
0010
0100
0100
0000
,
0001
0001
1000
1000
0100
0010
0001
1000
,
0000
0010
0010
0100
0100
0001
0001
1000
,
1000
0000
0001
0100
0010
1000
1010
1001
,
0101
0000
0101
0000
1000
0110
1001
0000
,
1000
0000
0101
0000
1000
0001
0000
1000
0000
0000
0000
0000
0000
0000
0000
0000
,
1000
1000
0001
0001
,
1000
1000
0001
0001
,
0100
0001
0100
0001
0100
0001
0100
0001
,
0100
0001
0100
0001
0100
0000
0001
0000
,
1000
1000
0001
0001
,
1000
1000
0001
0001
,
1000
0100
1000
0100
1000
0100
1000
0100
,
1000
0100
1000
0100
1000
0000
0100
0000
,
1000
0001
1000
0001
,
0100
0010
0100
0010
,
1000
0001
1000
0001
,
1000
0100
1000
0100
,
1000
0001
1000
0001
1000
0001
1000
0001
,
1000
0001
1000
0001
1000
0001
1000
0001
,
2000
0000
0000
0000
,
0000
0000
3001
0000
,
0100
0100
0100
0000
0010
0000
0010
0000
,
1000
1000
1000
1000
0001
0000
0001
0000
,
0100
0000
0000
0000
0100
0000
0000
0000
0010
0000
1000
0100
0000
0010
0000
0001
,
0000
0000
1001
0110
,
0010
1000
0110
0000
1000
0110
1000
0110
,
1000
0000
0010
1000
0001
0000
0100
0001
,
1000
0000
0100
0000
0010
0000
0000
0000
0001
0000
1010
0000
0100
0001
0000
1000
;
#NOTES:
     dance-single:
     Renard:
     Beginner:
     3:
     0.260,0.357,0.140,0.100,0.000:
0000
0000
0000
0000
,
0000
0000
0000
0000
,
0000
0000
0000
0000
,
0000
0000
0000
0000
,
0001
0001
1000
1000
,
0001
1000
0001
1001
,
0010
0010
0100
0100
,
0010
0100
0010
0110
,
0020
1030
0020
1030
,
0002
0103
0002
0103
,
0200
0301
0200
0301
,
2000
3010
2000
3010
,
1000
1000
0010
0010
,
0000
0100
0100
0100
,
0001
0001
0010
0010
,
0000
0100
1000
0001
,
1000
1000
0001
0001
,
0000
0100
0010
0100
,
0000
0010
1000
1000
,
0000
0010
0100
0000
,
0010
0100
0100
0100
,
1001
0010
1001
0100
,
1001
1000
0001
0100
,
0101
0101
0101
0101
,
0001
1000
0010
0100
,
0010
1000
0001
0001
,
1100
0011
1100
0011
,
2002
0000
3003
0000
,
1000
0000
1000
0000
,
0001
0000
0001
0000
,
0100
0000
0100
0000
,
0010
0000
0010
0000
,
1000
1000
0010
0010
,
0100
0100
0001
0001
,
1000
0001
1000
0001
,
0100
0001
1000
0100
,
0001
0001
0001
0100
,
1000
1000
1000
0010
,
0001
0001
0001
0010
,
1000
1000
1000
0000
,
1000
0000
0100
0000
,
0001
0000
0010
0000
,
1000
0100
0001
0010
,
1000
0000
0001
0000
,
0001
0000
0000
1000
,
1000
0000
0001
0000
,
0001
0000
0000
0100
,
0100
0000
0010
0010
,
0100
0100
0001
1000
,
0010
0100
0001
1000
,
0001
0100
0010
1000
,
0001
0000
0000
0000
;
