#TITLE:Valley of the Mind;
#SUBTITLE:;
#ARTIST:SamplingMasters MEGA;
#TITLETRANSLIT:;
#SUBTITLETRANSLIT:;
#ARTISTTRANSLIT:;
#CRChallenge:;
#BANNER:mind.png;
#BACKGROUND:mind-bg.png;
#LYRICSPATH:;
#CDTITLE:!cdtitle.png;
#MUSIC:mind.ogg;
#OFFSET:0.000;
#SAMPLESTART:8.627;
#SAMPLELENGTH:12.000;
#SELECTABLE:YES;
#BPMS:0.000=220.000;
#STOPS:;
#BGCHANGES:;
#NOTES:
     dance-single:
     Renard:
     Medium:
     9:
     0.701,0.758,0.540,0.061,0.015:
0000
0000
0000
0000
,
0000
0000
0000
0000
,
0000
0000
0000
0000
,
0000
0000
0000
0000
,
1000
0000
1000
0100
0000
0000
1001
0000
,
0001
0000
0001
0100
0000
0000
1001
0000
,
1000
0000
1000
0100
0000
0000
1001
0000
,
0001
0100
0010
1000
0001
0000
1001
0000
,
0101
0110
1100
0110
,
0101
0000
0001
0100
0010
1000
0100
0000
,
1100
0110
0101
0110
,
1100
0000
1000
0100
0010
0001
1000
0000
,
0101
0011
1001
0101
,
0011
0000
0010
0001
0100
0010
1000
0000
,
1100
1001
1010
1100
,
1001
0000
1000
0001
0000
1000
0100
0000
,
1000
0000
0001
0010
0100
1000
0001
0100
,
0010
0000
1000
0010
0000
0100
0001
0000
,
0100
0000
0010
1000
0100
0010
0001
1000
,
0001
0000
0100
0001
0000
0010
0001
0000
,
1000
0100
0010
0001
0100
0010
1000
0001
,
0010
0000
0001
1000
0000
0010
0100
0000
,
0001
0100
0010
1000
0100
0010
0001
0000
,
1000
0000
0100
1000
0000
0010
1000
0000
,
0001
0000
0100
0010
1000
0000
0100
0000
,
1001
0000
1000
0000
0010
0100
0001
0010
,
0100
0000
1000
0001
0100
0000
0010
0000
,
1001
0000
1000
0010
0100
0001
0010
0100
,
1000
0000
0001
0100
0010
0000
1000
0000
,
1001
0000
1000
0010
0100
0001
0010
0100
,
1000
0000
0001
0100
0010
0000
1000
0000
,
1001
0000
0000
0000
0000
0000
0000
0000
0000
0000
0000
0000
0000
0000
0001
1000
,
0001
0100
1000
0100
0001
0000
0100
0000
,
0110
0000
0010
1000
0100
0001
0100
0000
,
1000
0010
0001
0010
1000
0000
0010
0000
,
0110
0000
0010
1000
0100
0001
0100
0010
,
0001
0010
1000
0010
0100
0000
0010
0000
,
0110
0000
0010
0100
1000
0010
0001
0010
,
0100
1000
0100
0001
0100
0000
0010
0000
,
0110
0000
0000
0000
,
0010
0000
0010
1000
0000
1000
0010
0000
,
0010
0100
0000
0100
0001
0000
1000
0100
,
0010
0000
0010
0001
0000
0001
1000
0000
,
1000
0010
0000
0010
0100
0000
0001
0100
,
0010
0000
0010
1000
0000
1000
0100
0000
,
0100
0010
0000
0010
0001
0000
1000
0100
,
0010
0000
0010
0001
0000
0001
1000
0000
,
1000
0000
0000
0010
0000
0000
0000
0000
0000
0100
0000
0000
0001
0000
0000
0000
0001
0000
0000
0000
0001
0000
0000
0000
,
0100
0000
0010
1000
0000
0100
0010
0000
,
0001
0010
0000
0100
1000
0000
0001
0010
,
0100
0000
1000
0010
0000
0100
0001
0000
,
0100
0010
0000
0100
1000
0000
0100
0010
,
1000
0000
0100
0010
0000
0001
0010
0000
,
1000
0010
0000
0100
0010
0000
0001
0010
,
0100
0000
1000
0001
0000
1000
0010
0000
,
1001
0000
0000
0110
0000
0000
1001
0000
,
0001
0010
0000
0100
1000
0000
0001
0000
,
0100
0000
0010
0000
1000
0100
0010
0001
,
1000
0010
0000
0100
0010
0000
1000
0000
,
0100
0000
0010
0000
0001
1000
0010
0100
,
0001
0010
0000
0100
1000
0000
0001
0000
,
0100
0000
0010
0000
1000
0100
0010
0001
,
0010
0100
0000
1000
0001
0000
0100
0000
,
0020
0000
0000
0000
2000
0000
0000
3030
,
0010
1000
0000
0100
0010
0000
0001
0000
,
0010
0000
0100
0000
1000
0001
0100
0001
,
0100
0010
0000
1000
0100
0000
0010
0000
,
0001
0000
0100
0000
0000
0010
1000
0010
,
1000
0100
0000
0010
0001
0000
0010
0000
,
0100
0000
1000
0000
0000
0001
0100
0001
,
0100
0010
0000
1000
0100
0000
0010
0000
,
1002
0100
2003
0100
,
3001
0110
1000
0110
,
0001
1100
0010
1001
,
0100
1010
0100
0011
,
0100
1001
0110
1000
,
0001
0110
1000
0101
,
1000
0110
1000
1001
,
0010
0110
1000
0101
,
1001
0000
0000
0110
0000
0000
1001
0000
,
1000
0000
0000
1000
0001
0000
0000
0100
,
0010
0000
0000
1000
0100
0010
0000
0001
,
1000
0000
0000
0010
0100
0000
0001
0000
,
1000
1000
0001
0001
,
0100
0000
0000
0010
1000
0000
0000
0010
,
0100
0000
0000
0001
0100
0010
1000
0100
,
0010
0000
0000
0001
0010
0000
0100
0000
,
2000
0002
3003
0000
;
#NOTES:
     dance-single:
     Renard:
     Easy:
     7:
     0.461,0.624,0.479,0.000,0.000:
0000
0000
0000
0000
,
0000
0000
0000
0000
,
0000
0000
0000
0000
,
0000
0000
0000
0000
,
0000
0000
0000
0000
,
0000
0000
0000
0000
,
0000
0000
0000
0000
,
0000
0000
0000
0000
,
0011
1100
0011
1100
,
0011
0000
0000
0001
0000
0000
1000
0000
,
1010
0101
1010
0101
,
1010
0000
0000
1000
0000
0000
0001
0000
,
1100
0011
1100
0011
,
0001
0000
0000
1000
0000
0000
0001
0000
,
0101
1010
0101
1010
,
1000
0000
0000
0001
0000
0000
1000
0000
,
0001
0000
0100
0001
0100
0000
0001
0000
,
0100
0000
0000
0100
0000
0000
0100
0000
,
0010
0000
1000
0000
0010
1000
0010
0000
,
1000
0000
0000
1000
0000
0000
1000
0000
,
0100
0000
1000
0000
0100
1000
0100
0000
,
1000
0000
0000
1000
0000
0000
0100
0000
,
0010
0000
0001
0000
0010
0001
0010
0000
,
0001
0000
0000
0000
,
1000
0000
0000
0001
0100
0000
0010
0000
,
0110
0000
0010
1000
,
0100
0000
0000
0100
0010
0000
0001
0000
,
0011
0000
0000
0000
0001
0010
0000
0000
,
0100
0000
0000
0100
1000
0000
0100
0000
,
1100
0000
1000
0001
,
0100
0000
0000
0100
0010
0000
0010
0000
,
1010
0000
0000
0000
,
1000
0000
0000
0001
0100
0000
0010
0000
,
0110
0000
0010
1000
,
0100
0000
0000
0010
0001
0000
0010
0000
,
0011
0000
0010
0100
,
1000
0000
0000
0001
0100
0000
0010
0000
,
0110
0000
0000
0000
0010
0000
1000
0001
,
1000
0000
0000
0001
1000
0000
0100
0000
,
1001
0000
0000
0000
,
1000
0000
1000
0001
0000
0001
1000
0000
,
1000
0001
0000
0001
1000
0000
0000
0000
,
0010
0100
0001
1000
,
0100
0010
0001
0000
,
0100
0000
0100
0010
0000
0010
1000
0000
,
1000
0001
0000
0001
0100
0000
0000
0000
,
0010
0100
0001
1000
,
0001
0000
1001
0000
,
1000
0000
1000
0010
0000
0010
0100
0000
,
0001
1000
0100
0000
,
0010
0000
0010
0001
0000
0001
1000
0000
,
0010
0100
0001
0000
,
1000
0000
0000
0100
0000
0000
0010
0000
,
0000
0001
0000
0000
1000
0000
0010
0000
,
0100
0000
0000
0001
0000
0000
1000
0000
,
0100
0000
0000
0110
0000
0000
0011
0000
,
0000
0001
0000
0010
0100
0000
1000
0000
,
0001
1000
0000
0000
,
0000
0001
0000
0100
0010
0000
1000
0000
,
0010
0100
0000
0000
,
0000
0001
0000
1000
0100
0000
0010
0000
,
0001
0010
0000
0000
,
0000
0001
0000
1000
0010
0000
0100
0000
,
0110
0000
1001
0000
,
0000
0001
0000
1000
0100
0000
0010
0000
,
0001
0000
1000
0000
0000
0001
1000
0001
,
0000
1000
0000
0010
1000
0000
0001
0000
,
0100
0000
0010
0000
0000
1000
0000
0001
,
0000
1000
0000
0001
0100
0000
0001
0000
,
1000
0000
0100
0000
0000
1000
0001
1000
,
0000
0001
0000
1000
0010
0000
0100
0000
,
0001
0000
1000
0000
,
0000
1001
0000
0110
,
0000
1001
0000
0110
,
0000
1001
0000
0110
,
0000
1001
1001
0000
,
0000
0110
0000
1001
,
0000
0110
0000
1001
,
0000
0110
0000
1001
,
0110
0000
0000
1001
0000
0000
0000
0000
,
0001
1000
0100
0010
,
0001
0000
0001
0000
,
0001
0000
0000
0000
0001
0000
0100
0010
,
0100
0010
0100
0010
,
1000
0000
0100
0000
,
0010
0000
0001
1000
,
0010
0000
0100
0000
0001
0000
0100
0010
,
1000
0000
0001
0100
0010
0000
0000
0000
;
#NOTES:
     dance-single:
     Renard:
     Beginner:
     4:
     0.362,0.533,0.326,0.071,0.000:
0000
0000
0000
0000
,
0000
0000
0000
0000
,
0000
0000
0000
0000
,
0000
0000
0000
0000
,
0000
0000
0000
0000
,
0000
0000
0000
0000
,
0000
0000
0000
0000
,
0000
0000
0000
0000
,
0001
0010
0100
1000
,
0001
0000
0001
0000
,
1000
0010
0100
0001
,
1000
0000
1000
0000
,
0001
0010
0100
1000
,
0001
0000
0001
0000
,
1000
0010
0100
0001
,
0001
0000
0000
0000
,
0001
0100
0010
1000
,
0001
0000
0001
0000
,
1000
0100
0010
0001
,
1000
0000
1000
0000
,
1000
0010
0100
0001
,
0200
0300
0010
0000
,
1000
0100
0010
0001
,
0020
0030
0001
0000
,
1000
0000
0001
0000
,
0110
0000
0010
0100
,
0001
0000
1000
0000
,
0110
0000
0010
0100
,
0001
0000
1000
0000
,
0110
0000
0010
1000
,
0001
0100
0010
0000
,
0110
0000
0000
0000
,
0010
0100
0001
1000
,
1001
0000
0001
0000
,
1000
0010
0100
0001
,
1001
0000
0001
0000
,
0100
0010
1000
0001
,
1001
0000
1000
0000
,
0100
0010
0001
1000
,
1001
0000
0000
0000
,
1000
0000
0001
0000
,
1000
0000
0001
0000
,
0100
0000
0010
0000
,
0100
0010
0100
0010
,
1000
0000
0010
0000
,
0100
0000
0001
0000
,
1000
0000
0100
0000
,
0010
0000
0002
0000
,
1003
0000
0010
0000
,
1000
0001
1000
0000
,
0001
0000
0100
0000
,
0010
0000
1000
0000
,
0010
0000
0100
0000
,
0001
0000
1000
0100
,
1000
0000
0001
0000
,
0011
0000
0000
1100
,
1001
0000
1000
0010
,
0100
0100
0000
0000
,
0001
1000
0100
0010
,
0001
0001
0000
1000
,
0010
0100
0001
0100
,
0010
0010
0000
1000
,
0010
0100
0001
1000
,
0002
0000
1003
0000
,
1000
0001
0100
0010
,
1000
1000
0000
0010
,
0100
0001
1000
0100
,
0010
0010
0000
0000
,
0001
1000
0010
0100
,
0001
0001
0000
0100
,
0010
1000
0100
0010
,
0002
0000
1003
0000
,
0000
1001
0000
0110
,
0000
1001
0000
0110
,
0000
1001
0000
0110
,
0000
0001
1000
0000
,
0000
0110
0000
1001
,
0000
0110
0000
1001
,
0000
0110
0000
1001
,
1001
0000
0000
0110
,
1002
0000
1000
0000
,
0100
0000
0100
0000
,
1000
0000
1000
0003
,
1001
1001
0110
0110
,
2001
0000
0001
0000
,
0100
0000
0100
0000
,
0001
0000
0001
0000
,
3001
1001
0000
0000
;
