#TITLE:Unbalanced;
#SUBTITLE:;
#ARTIST:Infected Mushroom;
#TITLETRANSLIT:;
#SUBTITLETRANSLIT:;
#ARTISTTRANSLIT:;
#CRChallenge:;
#BANNER:unbalanced.jpg;
#BACKGROUND:unbalanced-bg.jpg;
#LYRICSPATH:;
#CDTITLE:!cdtitle.png;
#MUSIC:unbalanced.ogg;
#OFFSET:0.000;
#SAMPLESTART:68.491;
#SAMPLELENGTH:12.000;
#SELECTABLE:YES;
#BPMS:0.000=140.000;
#STOPS:;
#BGCHANGES:;
#NOTES:
     dance-single:
     Renard:
     Medium:
     9:
     0.509,0.541,0.296,0.042,0.258:
0000
0000
0000
0000
,
0000
0000
0000
0000
,
0000
0000
0000
0000
,
0000
0000
0000
0000
,
1000
0001
0000
0100
0000
0010
0100
0001
,
0000
0010
0000
0100
1000
0010
0100
0001
,
1000
0100
1000
0001
0000
0010
0001
1000
,
0010
0000
0000
0000
0000
0000
0000
0000
0000
0000
0000
0000
0000
0000
0000
0000
0000
0000
0000
0000
0000
0000
0000
0000
0100
0000
0000
0000
0000
0100
0000
0000
0000
0000
0100
0000
0000
0000
0000
0100
0000
0000
0000
0000
0000
0000
0000
0000
,
0101
0000
0110
0000
0010
1000
0100
0000
,
1000
0000
0011
0000
0100
1000
0010
0000
,
0101
0110
1100
0110
,
0001
1000
0100
0010
0000
0001
0010
0000
,
1100
1001
0101
0110
,
0010
1000
0100
0010
0000
0010
0100
0000
,
1100
0000
1001
0000
0001
0100
0010
0000
,
1000
0100
0010
0001
0000
0001
1000
0000
,
0002
0100
0000
0100
0000
0100
0203
0000
,
0000
0000
0000
0000
,
0000
0010
0000
0010
0000
0010
0320
0000
,
0000
0000
0000
0000
,
0000
0000
1000
0000
0000
0000
1000
0000
0000
0000
1000
0000
2000
0030
0000
0000
,
0000
0000
0000
0000
,
0000
0100
0000
0100
0000
0100
3200
0000
,
0000
0000
0000
0000
,
0310
0000
0001
0000
0010
0000
0100
1000
0000
0100
1000
0000
0100
0000
1000
0000
,
0001
0000
0010
0000
0001
0000
1000
0001
0000
0100
0001
0000
0100
0000
0001
0000
,
0010
0000
0100
0000
1000
0000
0001
0100
0000
0001
1000
0000
0100
0000
1000
0000
,
0001
0000
0110
0000
1000
0100
0110
0000
,
1000
0000
0001
0000
0100
0000
0010
1000
0000
0001
1000
0000
0001
0000
1000
0000
,
0100
0000
0010
0000
0001
0000
1000
0001
0000
0100
0001
0000
1000
0000
0100
0000
,
0010
0000
0000
0000
0011
0000
0000
0010
0000
0100
1000
0000
0010
0000
0100
0000
,
0001
0000
1001
0000
1000
0100
0010
0000
,
0001
0000
0000
0000
0010
0000
0000
0100
0000
1000
0100
0000
1000
0000
0001
0000
,
0100
0000
0010
0000
1000
0000
0010
1000
0000
0001
1000
0000
0100
0000
1000
0000
,
0001
0000
0010
0000
0100
0000
1000
0001
0000
0100
0010
0000
1000
0000
0010
0000
,
0100
0001
0010
0100
1000
0001
0100
0010
,
1000
0000
0100
0000
1000
0000
0001
0010
0000
0001
1000
0000
0010
0000
0100
0000
,
0001
0000
0010
0000
0100
0000
1000
0001
0000
0100
0001
0000
1000
0000
0100
0000
,
0010
0000
0001
0000
1000
0000
0010
1000
0000
0001
1000
0000
0100
0000
1000
0000
,
0001
0000
1000
0000
0010
0000
0000
0100
0000
0001
0000
0100
0010
0000
1000
0010
,
1000
0000
0000
0000
0101
0000
0000
0000
0010
0000
0000
0010
0100
0000
1000
0000
,
0010
0000
0000
0000
0101
0000
0000
0000
1000
0000
0000
1000
0010
0000
0100
0000
,
0001
0000
0000
0000
1100
0000
0000
0000
0010
0000
0000
0001
1000
0000
0100
0000
,
1000
0000
0000
0000
1010
0000
0000
0000
0100
0000
0000
0001
0010
0000
0001
0000
,
1000
0000
0000
0000
0101
0000
0000
0000
0100
0000
0000
0010
1000
0000
0100
0000
,
0010
0000
0000
0000
1001
0000
0000
0000
0001
0000
0000
0100
0010
0000
1000
0000
,
0100
0000
0000
0000
0011
0000
0000
0000
0010
0000
0000
0100
1000
0000
0001
0000
,
0100
0000
0110
0000
1000
0010
0100
0001
,
1000
0000
0000
0000
0110
0000
0000
0000
0100
0000
0000
1000
0010
0000
0100
0000
,
0001
0000
0000
0000
0110
0000
0000
0000
0010
0000
0000
1000
0100
0000
0010
0000
,
0001
0000
0000
0000
0110
0000
0000
0000
0100
0000
0000
1000
0010
0000
0100
0000
,
0001
0000
0000
0000
0011
0000
0000
0000
0010
0000
0000
0100
1000
0000
0001
0000
,
0100
0000
0000
0000
0110
0000
0000
0000
1000
0000
0000
0100
0010
0000
0001
0000
,
1000
0000
0000
0000
0110
0000
0000
0000
0001
0000
0000
0010
0100
0000
1000
0000
,
0001
0000
0000
0000
0110
0000
0000
0000
0010
0000
0000
1000
0100
0000
0010
0000
,
0100
0000
1000
0000
0010
0000
0100
0000
0001
0000
0010
0001
1000
0000
0010
0000
,
0101
0000
0000
0001
0100
0000
0000
0100
0010
0000
1000
0100
1000
0000
0001
0000
,
0010
0000
0000
0010
0100
0000
0000
0100
1000
0000
0001
1000
0001
0000
1000
0000
,
0010
0000
0000
0010
0100
0000
0000
0100
0001
0000
1000
0100
1000
0000
0001
0000
,
0010
0000
0000
0010
0001
0000
0000
0001
1000
0000
0001
0000
0100
0000
0010
0000
,
1000
0000
0000
0000
0101
0000
0000
0000
0001
0000
0000
1000
0100
0000
1000
0000
,
0001
0000
0010
0000
0001
0000
1000
0000
0010
0000
0100
0001
0100
0000
0010
0000
,
1000
0000
0100
0000
0010
0000
0001
0000
1000
0000
0100
1000
0001
0000
1000
0000
,
0001
0000
0100
0000
0010
0000
1000
0000
0001
0000
0100
0001
1000
0000
0100
0000
,
0011
0000
0000
0000
;
#NOTES:
     dance-single:
     Renard:
     Easy:
     6:
     0.359,0.406,0.161,0.178,0.000:
0000
0000
0000
0000
,
0000
0000
0000
0000
,
0000
0000
0000
0000
,
0000
0000
0000
0000
,
1000
0001
0000
1000
0000
0001
1000
0001
,
0000
1000
0000
0010
0100
0000
0010
0000
,
0100
0001
0000
0100
0000
0001
1000
0010
,
1000
0000
0020
0000
,
0130
0000
0001
0000
0100
0001
0100
0000
,
0001
0000
1000
0000
0100
1000
0100
0000
,
1000
0001
0011
0011
,
0110
0000
0100
1000
0000
0000
0000
0000
,
1000
0001
0100
0010
,
1000
0010
1000
0001
0000
0000
0000
0000
,
1000
0100
0010
0001
,
1000
0001
0100
0001
0000
0000
1100
0000
,
2000
0000
0000
0002
,
0000
0003
0000
0000
,
3002
0000
0000
2000
,
0000
3000
0000
0000
,
0203
0000
0000
0020
,
0000
0030
0000
0000
,
0320
0000
0000
0200
,
0000
0300
0000
0000
,
0130
0110
0100
0001
,
1000
0000
1100
0000
1000
0001
1000
0001
,
0100
0000
0101
0000
0001
1000
0001
1000
,
0100
1100
1000
0001
,
0010
0000
0011
0000
0001
1000
0001
0000
,
1000
0000
1010
0000
1000
0001
1000
0000
,
0001
0000
0101
0000
0001
1000
0001
0000
,
1000
0100
0010
0001
,
1000
0000
1010
0000
0010
1000
0010
0000
,
1000
0000
1001
0000
1000
0001
1000
0000
,
0001
0000
0101
0000
0001
0100
0001
0000
,
1000
0100
1000
0000
0001
0100
0001
0000
,
1000
0000
1001
0000
0001
0010
0001
0000
,
1000
0000
1001
0000
1000
0010
1000
0000
,
0001
0000
1001
0000
0001
0100
0001
0000
,
1000
0100
1000
0000
0002
0000
0000
0003
,
0100
0001
1000
0000
0100
0000
1000
0001
,
0100
0001
1000
0000
0100
0000
1000
0000
,
0001
0010
0001
0000
1000
0000
0010
0000
,
1000
0000
0001
0000
0100
0001
1000
0000
,
0100
1000
0001
0000
1000
0000
0001
0000
,
0010
0001
0010
0000
0001
0000
1000
0000
,
0010
0000
0100
0000
0001
0000
1000
0100
,
1000
0000
0001
0000
0010
0001
0010
0000
,
0001
0000
1000
0000
0001
0000
0100
0001
,
0100
0000
0001
0000
1000
0000
0100
1000
,
0001
0000
1000
0000
0001
0000
0010
0001
,
0010
0001
1000
0020
,
1030
0000
0020
0000
0130
0000
0001
0010
,
0001
0000
2000
0000
3100
0000
0010
0001
,
0010
0000
0100
0000
1000
0000
0010
0100
,
0001
0100
0010
1000
,
0101
0000
1000
0000
0001
0000
0100
0001
,
1000
0100
1000
0002
,
0013
0000
0200
0000
1300
0000
0010
0100
,
0001
0000
2000
0000
3100
0000
0010
0001
,
1000
0000
0002
0003
0100
0000
0010
1000
,
0010
0000
0100
0000
0001
0000
1000
0100
,
1000
0000
0002
0000
0013
0000
0001
1000
,
0020
0230
0302
1003
,
0101
0000
0000
0000
;
#NOTES:
     dance-single:
     Renard:
     Beginner:
     2:
     0.308,0.352,0.347,0.068,0.000:
0000
0000
0000
0000
,
0000
0000
0000
0000
,
0000
0000
0000
0000
,
0000
0000
0000
0000
,
1000
0001
1000
0001
,
0100
0010
0100
0010
,
1000
0010
1000
0010
,
0100
0000
0000
0000
,
0001
0101
0001
0100
,
0001
0000
1100
0000
,
0001
1000
1100
1000
,
0001
0000
1001
0000
,
1000
0010
0100
0001
,
0010
0000
1001
0000
,
0001
0100
0010
1000
,
0100
0000
1001
0000
,
0002
0000
0000
0200
,
0000
0300
0000
0000
,
2000
0003
0000
0200
,
0000
0300
0000
0000
,
3002
0000
0000
0020
,
0000
0030
0000
0000
,
2003
0000
0000
0020
,
0000
0030
0000
0000
,
3001
1001
1000
0001
,
1000
1001
0001
1000
,
0010
0110
0100
0010
,
0100
0110
0010
0100
,
0001
1001
1000
0001
,
1000
1001
0001
1000
,
0100
1100
1000
0100
,
1000
0001
0010
0001
,
1000
1001
0001
1001
,
1000
1001
0001
1001
,
0100
0110
0010
0110
,
0100
0110
0010
0110
,
0010
1000
0010
1010
,
0100
0001
0100
0101
,
0001
1000
1100
0100
,
1000
0001
0010
0001
,
1000
0001
1000
0001
,
0101
0100
0010
1001
,
1000
0100
0010
0011
,
0001
1000
0100
0010
,
0001
0010
0100
1100
,
1000
0001
0100
0011
,
0001
1000
0010
0110
,
0100
0001
1000
0100
,
0010
0001
0010
1100
,
0100
1000
0010
1000
,
0001
0100
0010
1000
,
1100
0001
0010
0001
,
1000
0010
0100
0101
,
0001
0100
0010
1000
,
0100
0010
0001
1000
,
1100
0001
0010
0001
,
1000
0010
0100
1001
,
0001
1000
0100
0011
,
0010
0100
1000
0110
,
0010
0100
0001
0010
,
0100
1000
0001
0100
,
0101
0010
1000
0100
,
0110
0010
0001
1000
,
1001
0001
0100
0010
,
1001
0000
0000
0000
;
#NOTES:
     dance-single:
     Renard:
     Hard:
     9:
     0.542,0.568,0.372,0.085,0.343:
0000
0000
0000
0000
,
0000
0000
0000
0000
,
0000
0000
0000
0000
,
0000
0000
0000
0000
,
1000
0001
0000
0100
0000
0010
0100
0001
,
0000
0010
0000
0100
1000
0010
0100
0001
,
1000
0100
1000
0001
0000
0010
0001
1000
,
0010
0000
0000
0000
0000
0000
0000
0000
0000
0000
0000
0000
0000
0000
0000
0000
0000
0000
0000
0000
0000
0000
0000
0000
0100
0000
0000
0000
0000
0100
0000
0000
0000
0000
0100
0000
0000
0000
0000
0100
0000
0000
0000
0000
0000
0000
0000
0000
,
1010
0100
1001
0000
1010
0000
0100
0011
,
0100
0000
0010
1001
0000
0100
0010
1000
,
1100
0010
1001
0100
1010
0000
0100
0000
,
0011
0100
1000
0101
0000
1000
0010
0000
,
0110
1000
0101
0000
1010
0000
0101
0000
,
1100
0010
0001
1001
0000
0001
0100
0010
,
1010
0100
0011
0000
0110
1000
0101
0000
,
1001
0100
1010
0101
0000
1000
0001
0000
,
2000
0010
0000
0010
0000
0010
3020
0000
,
0000
0000
0000
0000
,
0000
0100
0000
0100
0000
0100
0230
0000
,
0000
0000
0000
0000
,
0000
0000
0001
0000
0000
0000
0001
0000
0000
0000
0001
0000
0002
0300
0000
0000
,
0000
0000
0000
0000
,
0000
0010
0000
0010
0000
0010
0023
0000
,
0000
0000
0000
0000
,
0130
0000
0100
0000
1000
0000
1000
0010
0000
0010
0100
0000
0001
0000
0010
0000
,
0001
0000
1000
0000
0010
0000
0100
0001
0000
0100
0010
0000
1000
0000
0100
0000
,
0010
0000
0001
0000
0010
0000
0100
1000
0000
0001
0100
0000
0010
0000
1000
0000
,
0100
0000
0010
0000
0001
0010
0000
0100
0000
0000
1000
0001
0000
0100
0001
1000
,
0100
0000
0100
0000
1000
0000
1000
0010
0000
0010
0100
0000
0001
0000
0010
0000
,
0001
0000
1000
0000
0010
0000
0100
0001
0000
0100
0010
0000
1000
0000
0100
0000
,
0010
0000
0001
0000
0010
0000
0100
1000
0000
0001
0100
0000
0010
0000
1000
0000
,
0100
0000
0010
0000
0001
0010
0000
0100
0000
0000
1000
0001
0000
1000
0100
0010
,
0001
0000
0001
0000
0100
0000
0100
1000
0000
1000
0001
0000
0010
0000
1000
0000
,
1000
0000
0001
0000
0100
0000
0010
1000
0000
0010
0100
0000
0001
0000
0010
0000
,
0100
0000
1000
0000
0100
0000
0010
0001
0000
1000
0010
0000
0100
0000
0001
0000
,
0010
0000
0100
0000
1000
0100
0000
0010
0000
0000
0001
1000
0000
0010
1000
0010
,
1000
0000
1000
0000
0010
0000
0010
0001
0000
0001
1000
0000
0100
0000
0001
0000
,
0001
0000
1000
0000
0010
0000
0100
0001
0000
0100
0010
0000
1000
0000
0100
0000
,
0010
0000
0001
0000
0010
0000
0100
1000
0000
0001
0100
0000
0010
0000
1000
0000
,
0100
0010
0001
1000
0100
0010
0000
0001
0000
0001
0000
0010
0100
0000
1000
0000
,
0001
0000
0000
0001
0010
0000
0000
0000
0110
0000
0000
0100
1000
0000
0010
0000
,
0100
0000
0000
0000
0110
0000
0000
0000
0010
0000
0000
0010
1000
0000
0100
0000
,
0010
0000
0000
0000
0110
0000
0000
0000
0010
0000
0000
0010
0001
0000
1000
0000
,
0010
0000
0000
0010
0100
0000
0000
0000
0001
0000
0010
0000
0100
0000
1000
0000
,
0001
0000
0000
0001
0010
0000
0000
0000
0110
0000
0000
0100
1000
0000
0010
0000
,
0100
0000
0000
0000
0110
0000
0000
0000
0100
0000
0000
0100
0001
0000
1000
0000
,
0100
0000
0000
0000
1100
0000
0000
0000
0100
0000
0000
0010
0001
0000
0010
0000
,
0100
0000
0000
0000
0110
0000
0000
0000
0100
0000
1000
0000
0001
0010
0100
1000
,
0001
0000
0000
0000
0011
0000
0000
0000
0001
0000
0000
0010
0100
0000
1000
0000
,
0001
0000
0000
0000
0101
0000
0000
0000
0100
0000
0000
0010
1000
0000
0100
0000
,
0110
0000
0000
0000
0011
0000
0000
0000
0001
0000
0000
0010
0100
0000
0110
0000
,
1100
0000
1001
0000
0001
0100
0020
0000
,
1030
0000
0000
0000
1010
0000
0000
0101
0000
0000
0001
0010
0000
0000
1100
0000
,
0020
0000
0000
0000
0031
0000
0000
0000
0010
0000
0000
0100
1000
0000
0010
0000
,
0200
0000
0000
0000
0301
0000
0000
0000
0010
0000
0000
1000
0100
0000
0010
0000
,
0001
0000
0000
0000
0011
0000
0000
0000
0001
0000
0000
0010
0100
0000
1000
0000
,
0001
0000
0010
0000
1000
0000
0000
0000
0010
0000
0000
0010
0001
0000
0100
0000
,
1000
0000
0100
0000
0001
0000
0000
0000
1000
0000
0000
1000
0100
0000
0001
0000
,
0100
0000
1000
0000
0010
0000
0000
0000
0001
0000
0000
0010
0010
0000
0100
0000
,
1000
0000
0100
0000
0001
0000
0000
0000
0100
0000
0000
0010
0010
0000
1000
0000
,
0100
0000
0000
0000
1001
0000
0000
0000
0001
0010
0000
0100
0000
0000
1000
0000
,
0001
0000
0000
0000
0101
0000
0000
0000
0000
0000
0000
0001
1000
0100
0000
0010
,
0002
0000
0000
0000
0023
0000
0000
0000
0031
0000
0000
1000
0100
0000
0010
0000
,
0001
0010
0100
1000
0001
0000
0000
1000
0100
0000
0000
0010
0001
0000
0010
0000
,
1100
0000
0000
0000
;
